The Tomorrow People | Your Place or Mine? | Pinnacle Studio 12 Ultimate.

Скачать через торрент Жили-были... искатели Il etait une fois ... les Explorateurs Фильм бесплатно в хорошем качестве torrent

Скачивайте на UnionPeer.org фильмы через торрент без регистрации. Новинки кино в хорошем качестве через торрент. На UnionPeer.org можно скачать через торрент фильмы 2014 и 2015 годов. Самые новые фильмы.

Скачать торрент Жили-были... искатели Il etait une fois ... les Explorateurs бесплатно через .torrent фильм мультфильм сериал

Статистика раздачи
Размер:  17.3 GB   |    Зарегистрирован:  2 года   |    .torrent скачан:  66 раз   |   
Раздают:  1  
   
загрузка...
 
Автор Сообщение

Galfimbul

avatar Galfimbul


Жили-были... искатели / Il etait une fois ... les Explorateurs
Серии 01-05, 07-26 из 26


Страна: Франция.
Жанр: Мультсериал, семейный, история.
Продолжительность: 00:25:00 мин./серия.
Год выпуска: 1996.
Перевод: Профессиональный (дублированный)
Русские субтитры: Нет.

Режиссёр: Альбер Барийе / Albert Barille.
Роли озвучивали: Даниэль Беретта, Роже Карель, Оливье Дестре, Хелен Левески, Патрик Прежан, Жан-Клод Роббе.

Описание: Вместе с искателями мы совершим путешествия в новые незнакомые места. Они расскажут нам, как происходило познание нашей планеты, которая, как все помнят, много веков назад была поистине неизведанной, terra incognita…



Релиз:

Качество видео: DVB
Формат видео: MPEG-PS
Видео: MPEG2 Video, 704x576, 25 fps, 3 557 kbps
Аудио: MPEG Audio, 2 сh, 48 kHz, 192 kbps

<a href="tracker.php?nm=Il%20etait%20une%20fois...%20les%20explorateurs" class="postLink">АЛЬТЕРНАТИВНЫЕ РАЗДАЧИ МУЛЬТСЕРИАЛА</a>
01 Les premiers navigateurs
02 Alexandre le Grand
03 Erik le Rouge et la Decouverte de l'Amerique
04 Gengis Khan
05 Ibn Battuta (sur les traces de Marco Polo)
07 Vasco de Gama
08 Les Taxis et La Premiere Poste
09 Les Pinzon
10 Amerigo Vespucci
11 Magellan et Del Cano
12 Cabeza de Vaca
13 Bering
14 Bougainville et le Pacifique
15 Bruce et les sources du Nil
16 La Condamine
17 James Cook
18 Humboldt
19 Lewis et Clark
20 Stuart et Burke
21 Stanley et Livingstone
22 Amundsen et le Pole Sud
23 Alexandra David-Neel
24 Piccard, des sommets aux abysses
25 Vers les cimes
26 Vers les Etoiles
General
Complete name : G:\ТОЧКА\Мультсериалы\Жили-были... искатели\Жили-были искатели 11 Magellan et Del Cano.mpg
Format : MPEG-PS
File size : 713 MiB
Duration : 26mn 2s
Overall bit rate mode : Variable
Overall bit rate : 3 825 Kbps

Video
ID : 224 (0xE0)
Format : MPEG Video
Format version : Version 2
Format profile : [email protected]
Format settings, BVOP : Yes
Format settings, Matrix : Custom
Format settings, GOP : Variable
Format settings, picture st : Frame
Duration : 26mn 2s
Bit rate mode : Variable
Bit rate : 3 557 Kbps
Maximum bit rate : 15.0 Mbps
Width : 704 pixels
Height : 576 pixels
Display aspect ratio : 4:3
Frame rate : 25.000 fps
Standard : PAL
Color space : YUV
Chroma subsampling : 4:2:0
Bit depth : 8 bits
Scan type : Interlaced
Scan order : Top Field First
Compression mode : Lossy
Bits/(Pixel*Frame) : 0.351
Time code of first frame : 00:00:00:00
Time code source : Group of pictures header
GOP, Open/Closed : Open
GOP, Open/Closed of first f : Closed
Stream size : 663 MiB (93%)

Audio
ID : 192 (0xC0)
Format : MPEG Audio
Format version : Version 1
Format profile : Layer 2
Duration : 26mn 2s
Bit rate mode : Constant
Bit rate : 192 Kbps
Channel(s) : 2 channels
Sampling rate : 48.0 KHz
Compression mode : Lossy
Delay relative to video : 11ms
Stream size : 35.8 MiB (5%)
<a href="tracker.php?rid=13604994" class="postLink">МОИ РАЗДАЧИ</a>
НЕ ЗАБЫВАЕМ БЛАГОДАРИТЬ НАЖАТИЕМ КНОПОЧКИ "СПАСИБО"

Трекер:  [ 01-Июн-2016 19:30 ]

  

Скачать .torrent

Размер .torrent файла 46 KB


Размер: 17.3 GB
Хэш (hash) релиза: 05a1ff4716d1df5366816268116029a08ac41be7
Подписка на обновления:

Еще никто не оставлял запись к записи скачать торрент Жили-были... искатели Il etait une fois ... les Explorateurs . Будь первым!

!Обратная связь