UKAYS - Pahit Akan Manis Akhirnya | Three Rivers (2009-2010) | Walking Dead T12

Скачать через торрент [SERIAL] Медиум Medium бесплатно русская версия torrent активатор

Статистика раздачи
Размер:  21.45 GB   |    Зарегистрирован:  2 года 1 месяц   |    .torrent скачан:  168 раз   |   
Раздают:  2   Качают:  1  
   
загрузка...
 
Автор Сообщение

Galfimbul

avatar Galfimbul


Медиум / Medium«She Sees What Others Can't»Год выпуска: 2005 – 2011
Страна: США
Жанр: Фантастика, триллер, драма, криминал, детектив

Режиссёр: Аарон Липстадт, Питер Уэрнер, Винс Мисиано
В ролях: Патриция Аркетт, Мигель Сандовал, Софья Васильева, Мария Лэрк, Джейк Уэбер, Дэвид Кабитт, Миранда Карабелло, Мэдисон Карабелло, Тина ДиДжозеф, Брюс Грэй

Описание: У Элисон Дюбуа трое детей и любящий муж. Она — образцовая мать и домохозяйка. И она обладает экстраординарными способностями: может говорить с мёртвыми.
Этот дар помогает Элисон в работе над раскрытием преступлений, поисках пропавших без вести. Элисон пытается совмещать нещадящую её работу со своим даром и семейным бытом. И если бы не любящий муж, стресс давно свёл бы её с ума.



Рип от: Egorijj.Alien
Релиз от:

<a href="tracker.php?nm=%D0%9C%D0%B5%D0%B4%D0%B8%D1%83%D0%BC%20Medium%20%D0%A1%D0%B5%D0%B7%D0%BE%D0%BD%20%D1%82%D1%80%D0%B8%D0%BB%D0%BB%D0%B5%D1%80" class="postLink">Все раздачи сериала,</a> исходники - раздачи valedo58
Серий: 01 - 16 из 16
Продолжительность: ~ 00:43:00 серия

Перевод: Профессиональный (русский, многоголосый, закадровый) 5 канал (СПб)
Субтитры: Нет

Качество: HDTVRip
Формат: MP4
Видео кодек: AVC
Аудио кодек: AAC
Видео: 440 kbps, 480x272, 25 fps
Аудио: 128 kbps, 2 ch, 48,0 khz

Скриншоты:
General
Complete name : E:\Видео\mp4 480\Medium\Medium.S01\Medium.S01E01.mp4
Format : MPEG-4
Format profile : Base Media
Codec ID : isom (isom/avc1)
File size : 177 MiB
Duration : 43mn 13s
Overall bit rate mode : Variable
Overall bit rate : 572 Kbps
Encoded date : UTC 2016-05-08 20:49:40
Tagged date : UTC 2016-05-08 20:49:40

Video
ID : 1
Format : AVC
Format/Info : Advanced Video Codec
Format profile : [email protected]
Format settings, CABAC : Yes
Format settings, ReFrames : 7 frames
Codec ID : avc1
Codec ID/Info : Advanced Video Coding
Duration : 43mn 13s
Bit rate : 440 Kbps
Maximum bit rate : 2 339 Kbps
Width : 480 pixels
Height : 272 pixels
Display aspect ratio : 16:9
Frame rate mode : Constant
Frame rate : 25.000 fps
Color space : YUV
Chroma subsampling : 4:2:0
Bit depth : 8 bits
Scan type : Progressive
Bits/(Pixel*Frame) : 0.135
Stream size : 136 MiB (77%)
Writing library : x264 core 130 r2273 b3065e6
Encoding settings : cabac=1 / ref=7 / deblock=1:-1:-1 / analyse=0x3:0x133 / me=umh / subme=8 / psy=1 / psy_rd=1.00:0.10 / mixed_ref=1 / me_range=24 / chroma_me=1 / trellis=2 / 8x8dct=1 / cqm=0 / deadzone=21,11 / fast_pskip=0 / chroma_qp_offset=-3 / threads=3 / lookahead_threads=1 / sliced_threads=0 / nr=0 / decimate=1 / interlaced=0 / bluray_compat=0 / constrained_intra=0 / bframes=7 / b_pyramid=2 / b_adapt=2 / b_bias=0 / direct=3 / weightb=1 / open_gop=0 / weightp=2 / keyint=250 / keyint_min=25 / scenecut=40 / intra_refresh=0 / rc_lookahead=50 / rc=2pass / mbtree=1 / bitrate=440 / ratetol=1.0 / qcomp=0.60 / qpmin=0 / qpmax=69 / qpstep=4 / cplxblur=20.0 / qblur=0.5 / ip_ratio=1.40 / aq=1:1.00
Encoded date : UTC 2016-05-08 20:49:40
Tagged date : UTC 2016-05-08 20:49:50

Audio
ID : 2
Format : AAC
Format/Info : Advanced Audio Codec
Format profile : LC
Codec ID : 40
Duration : 43mn 13s
Bit rate mode : Variable
Bit rate : 128 Kbps
Maximum bit rate : 133 Kbps
Channel(s) : 2 channels
Channel positions : Front: L R
Sampling rate : 48.0 KHz
Frame rate : 46.875 fps (1024 spf)
Compression mode : Lossy
Stream size : 39.6 MiB (22%)
Encoded date : UTC 2016-05-08 20:49:47
Tagged date : UTC 2016-05-08 20:49:50
Серий: 01 - 22 из 22
Продолжительность: ~ 00:43:00 серия

Перевод: Профессиональный (русский, многоголосый, закадровый) 5 канал (СПб)
Субтитры: Нет

Качество: HDTVRip
Формат: MP4
Видео кодек: AVC
Аудио кодек: AAC
Видео: 420 kbps, 480x272, 23.976 fps
Аудио: 128 kbps, 2 ch, 48,0 khz

Скриншоты:
General
Complete name : E:\Видео\mp4 480\Medium\Medium.S02\Medium.S02E01.mp4
Format : MPEG-4
Format profile : Base Media
Codec ID : isom (isom/avc1)
File size : 169 MiB
Duration : 42mn 53s
Overall bit rate mode : Variable
Overall bit rate : 552 Kbps
Encoded date : UTC 2016-05-11 04:43:22
Tagged date : UTC 2016-05-11 04:43:22

Video
ID : 1
Format : AVC
Format/Info : Advanced Video Codec
Format profile : [email protected]
Format settings, CABAC : Yes
Format settings, ReFrames : 7 frames
Codec ID : avc1
Codec ID/Info : Advanced Video Coding
Duration : 42mn 53s
Bit rate : 420 Kbps
Maximum bit rate : 1 704 Kbps
Width : 480 pixels
Height : 272 pixels
Display aspect ratio : 16:9
Frame rate mode : Constant
Frame rate : 23.976 (24000/1001) fps
Color space : YUV
Chroma subsampling : 4:2:0
Bit depth : 8 bits
Scan type : Progressive
Bits/(Pixel*Frame) : 0.134
Stream size : 129 MiB (76%)
Writing library : x264 core 130 r2273 b3065e6
Encoding settings : cabac=1 / ref=7 / deblock=1:-1:-1 / analyse=0x3:0x133 / me=umh / subme=8 / psy=1 / psy_rd=1.00:0.10 / mixed_ref=1 / me_range=24 / chroma_me=1 / trellis=2 / 8x8dct=1 / cqm=0 / deadzone=21,11 / fast_pskip=0 / chroma_qp_offset=-3 / threads=3 / lookahead_threads=1 / sliced_threads=0 / nr=0 / decimate=1 / interlaced=0 / bluray_compat=0 / constrained_intra=0 / bframes=7 / b_pyramid=2 / b_adapt=2 / b_bias=0 / direct=3 / weightb=1 / open_gop=0 / weightp=2 / keyint=250 / keyint_min=23 / scenecut=40 / intra_refresh=0 / rc_lookahead=50 / rc=2pass / mbtree=1 / bitrate=420 / ratetol=1.0 / qcomp=0.60 / qpmin=0 / qpmax=69 / qpstep=4 / cplxblur=20.0 / qblur=0.5 / ip_ratio=1.40 / aq=1:1.00
Encoded date : UTC 2016-05-11 04:43:22
Tagged date : UTC 2016-05-11 04:43:34

Audio
ID : 2
Format : AAC
Format/Info : Advanced Audio Codec
Format profile : LC
Codec ID : 40
Duration : 42mn 53s
Bit rate mode : Variable
Bit rate : 128 Kbps
Maximum bit rate : 135 Kbps
Channel(s) : 2 channels
Channel positions : Front: L R
Sampling rate : 48.0 KHz
Frame rate : 46.875 fps (1024 spf)
Compression mode : Lossy
Stream size : 39.3 MiB (23%)
Encoded date : UTC 2016-05-11 04:43:30
Tagged date : UTC 2016-05-11 04:43:34
Серий: 01 - 22 из 22
Продолжительность: ~ 00:43:00 серия

Перевод: Профессиональный (русский, многоголосый, закадровый) 5 канал (СПб)
Субтитры: Нет

Качество: HDTVRip
Формат: MP4
Видео кодек: AVC
Аудио кодек: AAC
Видео: 440 kbps, 480x272, 25 fps
Аудио: 128 kbps, 2 ch, 48,0 khz

Скриншоты:
General
Complete name : E:\Видео\mp4 480\Medium\Medium.S03\Medium.S03E01.mp4
Format : MPEG-4
Format profile : Base Media
Codec ID : isom (isom/avc1)
File size : 172 MiB
Duration : 41mn 55s
Overall bit rate mode : Variable
Overall bit rate : 572 Kbps
Encoded date : UTC 2016-05-13 08:48:29
Tagged date : UTC 2016-05-13 08:48:29

Video
ID : 1
Format : AVC
Format/Info : Advanced Video Codec
Format profile : [email protected]
Format settings, CABAC : Yes
Format settings, ReFrames : 7 frames
Codec ID : avc1
Codec ID/Info : Advanced Video Coding
Duration : 41mn 55s
Bit rate : 440 Kbps
Maximum bit rate : 4 052 Kbps
Width : 480 pixels
Height : 272 pixels
Display aspect ratio : 16:9
Frame rate mode : Constant
Frame rate : 25.000 fps
Color space : YUV
Chroma subsampling : 4:2:0
Bit depth : 8 bits
Scan type : Progressive
Bits/(Pixel*Frame) : 0.135
Stream size : 132 MiB (77%)
Writing library : x264 core 130 r2273 b3065e6
Encoding settings : cabac=1 / ref=7 / deblock=1:-1:-1 / analyse=0x3:0x133 / me=umh / subme=8 / psy=1 / psy_rd=1.00:0.10 / mixed_ref=1 / me_range=24 / chroma_me=1 / trellis=2 / 8x8dct=1 / cqm=0 / deadzone=21,11 / fast_pskip=0 / chroma_qp_offset=-3 / threads=3 / lookahead_threads=1 / sliced_threads=0 / nr=0 / decimate=1 / interlaced=0 / bluray_compat=0 / constrained_intra=0 / bframes=7 / b_pyramid=2 / b_adapt=2 / b_bias=0 / direct=3 / weightb=1 / open_gop=0 / weightp=2 / keyint=250 / keyint_min=25 / scenecut=40 / intra_refresh=0 / rc_lookahead=50 / rc=2pass / mbtree=1 / bitrate=440 / ratetol=1.0 / qcomp=0.60 / qpmin=0 / qpmax=69 / qpstep=4 / cplxblur=20.0 / qblur=0.5 / ip_ratio=1.40 / aq=1:1.00
Encoded date : UTC 2016-05-13 08:48:29
Tagged date : UTC 2016-05-13 08:48:38

Audio
ID : 2
Format : AAC
Format/Info : Advanced Audio Codec
Format profile : LC
Codec ID : 40
Duration : 41mn 55s
Bit rate mode : Variable
Bit rate : 128 Kbps
Maximum bit rate : 133 Kbps
Channel(s) : 2 channels
Channel positions : Front: L R
Sampling rate : 48.0 KHz
Frame rate : 46.875 fps (1024 spf)
Compression mode : Lossy
Stream size : 38.4 MiB (22%)
Encoded date : UTC 2016-05-13 08:48:36
Tagged date : UTC 2016-05-13 08:48:38
Серий: 01 - 16 из 16
Продолжительность: ~ 00:43:00 серия

Перевод: Профессиональный (русский, многоголосый, закадровый) канал ТВ3
Субтитры: Нет

Качество: WEB-DLRip
Формат: MP4
Видео кодек: AVC
Аудио кодек: AAC
Видео: 420 kbps, 480x272, 23.976 fps
Аудио: 128 kbps, 2 ch, 48,0 khz

Скриншоты:
General
Complete name : E:\Видео\mp4 480\Medium\Medium.S04\Medium.S04E01.mp4
Format : MPEG-4
Format profile : Base Media
Codec ID : isom (isom/avc1)
File size : 171 MiB
Duration : 43mn 19s
Overall bit rate mode : Variable
Overall bit rate : 552 Kbps
Encoded date : UTC 2016-05-27 05:17:48
Tagged date : UTC 2016-05-27 05:17:48

Video
ID : 1
Format : AVC
Format/Info : Advanced Video Codec
Format profile : [email protected]
Format settings, CABAC : Yes
Format settings, ReFrames : 7 frames
Codec ID : avc1
Codec ID/Info : Advanced Video Coding
Duration : 43mn 19s
Bit rate : 420 Kbps
Maximum bit rate : 1 630 Kbps
Width : 480 pixels
Height : 272 pixels
Display aspect ratio : 16:9
Frame rate mode : Constant
Frame rate : 23.976 (24000/1001) fps
Color space : YUV
Chroma subsampling : 4:2:0
Bit depth : 8 bits
Scan type : Progressive
Bits/(Pixel*Frame) : 0.134
Stream size : 130 MiB (76%)
Writing library : x264 core 130 r2273 b3065e6
Encoding settings : cabac=1 / ref=7 / deblock=1:-1:-1 / analyse=0x3:0x133 / me=umh / subme=8 / psy=1 / psy_rd=1.00:0.10 / mixed_ref=1 / me_range=24 / chroma_me=1 / trellis=2 / 8x8dct=1 / cqm=0 / deadzone=21,11 / fast_pskip=0 / chroma_qp_offset=-3 / threads=3 / lookahead_threads=1 / sliced_threads=0 / nr=0 / decimate=1 / interlaced=0 / bluray_compat=0 / constrained_intra=0 / bframes=7 / b_pyramid=2 / b_adapt=2 / b_bias=0 / direct=3 / weightb=1 / open_gop=0 / weightp=2 / keyint=250 / keyint_min=23 / scenecut=40 / intra_refresh=0 / rc_lookahead=50 / rc=2pass / mbtree=1 / bitrate=420 / ratetol=1.0 / qcomp=0.60 / qpmin=0 / qpmax=69 / qpstep=4 / cplxblur=20.0 / qblur=0.5 / ip_ratio=1.40 / aq=1:1.00
Encoded date : UTC 2016-05-27 05:17:48
Tagged date : UTC 2016-05-27 05:17:57

Audio
ID : 2
Format : AAC
Format/Info : Advanced Audio Codec
Format profile : LC
Codec ID : 40
Duration : 43mn 19s
Bit rate mode : Variable
Bit rate : 128 Kbps
Maximum bit rate : 138 Kbps
Channel(s) : 2 channels
Channel positions : Front: L R
Sampling rate : 48.0 KHz
Frame rate : 46.875 fps (1024 spf)
Compression mode : Lossy
Stream size : 39.7 MiB (23%)
Encoded date : UTC 2016-05-27 05:17:55
Tagged date : UTC 2016-05-27 05:17:57
Серий: 01 - 19 из 19
Продолжительность: ~ 00:43:00 серия

Перевод: Профессиональный (русский, многоголосый, закадровый) канал ТВ3
Субтитры: Нет

Качество: WEB-DLRip
Формат: MP4
Видео кодек: AVC
Аудио кодек: AAC
Видео: 440 kbps, 480x272, 25 fps
Аудио: 128 kbps, 2 ch, 48,0 khz

Скриншоты:
General
Complete name : E:\Видео\mp4 480\Medium\Medium.S05\Medium.S05E01.mp4
Format : MPEG-4
Format profile : Base Media
Codec ID : isom (isom/avc1)
File size : 164 MiB
Duration : 39mn 59s
Overall bit rate mode : Variable
Overall bit rate : 572 Kbps
Encoded date : UTC 2016-05-19 01:43:15
Tagged date : UTC 2016-05-19 01:43:15

Video
ID : 1
Format : AVC
Format/Info : Advanced Video Codec
Format profile : [email protected]
Format settings, CABAC : Yes
Format settings, ReFrames : 7 frames
Codec ID : avc1
Codec ID/Info : Advanced Video Coding
Duration : 39mn 58s
Bit rate : 440 Kbps
Maximum bit rate : 1 549 Kbps
Width : 480 pixels
Height : 272 pixels
Display aspect ratio : 16:9
Frame rate mode : Constant
Frame rate : 25.000 fps
Color space : YUV
Chroma subsampling : 4:2:0
Bit depth : 8 bits
Scan type : Progressive
Bits/(Pixel*Frame) : 0.135
Stream size : 126 MiB (77%)
Writing library : x264 core 130 r2273 b3065e6
Encoding settings : cabac=1 / ref=7 / deblock=1:-1:-1 / analyse=0x3:0x133 / me=umh / subme=8 / psy=1 / psy_rd=1.00:0.10 / mixed_ref=1 / me_range=24 / chroma_me=1 / trellis=2 / 8x8dct=1 / cqm=0 / deadzone=21,11 / fast_pskip=0 / chroma_qp_offset=-3 / threads=3 / lookahead_threads=1 / sliced_threads=0 / nr=0 / decimate=1 / interlaced=0 / bluray_compat=0 / constrained_intra=0 / bframes=7 / b_pyramid=2 / b_adapt=2 / b_bias=0 / direct=3 / weightb=1 / open_gop=0 / weightp=2 / keyint=250 / keyint_min=25 / scenecut=40 / intra_refresh=0 / rc_lookahead=50 / rc=2pass / mbtree=1 / bitrate=440 / ratetol=1.0 / qcomp=0.60 / qpmin=0 / qpmax=69 / qpstep=4 / cplxblur=20.0 / qblur=0.5 / ip_ratio=1.40 / aq=1:1.00
Encoded date : UTC 2016-05-19 01:43:15
Tagged date : UTC 2016-05-19 01:43:24

Audio
ID : 2
Format : AAC
Format/Info : Advanced Audio Codec
Format profile : LC
Codec ID : 40
Duration : 39mn 59s
Bit rate mode : Variable
Bit rate : 128 Kbps
Maximum bit rate : 134 Kbps
Channel(s) : 2 channels
Channel positions : Front: L R
Sampling rate : 48.0 KHz
Frame rate : 46.875 fps (1024 spf)
Compression mode : Lossy
Stream size : 36.6 MiB (22%)
Encoded date : UTC 2016-05-19 01:43:22
Tagged date : UTC 2016-05-19 01:43:24
Серий: 01 - 22 из 22
Продолжительность: ~ 00:43:00 серия

Перевод:
1-4, 6-15, 19-20: Профессиональный (русский, многоголосый, закадровый) канал ТВ3
5, 16-18, 21, 22: Профессиональный (русский, многоголосый, закадровый) SET
Субтитры: Нет

Качество: WEB-DLRip
Формат: MP4
Видео кодек: AVC
Аудио кодек: AAC
Видео: 420 kbps, 480x272, 23.976 fps
Аудио: 128 kbps, 2 ch, 48,0 khz

Скриншоты:
General
Complete name : E:\Видео\mp4 480\Medium\Medium.S06\Medium.S06E01.mp4
Format : MPEG-4
Format profile : Base Media
Codec ID : isom (isom/avc1)
File size : 175 MiB
Duration : 44mn 13s
Overall bit rate mode : Variable
Overall bit rate : 552 Kbps
Encoded date : UTC 2016-05-24 11:15:40
Tagged date : UTC 2016-05-24 11:15:40

Video
ID : 1
Format : AVC
Format/Info : Advanced Video Codec
Format profile : [email protected]
Format settings, CABAC : Yes
Format settings, ReFrames : 7 frames
Codec ID : avc1
Codec ID/Info : Advanced Video Coding
Duration : 44mn 13s
Bit rate : 420 Kbps
Maximum bit rate : 3 169 Kbps
Width : 480 pixels
Height : 272 pixels
Display aspect ratio : 16:9
Frame rate mode : Constant
Frame rate : 23.976 (24000/1001) fps
Color space : YUV
Chroma subsampling : 4:2:0
Bit depth : 8 bits
Scan type : Progressive
Bits/(Pixel*Frame) : 0.134
Stream size : 133 MiB (76%)
Writing library : x264 core 130 r2273 b3065e6
Encoding settings : cabac=1 / ref=7 / deblock=1:-1:-1 / analyse=0x3:0x133 / me=umh / subme=8 / psy=1 / psy_rd=1.00:0.10 / mixed_ref=1 / me_range=24 / chroma_me=1 / trellis=2 / 8x8dct=1 / cqm=0 / deadzone=21,11 / fast_pskip=0 / chroma_qp_offset=-3 / threads=3 / lookahead_threads=1 / sliced_threads=0 / nr=0 / decimate=1 / interlaced=0 / bluray_compat=0 / constrained_intra=0 / bframes=7 / b_pyramid=2 / b_adapt=2 / b_bias=0 / direct=3 / weightb=1 / open_gop=0 / weightp=2 / keyint=250 / keyint_min=23 / scenecut=40 / intra_refresh=0 / rc_lookahead=50 / rc=2pass / mbtree=1 / bitrate=420 / ratetol=1.0 / qcomp=0.60 / qpmin=0 / qpmax=69 / qpstep=4 / cplxblur=20.0 / qblur=0.5 / ip_ratio=1.40 / aq=1:1.00
Encoded date : UTC 2016-05-24 11:15:40
Tagged date : UTC 2016-05-24 11:15:49

Audio
ID : 2
Format : AAC
Format/Info : Advanced Audio Codec
Format profile : LC
Codec ID : 40
Duration : 44mn 13s
Bit rate mode : Variable
Bit rate : 128 Kbps
Maximum bit rate : 135 Kbps
Channel(s) : 2 channels
Channel positions : Front: L R
Sampling rate : 48.0 KHz
Frame rate : 46.875 fps (1024 spf)
Compression mode : Lossy
Stream size : 40.5 MiB (23%)
Encoded date : UTC 2016-05-24 11:15:47
Tagged date : UTC 2016-05-24 11:15:49
Серий: 01 - 13 из 13
Продолжительность: ~ 00:43:00 серия

Перевод: Профессиональный (русский, многоголосый, закадровый) канал ТВ3
Субтитры: Нет

Качество: WEB-DLRip
Формат: MP4
Видео кодек: AVC
Аудио кодек: AAC
Видео: 420 kbps, 480x272, 23.976 fps
Аудио: 128 kbps, 2 ch, 48,0 khz

Скриншоты:
General
Complete name : E:\Видео\mp4 480\Medium\Medium.S07\Medium.S07E01.mp4
Format : MPEG-4
Format profile : Base Media
Codec ID : isom (isom/avc1)
File size : 174 MiB
Duration : 44mn 7s
Overall bit rate mode : Variable
Overall bit rate : 552 Kbps
Encoded date : UTC 2016-05-23 10:44:41
Tagged date : UTC 2016-05-23 10:44:41

Video
ID : 1
Format : AVC
Format/Info : Advanced Video Codec
Format profile : [email protected]
Format settings, CABAC : Yes
Format settings, ReFrames : 7 frames
Codec ID : avc1
Codec ID/Info : Advanced Video Coding
Duration : 44mn 7s
Bit rate : 420 Kbps
Maximum bit rate : 2 130 Kbps
Width : 480 pixels
Height : 272 pixels
Display aspect ratio : 16:9
Frame rate mode : Constant
Frame rate : 23.976 (24000/1001) fps
Color space : YUV
Chroma subsampling : 4:2:0
Bit depth : 8 bits
Scan type : Progressive
Bits/(Pixel*Frame) : 0.134
Stream size : 133 MiB (76%)
Writing library : x264 core 130 r2273 b3065e6
Encoding settings : cabac=1 / ref=7 / deblock=1:-1:-1 / analyse=0x3:0x133 / me=umh / subme=8 / psy=1 / psy_rd=1.00:0.10 / mixed_ref=1 / me_range=24 / chroma_me=1 / trellis=2 / 8x8dct=1 / cqm=0 / deadzone=21,11 / fast_pskip=0 / chroma_qp_offset=-3 / threads=3 / lookahead_threads=1 / sliced_threads=0 / nr=0 / decimate=1 / interlaced=0 / bluray_compat=0 / constrained_intra=0 / bframes=7 / b_pyramid=2 / b_adapt=2 / b_bias=0 / direct=3 / weightb=1 / open_gop=0 / weightp=2 / keyint=250 / keyint_min=23 / scenecut=40 / intra_refresh=0 / rc_lookahead=50 / rc=2pass / mbtree=1 / bitrate=420 / ratetol=1.0 / qcomp=0.60 / qpmin=0 / qpmax=69 / qpstep=4 / cplxblur=20.0 / qblur=0.5 / ip_ratio=1.40 / aq=1:1.00
Encoded date : UTC 2016-05-23 10:44:41
Tagged date : UTC 2016-05-23 10:44:51

Audio
ID : 2
Format : AAC
Format/Info : Advanced Audio Codec
Format profile : LC
Codec ID : 40
Duration : 44mn 7s
Bit rate mode : Variable
Bit rate : 128 Kbps
Maximum bit rate : 136 Kbps
Channel(s) : 2 channels
Channel positions : Front: L R
Sampling rate : 48.0 KHz
Frame rate : 46.875 fps (1024 spf)
Compression mode : Lossy
Stream size : 40.4 MiB (23%)
Encoded date : UTC 2016-05-23 10:44:49
Tagged date : UTC 2016-05-23 10:44:51


Трекер:  [ 29-Май-2016 23:00 ]

  

Скачать .torrent

Размер .torrent файла 115 KB


Размер: 21.45 GB
Хэш (hash) релиза: f12476e907d26cf41ec55ef2f8c6231b9b334095

Еще никто не оставлял запись к записи скачать торрент [SERIAL] Медиум Medium . Будь первым!

!Обратная связь