Télécharger Part 3 | Sylvester Stallone | Les Aventures de Gamba TELECHARGEMENT GRATUIT

Скачать через торрент [VIDEO] Убийца Сегуна Shogun Assassin бесплатно русская версия torrent активатор

Статистика раздачи
Размер:  378 MB   |    Зарегистрирован:  2 года 1 месяц   |    .torrent скачан:  36 раз   |   
Раздают:  1  
   
загрузка...
 
Автор Сообщение

Galfimbul

avatar Galfimbul


Убийца Сегуна / Shogun Assassin
«The legend of lone wolf and cub continues!»

Год выпуска: 1980
Страна: Япония, США
Жанр: боевик, приключения
Продолжительность: 01:24:59
Перевод: Авторский (Одноголосый, закадровый) Дмитрий Пучков (Гоблин)
Cубтитры: нет
Режиссеры: Роберт Хьюстон / Robert Houston
В ролях: Томисабуро Вакаяма / Tomisaburo Wakayama, Каё Мацуо / Kayo Matsuo, Минору Оки / Minoru Ohki, Син Кисида / Shin Kishida, Акихиро / Томикава, Лэмонт Джонсон / Lamont Johnson и другие .
Описание: Жил-был самурай. По приказу обезглавливал тех, кого сёгун назначал виноватыми. А сёгун страдал психическими расстройствами, и как-то раз тёмной ночью подослал к самураю отряд ниндзя. Ниндзи не нашли самурая, но убили его жену. И самурай принял решение отомстить. Он шёл по Японии и вёз в коляске своего маленького сына. Где мог, подрабатывал наёмным убийцей. А по следу за ним шли подосланные сёгуном ниндзя…

Именно «Убийцу сёгуна» требует перед сном дочка Билла и Беатрикс в фильме Тарантино «Убить Билла 2» (2004).

Релиз группы
Качество: HDRip / <a href="viewtopic.php?t=3133391" class="postLink">рип с BDRip 1080p</a>
Формат: MP4
Видео кодек: XviD
Аудио кодек: AAC
Видео: 480x200 AR:2.40 485 kbps 23.976 fps
Аудио: [Русский] 2ch 48 kHz 128 kbps - [VO] Дмитрий Пучков (Гоблин)
ОбщееПолное имя : D:\Torrents\Shogun Assassin.1980.HDRip.XviD.480x.rip by Frost O.S.mp4Формат : MPEG-4Профиль формата : Base MediaИдентификатор кодека : isomРазмер файла : 378 МбайтПродолжительность : 1 ч. 24 м.Режим общего битрейта : ПеременныйОбщий поток : 621 Кбит/секНазвание фильма : Shogun Assassin 1980 HDRip XviD 480x rip by Frost O SТип содержимого : Short FilmДата кодирования : UTC 2016-05-27 13:44:11Дата пометки : UTC 2016-05-27 13:44:46Программа кодирования : MkvToMp4 version: 0.224 (x64)Обложка : YesПримечание : rip by Frost O.SLongDescription : Жил-был самурай. По приказу обезглавливал тех, кого сёгун назначал виноватыми. А сёгун страдал психическими расстройствами, и как-то раз тёмной ночью подослал к самураю отряд ниндзя. Ниндзи не нашли самурая, но убили его жену. И самурай принял решение отомстить. Он шёл по Японии и вёз в коляске своего маленького сына. Где мог, подрабатывал наёмным убийцей. А по следу за ним шли подосланные сёгуном ниндзя…

ВидеоИдентификатор : 1Формат : MPEG-4 VisualПрофиль формата : Advanced [email protected]Параметр BVOP формата : ДаПараметр QPel формата : НетПараметр GMC формата : Без точки переходаПараметр матрицы формата : ВыборочнаяИдентификатор кодека : 20Продолжительность : 1 ч. 24 м.Вид битрейта : ПеременныйБитрейт : 485 Кбит/секМаксимальный битрейт : 194 Мбит/секШирина : 480 пикселейВысота : 200 пикселейСоотношение сторон : 2,40:1Режим частоты кадров : ПеременныйЧастота кадров : 23,976 кадра/секМинимальная частота кадров : 11,988 кадров/секМаксимальная частота кадров : 23,976 кадра/секЦветовое пространство : YUVСубдискретизация насыщенности : 4:2:0Битовая глубина : 8 битТип развёртки : ПрогрессивнаяМетод сжатия : С потерямиБит/(Пиксели*Кадры) : 0.211Размер потока : 295 Мбайт (78%)Библиотека кодирования : XviD 1.2.1 (UTC 2008-12-04)Язык : EnglishДата пометки : UTC 2016-05-27 13:44:24

АудиоИдентификатор : 2Формат : AACФормат/Информация : Advanced Audio CodecПрофиль формата : LCИдентификатор кодека : 40Продолжительность : 1 ч. 24 м.Вид битрейта : ПеременныйБитрейт : 128 Кбит/секМаксимальный битрейт : 135 Кбит/секКаналы : 2 каналаРасположение каналов : Front: L RЧастота : 48,0 КГцМетод сжатия : С потерямиРазмер потока : 77,8 Мбайт (21%)Заголовок : [VO] Goblin Dmitriy PuchkovЯзык : RussianДата кодирования : UTC 2016-05-27 13:44:18Дата пометки : UTC 2016-05-27 13:44:24


Трекер:  [ 27-Май-2016 15:30 ]

  

Скачать .torrent

Размер .torrent файла 15 KB


Размер: 378 MB
Хэш (hash) релиза: 2b86c74f424156400e89a7de81943d24830ecdf4

Еще никто не оставлял запись к записи скачать торрент [VIDEO] Убийца Сегуна Shogun Assassin . Будь первым!

!Обратная связь