Eduard Franz | Super Troopers 2 uptobox | اغنيه ابن دمى - اسماعيل الليثي - شاهد جميع حلقات مسلسل الأسطورة محمد رمضان | mosalsalatlive.tv/video

Скачать через торрент [VIDEO] Боги Египта Gods of Egypt бесплатно русская версия torrent активатор

Статистика раздачи
Размер:  2.91 GB   |    Зарегистрирован:  2 года 1 месяц   |    .torrent скачан:  396 раз   |   
Раздают:  1  
   
загрузка...
 
Автор Сообщение

Galfimbul

avatar Galfimbul


Боги Египта / Gods of Egypt
Год выпуска: 2016
Страна: США
Студия: Mystery Clock Cinema
Жанр: фэнтези, боевик, приключения
Продолжительность: 02:07:02
Перевод: Профессиональный (дублированный)
Оригинальная аудиодорожка: английский

Режиссер: Алекс Пройас / Alex Proyas

В ролях: Брентон Туэйтс, Джерард Батлер, Николай Костер-Вальдау, Чедвик Боузман, Элоди Юнг, Кортни Итон, Руфус Сьюэлл, Джеффри Раш, Брайан Браун, Рэйчел Блейк

Описание: Некогда мирное и процветающее египетское царство погружается в хаос: беспощадный бог тьмы Сет убивает своего брата Осириса и узурпирует трон. Вызов ему неожиданно бросает простой смертный, находчивый молодой вор. Чтобы вернуть к жизни свою прекрасную возлюбленную, ему приходится заручиться поддержкой могущественного и мстительного бога Гора. Лишь выдержав испытание на прочность и принеся в жертву все самое дорогое, им удастся противостоять Сету и его приспешникам в мире живых и мире мертвых.

Качество видео: BDRip |<a href="viewtopic.php?t=5228900" class="postLink">BDRemux 1080p</a>|
Формат видео: MP4

Видео: AVC (x264), 1280x532 (2.40:1), ~2960 kbps, 23.976 fps, 0.181 bpp
Аудио 1: Русский, AСC, 48 KHz, 2 ch, 160 kbps
Аудио 2: Английский, AСC, 48 KHz, 2 ch, 160 kbps
Cубтитры: русские, английские
Формат субтитров: softsub (SRT)

[b]Релиз:

</span></a></span>
GeneralUnique ID : 236646111860567525547401578677330185021 (0xB20862204F4C8DAF811EA7CEDB6F0B3D)Complete name : C:\Bogi Egipta 2016\Gods of [email protected] : MatroskaFormat version : Version 4 / Version 2File size : 2.91 GiBDuration : 2h 7mnOverall bit rate : 3 285 KbpsMovie name : Боги Египта / Gods of Egypt / 2016 [email protected]=-Encoded date : UTC 2016-05-25 06:01:43Writing application : mkvmerge v9.1.0 ('Little Earthquakes') 64bitWriting library : libebml v1.3.3 + libmatroska v1.4.4Cover : YesAttachments : cover.jpg

VideoID : 1Format : AVCFormat/Info : Advanced Video CodecFormat profile : [email protected] settings, CABAC : YesFormat settings, ReFrames : 8 framesCodec ID : V_MPEG4/ISO/AVCDuration : 2h 7mnBit rate : 2 960 KbpsWidth : 1 280 pixelsHeight : 532 pixelsDisplay aspect ratio : 2.40:1Frame rate mode : ConstantFrame rate : 23.976 (24000/1001) fpsColor space : YUVChroma subsampling : 4:2:0Bit depth : 8 bitsScan type : ProgressiveBits/(Pixel*Frame) : 0.181Stream size : 2.62 GiB (90%)Title : Rip by nnlabetikWriting library : x264 core 148 r2692 64f4e24Encoding settings : cabac=1 / ref=8 / deblock=1:-2:-1 / analyse=0x3:0x113 / me=umh / subme=11 / psy=1 / psy_rd=1.00:0.00 / mixed_ref=1 / me_range=32 / chroma_me=1 / trellis=2 / 8x8dct=1 / cqm=0 / deadzone=21,11 / fast_pskip=0 / chroma_qp_offset=-2 / threads=6 / lookahead_threads=1 / sliced_threads=0 / nr=0 / decimate=1 / interlaced=0 / bluray_compat=0 / constrained_intra=0 / bframes=10 / b_pyramid=2 / b_adapt=2 / b_bias=0 / direct=3 / weightb=1 / open_gop=0 / weightp=0 / keyint=240 / keyint_min=23 / scenecut=40 / intra_refresh=0 / rc_lookahead=60 / rc=2pass / mbtree=0 / bitrate=2960 / ratetol=1.0 / qcomp=0.60 / qpmin=0 / qpmax=69 / qpstep=4 / cplxblur=20.0 / qblur=0.5 / vbv_maxrate=50000 / vbv_bufsize=62500 / nal_hrd=none / filler=0 / ip_ratio=1.35 / pb_ratio=1.25 / aq=1:1.00Language : EnglishDefault : YesForced : NoColor range : LimitedColor primaries : BT.709Transfer characteristics : BT.709Matrix coefficients : BT.709

Audio #1ID : 2Format : AACFormat/Info : Advanced Audio CodecFormat profile : LCCodec ID : A_AACDuration : 2h 7mnBit rate : 163 KbpsChannel(s) : 2 channelsChannel positions : Front: L RSampling rate : 48.0 KHzFrame rate : 46.875 fps (1024 spf)Compression mode : LossyStream size : 148 MiB (5%)Title : DubLanguage : RussianDefault : YesForced : No

Audio #2ID : 3Format : AACFormat/Info : Advanced Audio CodecFormat profile : LCCodec ID : A_AACDuration : 2h 7mnBit rate : 162 KbpsChannel(s) : 2 channelsChannel positions : Front: L RSampling rate : 48.0 KHzFrame rate : 46.875 fps (1024 spf)Compression mode : LossyStream size : 147 MiB (5%)Title : OrgLanguage : EnglishDefault : NoForced : No

Text #1ID : 4Format : UTF-8Codec ID : S_TEXT/UTF8Codec ID/Info : UTF-8 Plain TextDuration : 1h 55mnBit rate : 75 bpsCount of elements : 1064Stream size : 64.1 KiB (0%)Language : RussianDefault : NoForced : No

Text #2ID : 5Format : UTF-8Codec ID : S_TEXT/UTF8Codec ID/Info : UTF-8 Plain TextDuration : 1h 55mnBit rate : 46 bpsCount of elements : 1221Stream size : 39.1 KiB (0%)Language : EnglishDefault : NoForced : No

Text #3ID : 6Format : UTF-8Codec ID : S_TEXT/UTF8Codec ID/Info : UTF-8 Plain TextDuration : 1h 55mnBit rate : 52 bpsCount of elements : 1487Stream size : 44.2 KiB (0%)Language : EnglishDefault : NoForced : No

Menu00:00:00.000 : :00:00:00.00000:07:08.009 : :00:07:08.00900:18:07.544 : :00:18:07.54400:23:47.259 : :00:23:47.25900:30:11.808 : :00:30:11.80800:39:16.519 : :00:39:16.51900:46:30.621 : :00:46:30.62100:54:46.074 : :00:54:46.07401:01:14.128 : :01:01:14.12801:09:29.038 : :01:09:29.03801:18:03.345 : :01:18:03.34501:28:18.251 : :01:28:18.25101:36:12.056 : :01:36:12.05601:39:14.655 : :01:39:14.65501:46:58.328 : :01:46:58.32801:52:11.015 : :01:52:11.015


Трекер:  [ 25-Май-2016 09:00 ]

  

Скачать .torrent

Размер .torrent файла 15 KB


Размер: 2.91 GB
Хэш (hash) релиза: f89a90d29eaa895c96a4532c32a5135ee9ae9885

Еще никто не оставлял запись к записи скачать торрент [VIDEO] Боги Египта Gods of Egypt . Будь первым!

!Обратная связь