Wersja bez grafiki | More Details | Snowfall

Скачать через торрент [VIDEO] Убийца Сегуна Shogun Assassin бесплатно русская версия torrent активатор

Статистика раздачи
Размер:  1.17 GB   |    Зарегистрирован:  2 года 1 месяц   |    .torrent скачан:  54 раза   |   
Раздают:  1  
   
загрузка...
 
Автор Сообщение

Galfimbul

avatar Galfimbul


Убийца Сегуна / Shogun Assassin
«The legend of lone wolf and cub continues!»

Год выпуска: 1980
Страна: Япония, США
Жанр: боевик, приключения
Продолжительность: 01:24:59
Перевод №1: Авторский (Одноголосый, закадровый) Дмитрий Пучков (Гоблин)
Перевод №2: Авторский (Одноголосый, закадровый) Сергей Кузнецов
Перевод №3: Авторский (Одноголосый, закадровый) Юрий Толбин
Cубтитры: нет
Режиссеры: Роберт Хьюстон / Robert Houston
В ролях: Томисабуро Вакаяма / Tomisaburo Wakayama, Каё Мацуо / Kayo Matsuo, Минору Оки / Minoru Ohki, Син Кисида / Shin Kishida, Акихиро / Томикава, Лэмонт Джонсон / Lamont Johnson и другие .
Описание: Жил-был самурай. По приказу обезглавливал тех, кого сёгун назначал виноватыми. А сёгун страдал психическими расстройствами, и как-то раз тёмной ночью подослал к самураю отряд ниндзя. Ниндзи не нашли самурая, но убили его жену. И самурай принял решение отомстить. Он шёл по Японии и вёз в коляске своего маленького сына. Где мог, подрабатывал наёмным убийцей. А по следу за ним шли подосланные сёгуном ниндзя…

Именно «Убийцу сёгуна» требует перед сном дочка Билла и Беатрикс в фильме Тарантино «Убить Билла 2» (2004).

Релиз группы
Качество: HDRip / <a href="viewtopic.php?t=3133391" class="postLink">рип с BDRip 1080p</a>
Формат: MP4
Видео кодек: H.264
Аудио кодек: AAC
Видео: 960x394 AR:2.40 1571 kbps 23.976 fps
Аудио №1: [Русский] 2ch 48 kHz 128 kbps - [VO] Дмитрий Пучков (Гоблин)
Аудио №2: [Русский] 2ch 48 kHz 128 kbps - [VO] Сергей Кузнецов
Аудио №3: [Русский] 2ch 48 kHz 128 kbps - [VO] Юрий Толбин
avs [info]: 960x394p 1:1 @ 2997/125 fps (cfr)
x264 [info]: using SAR=1/1
x264 [info]: using cpu capabilities: MMX2 SSE2Fast SSSE3 SSE4.2 LZCNT
x264 [info]: profile High, level 4.1

x264 [info]: frame I:881 Avg QP:19.39 size: 51544
x264 [info]: frame P:26906 Avg QP:22.66 size: 15571
x264 [info]: frame B:94480 Avg QP:24.54 size: 5684
x264 [info]: consecutive B-frames: 2.9% 2.7% 7.8% 16.4% 14.2% 45.1% 4.4% 3.0% 3.5%
x264 [info]: mb I I16..4: 14.3% 66.5% 19.2%
x264 [info]: mb P I16..4: 1.0% 7.7% 1.2% P16..4: 33.8% 37.5% 11.1% 0.0% 0.0% skip: 7.6%
x264 [info]: mb B I16..4: 0.1% 1.3% 0.2% B16..8: 34.9% 15.7% 2.6% direct: 5.5% skip:39.9% L0:47.3% L1:44.9% BI: 7.8%
x264 [info]: 8x8 transform intra:76.9% inter:62.3%
x264 [info]: direct mvs spatial:96.9% temporal:3.1%
x264 [info]: coded y,uvDC,uvAC intra: 84.0% 75.9% 37.4% inter: 24.6% 21.3% 3.5%
x264 [info]: i16 v,h,dc,p: 23% 23% 8% 46%
x264 [info]: i8 v,h,dc,ddl,ddr,vr,hd,vl,hu: 6% 6% 6% 11% 17% 14% 15% 12% 13%
x264 [info]: i4 v,h,dc,ddl,ddr,vr,hd,vl,hu: 10% 7% 6% 9% 15% 14% 15% 11% 14%
x264 [info]: i8c dc,h,v,p: 39% 26% 17% 18%
x264 [info]: Weighted P-Frames: Y:11.7% UV:3.0%
x264 [info]: ref P L0: 42.5% 9.5% 17.8% 7.1% 6.0% 4.5% 4.2% 2.1% 2.1% 1.8% 2.0% 0.4% 0.0%
x264 [info]: ref B L0: 69.0% 12.6% 6.5% 3.3% 2.5% 2.2% 1.8% 1.1% 0.7% 0.3%
x264 [info]: ref B L1: 93.2% 6.8%
x264 [info]: kb/s:1570.90

encoded 122267 frames, 6.72 fps, 1570.90 kb/s

ОбщееПолное имя : D:\Torrents\Shogun Assassin.1980.HDRip.x264.960x.rip by Frost O.S.mp4Формат : MPEG-4Профиль формата : Base MediaИдентификатор кодека : isomРазмер файла : 1,17 ГбайтПродолжительность : 1 ч. 24 м.Режим общего битрейта : ПеременныйОбщий поток : 1970 Кбит/секНазвание фильма : Shogun Assassin 1980 HDRip x264 960x rip by Frost O SТип содержимого : Short FilmДата кодирования : UTC 2016-05-23 14:11:13Дата пометки : UTC 2016-05-23 14:12:29Программа кодирования : MkvToMp4 version: 0.224 (x64)Обложка : YesПримечание : rip by Frost O.SLongDescription : Жил-был самурай. По приказу обезглавливал тех, кого сёгун назначал виноватыми. А сёгун страдал психическими расстройствами, и как-то раз тёмной ночью подослал к самураю отряд ниндзя. Ниндзи не нашли самурая, но убили его жену. И самурай принял решение отомстить. Он шёл по Японии и вёз в коляске своего маленького сына. Где мог, подрабатывал наёмным убийцей. А по следу за ним шли подосланные сёгуном ниндзя…

ВидеоИдентификатор : 1Формат : AVCФормат/Информация : Advanced Video CodecПрофиль формата : [email protected]Параметр CABAC формата : ДаПараметр ReFrames формата : 11 кадровИдентификатор кодека : avc1Идентификатор кодека/Информация : Advanced Video CodingПродолжительность : 1 ч. 24 м.Битрейт : 1571 Кбит/секМаксимальный битрейт : 10,1 Мбит/секШирина : 960 пикселейВысота : 394 пикселяСоотношение сторон : 2,40:1Режим частоты кадров : ПостоянныйЧастота кадров : 23,976 кадра/секЦветовое пространство : YUVСубдискретизация насыщенности : 4:2:0Битовая глубина : 8 битТип развёртки : ПрогрессивнаяБит/(Пиксели*Кадры) : 0.173Размер потока : 955 Мбайт (80%)Библиотека кодирования : x264 core 148 r2692 64f4e24Настройки программы : cabac=1 / ref=11 / deblock=1:-2:-2 / analyse=0x3:0x113 / me=umh / subme=11 / psy=1 / psy_rd=1.10:0.05 / mixed_ref=1 / me_range=32 / chroma_me=1 / trellis=2 / 8x8dct=1 / cqm=0 / deadzone=21,11 / fast_pskip=0 / chroma_qp_offset=-3 / threads=3 / lookahead_threads=1 / sliced_threads=0 / nr=0 / decimate=0 / interlaced=0 / bluray_compat=0 / constrained_intra=0 / bframes=8 / b_pyramid=2 / b_adapt=2 / b_bias=0 / direct=3 / weightb=1 / open_gop=0 / weightp=2 / keyint=250 / keyint_min=23 / scenecut=40 / intra_refresh=0 / rc_lookahead=40 / rc=2pass / mbtree=1 / bitrate=1571 / ratetol=1.0 / qcomp=0.60 / qpmin=0 / qpmax=69 / qpstep=4 / cplxblur=20.0 / qblur=0.5 / ip_ratio=1.40 / aq=1:0.70Язык : EnglishДата кодирования : UTC 2016-05-23 14:11:13Дата пометки : UTC 2016-05-23 14:11:36Основные цвета : BT.709Характеристики трансфера : BT.709Коэффициенты матрицы : BT.709

Аудио #1Идентификатор : 2Формат : AACФормат/Информация : Advanced Audio CodecПрофиль формата : LCИдентификатор кодека : 40Продолжительность : 1 ч. 24 м.Вид битрейта : ПеременныйБитрейт : 128 Кбит/секМаксимальный битрейт : 135 Кбит/секКаналы : 2 каналаРасположение каналов : Front: L RЧастота : 48,0 КГцМетод сжатия : С потерямиРазмер потока : 77,8 Мбайт (6%)Заголовок : [VO] Goblin _Dmitriy Puchkov_Язык : RussianДата кодирования : UTC 2016-05-23 14:11:29Дата пометки : UTC 2016-05-23 14:11:36

Аудио #2Идентификатор : 3Формат : AACФормат/Информация : Advanced Audio CodecПрофиль формата : LCИдентификатор кодека : 40Продолжительность : 1 ч. 24 м.Вид битрейта : ПеременныйБитрейт : 128 Кбит/секМаксимальный битрейт : 132 Кбит/секКаналы : 2 каналаРасположение каналов : Front: L RЧастота : 48,0 КГцМетод сжатия : С потерямиРазмер потока : 77,8 Мбайт (6%)Заголовок : [VO] Sergey KyznecovЯзык : RussianДата кодирования : UTC 2016-05-23 14:11:32Дата пометки : UTC 2016-05-23 14:11:36

Аудио #3Идентификатор : 4Формат : AACФормат/Информация : Advanced Audio CodecПрофиль формата : LCИдентификатор кодека : 40Продолжительность : 1 ч. 24 м.Вид битрейта : ПеременныйБитрейт : 128 Кбит/секМаксимальный битрейт : 132 Кбит/секКаналы : 2 каналаРасположение каналов : Front: L RЧастота : 48,0 КГцМетод сжатия : С потерямиРазмер потока : 77,8 Мбайт (6%)Заголовок : [VO] Uriy TolbinЯзык : RussianДата кодирования : UTC 2016-05-23 14:11:34Дата пометки : UTC 2016-05-23 14:11:36


Трекер:  [ 23-Май-2016 16:30 ]

  

Скачать .torrent

Размер .torrent файла 12 KB


Размер: 1.17 GB
Хэш (hash) релиза: 9ba4e3504b1a065b979d95f92e28ff95e951ef12

Еще никто не оставлял запись к записи скачать торрент [VIDEO] Убийца Сегуна Shogun Assassin . Будь первым!

!Обратная связь