10 de novembro de 2017 | BD Bikini Warriors Subtitle Indonesia | Eps1 [16+] Eisenstein In Guanajuato

Скачать через торрент [MULT] Сезон охоты: Тетралогия Open Season: Tetralogy бесплатно русская версия torrent активатор

 
Автор Сообщение

Galfimbul

avatar Galfimbul




Сезон охоты: Тетралогия / Open Season: Tetralogy

Сезон охоты / Open Season«The Odd Are About To Get Even»

Год выпуска: 2006
Страна: США
Жанр: мультфильм, комедия, приключения, семейный
Продолжительность: 01:26:15
Перевод: Профессиональный (полное дублирование)
Cубтитры: нет
Режиссеры: Роджер Аллерс / Roger Allers, Джилл Калтон / Jill Culton, Энтони Стакки / Anthony Stacchi
Роли озвучивали: Мартин Лоуренс /Martin Lawrence (Boog), Эштон Кутчер / Ashton Kutcher (Elliot), Гэри Синиз / Gary Sinise (Shaw), Дебра Мессинг / Debra Messing (Beth), Билли Коннолли / Billy Connolly (McSquizzy), Джорджия Энджел / Georgia Engel (Bobbie), Джон Фавро / Jon Favreau (Reilly) и другие .Описание: Выросший среди людей гризли оказывается в лесу в самый разгар охотничьего сезона. И пока ухаживавший за медведем егерь ищет своего воспитанника, гризли водит дружбу с лесным оленем. Релиз группы

Так уж сложилось, что Мартин Лоуренс и Эштон Кутчер, озвучившие главных героев, ни разу не встретились за все время производства мультфильма.
Из трех режиссеров «Сезона охоты» только у Роджера Аллерса был опыт постановки фильмов.
Олень Эллиот мог получить голос Уилла Форте.
Аниматоры студии Sony разработали новую технологию «Shapers», которая позволяла им с легкостью изменять модели персонажей в зависимости от их поз, а также отображать тонкие искажения, характерные для «ручной» анимации.
Отдаленным оригиналом «Сезона охоты» можно считать комикс «На открытой трибуне» Стива Мура.
Качество: BDRip / <a href="viewtopic.php?t=1884510" class="postLink">Blu-Ray 1080p</a>
Формат: MP4
Видео кодек: H.264
Аудио кодек: AAC
Видео: 960x520 AR:1.85 1440 kbps 23.976 fps
Аудио: [Russian] 2ch 48 kHz 128 kbps - [Dub]
avs [info]: 960x520p 1:1 @ 2997/125 fps (cfr)
x264 [info]: using SAR=1/1
x264 [info]: using cpu capabilities: MMX2 SSE2Fast SSSE3 SSE4.2 LZCNT
x264 [info]: profile High, level 4.1

x264 [info]: frame I:1174 Avg QP:16.11 size: 82728
x264 [info]: frame P:34274 Avg QP:21.66 size: 13519
x264 [info]: frame B:88632 Avg QP:24.52 size: 4174
x264 [info]: consecutive B-frames: 4.9% 5.2% 11.5% 46.0% 10.9% 19.3% 2.1%
x264 [info]: mb I I16..4: 9.1% 65.1% 25.8%
x264 [info]: mb P I16..4: 1.5% 9.0% 1.7% P16..4: 24.4% 22.1% 7.5% 0.0% 0.0% skip:33.7%
x264 [info]: mb B I16..4: 0.1% 1.6% 0.2% B16..8: 21.9% 9.1% 2.0% direct: 1.8% skip:63.2% L0:43.1% L1:47.0% BI: 9.9%
x264 [info]: 8x8 transform intra:74.2% inter:61.4%
x264 [info]: direct mvs spatial:93.9% temporal:6.1%
x264 [info]: coded y,uvDC,uvAC intra: 76.7% 69.0% 39.1% inter: 11.0% 8.0% 3.3%
x264 [info]: i16 v,h,dc,p: 14% 20% 4% 61%
x264 [info]: i8 v,h,dc,ddl,ddr,vr,hd,vl,hu: 9% 7% 7% 9% 14% 13% 15% 11% 14%
x264 [info]: i4 v,h,dc,ddl,ddr,vr,hd,vl,hu: 12% 9% 7% 8% 14% 12% 14% 10% 13%
x264 [info]: i8c dc,h,v,p: 31% 32% 18% 19%
x264 [info]: Weighted P-Frames: Y:3.6% UV:2.8%
x264 [info]: ref P L0: 56.7% 10.3% 12.6% 5.6% 3.9% 4.0% 3.9% 2.7% 0.3% 0.0%
x264 [info]: ref B L0: 80.9% 7.6% 4.9% 2.4% 1.9% 1.1% 1.2%
x264 [info]: ref B L1: 95.8% 4.2%
x264 [info]: kb/s:1438.33

encoded 124080 frames, 7.56 fps, 1438.33 kb/s
ОбщееПолное имя : D:\Torrents\Open Season. Tetralogy.BDRip.x264.960x\Open Season.2006.BDRip.x264.960x.rip by Frost O.S.mp4Формат : MPEG-4Профиль формата : Base MediaИдентификатор кодека : isomРазмер файла : 971 МбайтПродолжительность : 1 ч. 26 м.Режим общего битрейта : ПеременныйОбщий поток : 1575 Кбит/секНазвание фильма : Open Season 2006 BDRip x264 960x rip by Frost O SЖанр : AnimationТип содержимого : Short FilmДата кодирования : UTC 2016-05-20 13:09:26Дата пометки : UTC 2016-05-20 13:11:05Программа кодирования : MkvToMp4 version: 0.224 (x64)Обложка : YesПримечание : rip by Frost O.SLongDescription : Выросший среди людей гризли оказывается в лесу в самый разгар охотничьего сезона. И пока ухаживавший за медведем егерь ищет своего воспитанника, гризли водит дружбу с лесным оленем.

ВидеоИдентификатор : 1Формат : AVCФормат/Информация : Advanced Video CodecПрофиль формата : [email protected]Параметр CABAC формата : ДаПараметр ReFrames формата : 8 кадровИдентификатор кодека : avc1Идентификатор кодека/Информация : Advanced Video CodingПродолжительность : 1 ч. 26 м.Битрейт : 1440 Кбит/секМаксимальный битрейт : 17,9 Мбит/секШирина : 960 пикселейВысота : 520 пикселейСоотношение сторон : 1,85:1Режим частоты кадров : ПостоянныйЧастота кадров : 23,976 кадра/секЦветовое пространство : YUVСубдискретизация насыщенности : 4:2:0Битовая глубина : 8 битТип развёртки : ПрогрессивнаяБит/(Пиксели*Кадры) : 0.120Размер потока : 887 Мбайт (91%)Библиотека кодирования : x264 core 148 r2692 64f4e24Настройки программы : cabac=1 / ref=8 / deblock=1:-2:-2 / analyse=0x3:0x113 / me=umh / subme=11 / psy=1 / psy_rd=1.00:0.00 / mixed_ref=1 / me_range=32 / chroma_me=1 / trellis=2 / 8x8dct=1 / cqm=0 / deadzone=21,11 / fast_pskip=0 / chroma_qp_offset=-2 / threads=3 / lookahead_threads=1 / sliced_threads=0 / nr=0 / decimate=0 / interlaced=0 / bluray_compat=0 / constrained_intra=0 / bframes=6 / b_pyramid=2 / b_adapt=2 / b_bias=0 / direct=3 / weightb=1 / open_gop=0 / weightp=2 / keyint=250 / keyint_min=23 / scenecut=40 / intra_refresh=0 / rc_lookahead=40 / rc=2pass / mbtree=1 / bitrate=1440 / ratetol=1.0 / qcomp=0.60 / qpmin=0 / qpmax=69 / qpstep=4 / cplxblur=20.0 / qblur=0.5 / ip_ratio=1.40 / aq=1:0.80Язык : EnglishДата кодирования : UTC 2016-05-20 13:09:26Дата пометки : UTC 2016-05-20 13:10:03Основные цвета : BT.709Характеристики трансфера : BT.709Коэффициенты матрицы : BT.709

АудиоИдентификатор : 2Формат : AACФормат/Информация : Advanced Audio CodecПрофиль формата : LCИдентификатор кодека : 40Продолжительность : 1 ч. 26 м.Вид битрейта : ПеременныйБитрейт : 128 Кбит/секМаксимальный битрейт : 135 Кбит/секКаналы : 2 каналаРасположение каналов : Front: L RЧастота : 48,0 КГцМетод сжатия : С потерямиРазмер потока : 79,0 Мбайт (8%)Язык : RussianДата кодирования : UTC 2016-05-20 13:09:54Дата пометки : UTC 2016-05-20 13:10:03
Сезон охоты 2 / Open Season 2«ЛЕСНЫЕ против ДОМАШНИХ. Победитель получает ВСЁ!»

Год выпуска: 2008
Страна: США
Жанр: мультфильм, комедия, приключения, семейный
Продолжительность: 01:16:24
Перевод: Профессиональный (полное дублирование)
Cубтитры: нет
Режиссеры: Мэттью О’Каллаган / Matthew O'Callaghan, Тодд Вилдерман / Todd Wilderman
Роли озвучивали: Джоэл МакХэйл / Joel McHale (Elliot), Майк Эппс / Mike Epps (Boog), Джейн Краковски / Jane Krakowski (Giselle), Билли Коннолли / Billy Connolly (McSquizzy), Криспин Гловер / Crispin Glover (Fifi), Стив Ширрипа / Steve Schirripa (Roberto), Джорджия Энджел / Georgia Engel (Bobbie) и другие .Описание: Буга и Элиота ждут новые безумные приключения! Элиот без памяти влюбился в Жизель, но ему приходится сойти с дороги, ведущей к алтарю, когда Мистера Уини похищают избалованные домашние животные, которые намерены вернуть его хозяевам. Буг, Элиот, Макскизи, Бадди и другие обитатели леса разворачивают полномасштабную спасательную операцию ради своего похожего на сосиску друга, и вскоре оказываются в лагере врага: в мире домашних питомцев. Домашние неженки под предводительством карликового пуделя Фифи не собираются отдавать Мистера Уини без боя. Релиз группы

Качество: BDRip / <a href="viewtopic.php?t=1332170" class="postLink">BDRemux 1080p</a>Формат: MP4Видео кодек: H.264Аудио кодек: AACВидео: 960x540 AR:16/9 1202 kbps 23.976 fpsАудио: [Russian] 2ch 48 kHz 128 kbps - [Dub]
avs [info]: 960x540p 1:1 @ 2997/125 fps (cfr)
x264 [info]: using SAR=1/1
x264 [info]: using cpu capabilities: MMX2 SSE2Fast SSSE3 SSE4.2 LZCNT
x264 [info]: profile High, level 4.1

x264 [info]: frame I:1223 Avg QP:14.20 size:105457
x264 [info]: frame P:28968 Avg QP:20.43 size: 11496
x264 [info]: frame B:79729 Avg QP:23.93 size: 2842
x264 [info]: consecutive B-frames: 3.3% 6.0% 6.2% 61.9% 6.2% 8.3% 2.9% 4.4% 0.9%
x264 [info]: mb I I16..4: 6.8% 61.6% 31.6%
x264 [info]: mb P I16..4: 0.7% 4.8% 1.2% P16..4: 21.1% 17.7% 7.0% 0.0% 0.0% skip:47.5%
x264 [info]: mb B I16..4: 0.1% 0.6% 0.1% B16..8: 16.5% 6.9% 1.6% direct: 1.2% skip:72.9% L0:42.0% L1:46.1% BI:11.9%
x264 [info]: 8x8 transform intra:69.4% inter:56.4%
x264 [info]: direct mvs spatial:92.2% temporal:7.8%
x264 [info]: coded y,uvDC,uvAC intra: 81.2% 76.9% 55.1% inter: 7.9% 6.0% 3.3%
x264 [info]: i16 v,h,dc,p: 18% 19% 5% 58%
x264 [info]: i8 v,h,dc,ddl,ddr,vr,hd,vl,hu: 9% 10% 8% 9% 13% 12% 13% 12% 15%
x264 [info]: i4 v,h,dc,ddl,ddr,vr,hd,vl,hu: 12% 12% 8% 8% 14% 12% 13% 10% 13%
x264 [info]: i8c dc,h,v,p: 35% 31% 17% 17%
x264 [info]: Weighted P-Frames: Y:2.1% UV:1.8%
x264 [info]: ref P L0: 54.1% 9.7% 13.7% 6.0% 4.3% 4.2% 3.3% 2.2% 2.3% 0.2% 0.0%
x264 [info]: ref B L0: 80.9% 7.4% 4.6% 2.1% 1.9% 1.5% 1.1% 0.4%
x264 [info]: ref B L1: 95.7% 4.3%
x264 [info]: kb/s:1201.61

encoded 109920 frames, 8.07 fps, 1201.61 kb/s
ОбщееПолное имя : D:\Torrents\Open Season. Tetralogy.BDRip.x264.960x\Open Season 2.2008.BDRip.x264.960x.rip by Frost O.S.mp4Формат : MPEG-4Профиль формата : Base MediaИдентификатор кодека : isomРазмер файла : 731 МбайтПродолжительность : 1 ч. 16 м.Режим общего битрейта : ПеременныйОбщий поток : 1338 Кбит/секНазвание фильма : Open Season 2 2008 BDRip x264 960x rip by Frost O SЖанр : AnimationТип содержимого : Short FilmДата кодирования : UTC 2016-05-21 12:06:26Дата пометки : UTC 2016-05-21 12:07:05Программа кодирования : MkvToMp4 version: 0.224 (x64)Обложка : YesПримечание : rip by Frost O.SLongDescription : Буга и Элиота ждут новые безумные приключения! Элиот без памяти влюбился в Жизель, но ему приходится сойти с дороги, ведущей к алтарю, когда Мистера Уини похищают избалованные домашние животные, которые намерены вернуть его хозяевам. Буг, Элиот, Макскизи, Бадди и другие обитатели леса разворачивают полномасштабную спасательную операцию ради своего похожего на сосиску друга, и вскоре оказываются в лагере врага: в мире домашних питомцев. Домашние неженки под предводительством карликового пуделя Фифи не собираются отдавать Мистера Уини без боя.

ВидеоИдентификатор : 1Формат : AVCФормат/Информация : Advanced Video CodecПрофиль формата : [email protected]Параметр CABAC формата : ДаПараметр ReFrames формата : 9 кадровИдентификатор кодека : avc1Идентификатор кодека/Информация : Advanced Video CodingПродолжительность : 1 ч. 16 м.Битрейт : 1202 Кбит/секМаксимальный битрейт : 11,6 Мбит/секШирина : 960 пикселейВысота : 540 пикселейСоотношение сторон : 16:9Режим частоты кадров : ПостоянныйЧастота кадров : 23,976 кадра/секЦветовое пространство : YUVСубдискретизация насыщенности : 4:2:0Битовая глубина : 8 битТип развёртки : ПрогрессивнаяБит/(Пиксели*Кадры) : 0.097Размер потока : 657 Мбайт (90%)Библиотека кодирования : x264 core 148 r2692 64f4e24Настройки программы : cabac=1 / ref=9 / deblock=1:-2:-2 / analyse=0x3:0x113 / me=umh / subme=11 / psy=1 / psy_rd=0.80:0.00 / mixed_ref=1 / me_range=32 / chroma_me=1 / trellis=2 / 8x8dct=1 / cqm=0 / deadzone=21,11 / fast_pskip=0 / chroma_qp_offset=-2 / threads=3 / lookahead_threads=1 / sliced_threads=0 / nr=0 / decimate=0 / interlaced=0 / bluray_compat=0 / constrained_intra=0 / bframes=8 / b_pyramid=2 / b_adapt=2 / b_bias=0 / direct=3 / weightb=1 / open_gop=0 / weightp=2 / keyint=250 / keyint_min=23 / scenecut=40 / intra_refresh=0 / rc_lookahead=40 / rc=2pass / mbtree=1 / bitrate=1202 / ratetol=1.0 / qcomp=0.60 / qpmin=0 / qpmax=69 / qpstep=4 / cplxblur=20.0 / qblur=0.5 / ip_ratio=1.40 / aq=1:1.00Язык : EnglishДата кодирования : UTC 2016-05-21 12:06:26Дата пометки : UTC 2016-05-21 12:06:42Основные цвета : BT.709Характеристики трансфера : BT.709Коэффициенты матрицы : BT.709

АудиоИдентификатор : 2Формат : AACФормат/Информация : Advanced Audio CodecПрофиль формата : LCИдентификатор кодека : 40Продолжительность : 1 ч. 16 м.Вид битрейта : ПеременныйБитрейт : 128 Кбит/секМаксимальный битрейт : 134 Кбит/секКаналы : 2 каналаРасположение каналов : Front: L RЧастота : 48,0 КГцМетод сжатия : С потерямиРазмер потока : 69,9 Мбайт (10%)Язык : RussianДата кодирования : UTC 2016-05-21 12:06:40Дата пометки : UTC 2016-05-21 12:06:42
Сезон охоты 3 / Open Season 3«Это просто цирк какой-то!»

Год выпуска: 2010
Страна: США
Жанр: мультфильм, комедия, приключения, семейный
Продолжительность:01:14:36
Перевод: Профессиональный (полное дублирование)
Cубтитры: нет
Режиссер: Коуди Камерон / Cody Cameron
Роли озвучивали: Мэттью Дж. Мунн / Matthew J. Munn (Boog / Doug), Ника Футтерман / Nika Futterman (Rosie), Мэттью В. Тейлор / Matthew W. Taylor (в титрах: Matt Taylor) (Ian / Reilly / Buddy / Deni / Elliot / дополнительные голоса), Андре Соглиуззо / André Sogliuzzo (McSquizzy), Дэнни Манн / Danny Mann (Serge), Карли Скотт Коллинз / Karley Scott Collins (Gisela), Сиэра Браво / Ciara Bravo (Giselita) и другие .Описание: Продолжение сумасшедших приключений медведя-гризли Буга и его верного друга, оленя Элиота. На этот раз Буг пускается на поиски личного счастья и попадает… в бродячий цирк, где знакомится с очаровательной русской медведицей. Релиз группы Качество: BDRip / <a href="viewtopic.php?t=3345442" class="postLink">BDRemux 1080p</a>
Формат: MP4
Видео кодек: H.264
Аудио кодек: AAC
Видео: 960x540 AR:16/9 1204 kbps 23.976 fps
Аудио: [Russian] 2ch 48 kHz 128 kbps - [Dub]
avs [info]: 960x540p 1:1 @ 2997/125 fps (cfr)
x264 [info]: using SAR=1/1
x264 [info]: using cpu capabilities: MMX2 SSE2Fast SSSE3 SSE4.2 LZCNT
x264 [info]: profile High, level 4.1

x264 [info]: frame I:1048 Avg QP:14.05 size:100758
x264 [info]: frame P:28956 Avg QP:20.39 size: 11729
x264 [info]: frame B:77311 Avg QP:24.52 size: 2954
x264 [info]: consecutive B-frames: 3.3% 5.7% 8.4% 61.5% 8.5% 9.3% 1.3% 1.7% 0.4%
x264 [info]: mb I I16..4: 4.9% 63.4% 31.7%
x264 [info]: mb P I16..4: 0.9% 5.3% 1.2% P16..4: 22.0% 20.6% 7.8% 0.0% 0.0% skip:42.1%
x264 [info]: mb B I16..4: 0.1% 0.6% 0.1% B16..8: 19.6% 8.1% 1.7% direct: 1.3% skip:68.4% L0:41.7% L1:47.4% BI:11.0%
x264 [info]: 8x8 transform intra:69.4% inter:57.3%
x264 [info]: direct mvs spatial:92.2% temporal:7.8%
x264 [info]: coded y,uvDC,uvAC intra: 81.0% 79.0% 55.9% inter: 8.7% 6.8% 3.4%
x264 [info]: i16 v,h,dc,p: 24% 17% 7% 52%
x264 [info]: i8 v,h,dc,ddl,ddr,vr,hd,vl,hu: 10% 10% 7% 9% 12% 12% 13% 12% 15%
x264 [info]: i4 v,h,dc,ddl,ddr,vr,hd,vl,hu: 13% 10% 8% 8% 14% 12% 12% 10% 13%
x264 [info]: i8c dc,h,v,p: 34% 29% 18% 19%
x264 [info]: Weighted P-Frames: Y:1.3% UV:0.9%
x264 [info]: ref P L0: 53.4% 10.0% 13.4% 6.7% 4.3% 4.3% 3.2% 2.2% 2.2% 0.4% 0.0%
x264 [info]: ref B L0: 80.6% 7.1% 4.8% 2.3% 2.2% 1.5% 1.1% 0.4%
x264 [info]: ref B L1: 94.1% 5.9%
x264 [info]: kb/s:1203.92

x264 [total]: encoded 107315 frames, 7.10 fps, 1203.92 kb/s
ОбщееПолное имя : D:\Torrents\Open Season. Tetralogy.BDRip.x264.960x\Open Season 3.2010.BDRip.x264.960x.rip by Frost O.S.mp4Формат : MPEG-4Профиль формата : Base MediaИдентификатор кодека : isomРазмер файла : 715 МбайтПродолжительность : 1 ч. 14 м.Режим общего битрейта : ПеременныйОбщий поток : 1340 Кбит/секНазвание фильма : Open Season 3 2010 BDRip x264 960x rip by Frost O SЖанр : AnimationТип содержимого : Short FilmДата кодирования : UTC 2016-05-17 12:13:11Дата пометки : UTC 2016-05-17 12:13:53Программа кодирования : MkvToMp4 version: 0.224 (x64)Обложка : YesПримечание : rip by Frost O.SLongDescription : Продолжение сумасшедших приключений медведя-гризли Буга и его верного друга, оленя Элиота. На этот раз Буг пускается на поиски личного счастья и попадает… в бродячий цирк, где знакомится с очаровательной русской медведицей.

ВидеоИдентификатор : 1Формат : AVCФормат/Информация : Advanced Video CodecПрофиль формата : [email protected]Параметр CABAC формата : ДаПараметр ReFrames формата : 9 кадровИдентификатор кодека : avc1Идентификатор кодека/Информация : Advanced Video CodingПродолжительность : 1 ч. 14 м.Битрейт : 1204 Кбит/секМаксимальный битрейт : 6346 Кбит/секШирина : 960 пикселейВысота : 540 пикселейСоотношение сторон : 16:9Режим частоты кадров : ПостоянныйЧастота кадров : 23,976 кадра/секЦветовое пространство : YUVСубдискретизация насыщенности : 4:2:0Битовая глубина : 8 битТип развёртки : ПрогрессивнаяБит/(Пиксели*Кадры) : 0.097Размер потока : 642 Мбайт (90%)Библиотека кодирования : x264 core 130 r2273 b3065e6Настройки программы : cabac=1 / ref=9 / deblock=1:-2:-2 / analyse=0x3:0x113 / me=umh / subme=11 / psy=1 / psy_rd=0.80:0.00 / mixed_ref=1 / me_range=32 / chroma_me=1 / trellis=2 / 8x8dct=1 / cqm=0 / deadzone=21,11 / fast_pskip=0 / chroma_qp_offset=-2 / threads=3 / lookahead_threads=1 / sliced_threads=0 / nr=0 / decimate=0 / interlaced=0 / bluray_compat=0 / constrained_intra=0 / bframes=8 / b_pyramid=2 / b_adapt=2 / b_bias=0 / direct=3 / weightb=1 / open_gop=0 / weightp=2 / keyint=250 / keyint_min=23 / scenecut=40 / intra_refresh=0 / rc_lookahead=40 / rc=2pass / mbtree=1 / bitrate=1204 / ratetol=1.0 / qcomp=0.60 / qpmin=0 / qpmax=69 / qpstep=4 / cplxblur=20.0 / qblur=0.5 / ip_ratio=1.40 / aq=1:1.10Язык : EnglishДата кодирования : UTC 2016-05-17 12:13:11Дата пометки : UTC 2016-05-17 12:13:25Основные цвета : BT.709Характеристики трансфера : BT.709Коэффициенты матрицы : BT.709

АудиоИдентификатор : 2Формат : AACФормат/Информация : Advanced Audio CodecПрофиль формата : LCИдентификатор кодека : 40Продолжительность : 1 ч. 14 м.Вид битрейта : ПеременныйБитрейт : 128 Кбит/секМаксимальный битрейт : 135 Кбит/секКаналы : 2 каналаРасположение каналов : Front: L RЧастота : 48,0 КГцМетод сжатия : С потерямиРазмер потока : 68,3 Мбайт (10%)Язык : RussianДата кодирования : UTC 2016-05-17 12:13:23Дата пометки : UTC 2016-05-17 12:13:25
Сезон охоты 4: Страшно глупо / Сезон охоты: Байки из леса / Open Season: Scared Silly

Год выпуска: 2015
Страна: США
Жанр: мультфильм, комедия, приключения, семейный
Продолжительность: 01:24:45
Перевод: Любительский (многоголосый, закадровый)
Cубтитры: нет
Режиссер: Дэвид Фейсс / David Feiss
Роли озвучивали: Уилльям Таунсенд / William Townsend (в титрах: Will Townsend) (Elliot / Mr. Weenie), Мелисса Штурм / Melissa Sturm (Giselle), Тревор Дивэлл / Trevor Devall (Shaw / Werewolf / Deputy #1), Гари Чок / Gary Chalk (Ed), Брайан Драммонд / Brian Drummond (Ian / Reilly / Tree-Hugger Man), Кэтлин Барр / Kathleen Barr (Edna / Bobbie / Tree-Hugger Lady) и другие .Описание: Элиот, Буг и вся их лесная братва попадают в совершенно новое и очень-очень смешное приключение. Релиз группы Качество: BDRip / <a href="viewtopic.php?t=5180148" class="postLink">BDRemux 1080p</a>
Формат: MP4
Видео кодек: H.264
Аудио кодек: AAC
Видео: 960x540 AR:16/9 1261 kbps 23.976 fps
Аудио: [Russian] 2ch 48 kHz 128 kbps - [MVO]
avs [info]: 960x540p 1:1 @ 2997/125 fps (cfr)
x264 [info]: using SAR=1/1
x264 [info]: using cpu capabilities: MMX2 SSE2Fast SSSE3 SSE4.2 LZCNT
x264 [info]: profile High, level 4.1

x264 [info]: frame I:1424 Avg QP:14.75 size:100581
x264 [info]: frame P:34219 Avg QP:20.40 size: 11615
x264 [info]: frame B:86277 Avg QP:24.40 size: 3018
x264 [info]: consecutive B-frames: 4.4% 6.7% 11.0% 55.3% 8.7% 10.5% 3.3%
x264 [info]: mb I I16..4: 6.1% 64.5% 29.5%
x264 [info]: mb P I16..4: 1.6% 8.2% 1.3% P16..4: 22.8% 18.7% 6.4% 0.0% 0.0% skip:40.9%
x264 [info]: mb B I16..4: 0.2% 1.3% 0.2% B16..8: 18.9% 7.4% 1.5% direct: 1.6% skip:68.9% L0:42.5% L1:46.5% BI:10.9%
x264 [info]: 8x8 transform intra:71.9% inter:63.2%
x264 [info]: direct mvs spatial:93.8% temporal:6.2%
x264 [info]: coded y,uvDC,uvAC intra: 75.0% 74.1% 46.2% inter: 9.0% 7.0% 3.4%
x264 [info]: i16 v,h,dc,p: 15% 16% 5% 64%
x264 [info]: i8 v,h,dc,ddl,ddr,vr,hd,vl,hu: 9% 10% 7% 9% 12% 12% 14% 12% 16%
x264 [info]: i4 v,h,dc,ddl,ddr,vr,hd,vl,hu: 11% 10% 12% 8% 14% 12% 13% 9% 12%
x264 [info]: i8c dc,h,v,p: 31% 31% 17% 21%
x264 [info]: Weighted P-Frames: Y:2.2% UV:1.5%
x264 [info]: ref P L0: 55.6% 9.7% 13.3% 5.9% 4.1% 3.9% 3.1% 2.1% 2.1% 0.2% 0.0%
x264 [info]: ref B L0: 78.2% 9.2% 5.0% 2.4% 2.0% 1.6% 1.2% 0.5%
x264 [info]: ref B L1: 95.1% 4.9%
x264 [info]: kb/s:1260.20

encoded 121920 frames, 7.12 fps, 1260.20 kb/s
ОбщееПолное имя : D:\Torrents\Open Season. Tetralogy.BDRip.x264.960x\Open Season Scared Silly.2015.BDRip.x264.960x.rip by Frost O.S.mp4Формат : MPEG-4Профиль формата : Base MediaИдентификатор кодека : isomРазмер файла : 847 МбайтПродолжительность : 1 ч. 24 м.Режим общего битрейта : ПеременныйОбщий поток : 1397 Кбит/секНазвание фильма : Open Season Scared Silly 2015 BDRip x264 960x rip by Frost O SЖанр : AnimationТип содержимого : Short FilmДата кодирования : UTC 2016-05-18 15:22:51Дата пометки : UTC 2016-05-18 15:23:31Программа кодирования : MkvToMp4 version: 0.224 (x64)Обложка : YesПримечание : rip by Frost O.SLongDescription : Олень Эллиот, такса Сосиска и их друзья сговариваются отучить медведя Буга бояться всего на свете. Услышав у ночного костра байку про Свирепого Волка-Оборотня, могучий гризли совсем потерял покой и стал вести себя как трусливая мышь. Из-за этого у компании срываются классные каникулы. Чтобы «спугнуть» напрасные медвежьи страхи, Эллиот и Сосиска снаряжают экспедицию в Тёмный Лес, открывая на его самого загадочного обитателя… свой сезон охоты. Но все прошлые приключения меркнут по сравнению с тем, что ждёт лесную команду в этот раз. Головокружительные погони, уморительные шутки и крутые сюжетные повороты — в первой мульт-комедии лета.

ВидеоИдентификатор : 1Формат : AVCФормат/Информация : Advanced Video CodecПрофиль формата : [email protected]Параметр CABAC формата : ДаПараметр ReFrames формата : 9 кадровИдентификатор кодека : avc1Идентификатор кодека/Информация : Advanced Video CodingПродолжительность : 1 ч. 24 м.Битрейт : 1261 Кбит/секМаксимальный битрейт : 11,1 Мбит/секШирина : 960 пикселейВысота : 540 пикселейСоотношение сторон : 16:9Режим частоты кадров : ПостоянныйЧастота кадров : 23,976 кадра/секЦветовое пространство : YUVСубдискретизация насыщенности : 4:2:0Битовая глубина : 8 битТип развёртки : ПрогрессивнаяБит/(Пиксели*Кадры) : 0.101Размер потока : 764 Мбайт (90%)Библиотека кодирования : x264 core 148 r2692 64f4e24Настройки программы : cabac=1 / ref=9 / deblock=1:-2:-2 / analyse=0x3:0x113 / me=umh / subme=11 / psy=1 / psy_rd=0.80:0.00 / mixed_ref=1 / me_range=32 / chroma_me=1 / trellis=2 / 8x8dct=1 / cqm=0 / deadzone=21,11 / fast_pskip=0 / chroma_qp_offset=-2 / threads=3 / lookahead_threads=1 / sliced_threads=0 / nr=0 / decimate=0 / interlaced=0 / bluray_compat=0 / constrained_intra=0 / bframes=6 / b_pyramid=2 / b_adapt=2 / b_bias=0 / direct=3 / weightb=1 / open_gop=0 / weightp=2 / keyint=250 / keyint_min=23 / scenecut=40 / intra_refresh=0 / rc_lookahead=40 / rc=2pass / mbtree=1 / bitrate=1261 / ratetol=1.0 / qcomp=0.60 / qpmin=0 / qpmax=69 / qpstep=4 / cplxblur=20.0 / qblur=0.5 / ip_ratio=1.40 / aq=1:1.10Язык : EnglishДата кодирования : UTC 2016-05-18 15:22:51Дата пометки : UTC 2016-05-18 15:23:06Основные цвета : BT.709Характеристики трансфера : BT.709Коэффициенты матрицы : BT.709

АудиоИдентификатор : 2Формат : AACФормат/Информация : Advanced Audio CodecПрофиль формата : LCИдентификатор кодека : 40Продолжительность : 1 ч. 24 м.Вид битрейта : ПеременныйБитрейт : 128 Кбит/секМаксимальный битрейт : 134 Кбит/секКаналы : 2 каналаРасположение каналов : Front: L RЧастота : 48,0 КГцМетод сжатия : С потерямиРазмер потока : 77,6 Мбайт (9%)Язык : RussianДата кодирования : UTC 2016-05-18 15:23:04Дата пометки : UTC 2016-05-18 15:23:06

Еще никто не оставлял запись к записи скачать торрент [MULT] Сезон охоты: Тетралогия Open Season: Tetralogy . Будь первым!

!Обратная связь