Chapter 168 | H. P. Lovecrafts - Bibliothek des Schreckens 01 - 09 | Lucy Liu, Mandy Patinkin, Shawn Mendes

Скачать через торрент [VIDEO] Шоу Роуэна Аткинсона бесплатно русская версия torrent активатор

Статистика раздачи
Размер:  323 MB   |    Зарегистрирован:  2 года 1 месяц   |    .torrent скачан:  59 раз   |   
Раздают:  1  
   
загрузка...
 
Автор Сообщение

Galfimbul

avatar Galfimbul


Шоу Роуэна Аткинсона (ТВ) / Rowan Atkinson Live

Год выпуска: 1992
Страна: Великобритания
Жанр: Комедийное шоу
Продолжительность: 00:55:25
Перевод: Профессиональный (одноголосый, закадровый)
Cубтитры: нет
Режиссер: Томас Шламми / Thomas Schlamme
В ролях: Роуэн Эткинсон / Rowan Atkinson (Various Roles), Ангус Дейтон / Angus Deayton (Various Roles)
Описание: Аткинсон — один из самых успешных в своем поколении. Он начинал в 1970-е, как водится, с эстрадных скетчей и монологов, а к концу прошлого столетия превратился в звезду международного масштаба благодаря своим незабываемым персонажам — мистеру Бину и Блэкедеру. В настоящей коллекции представлены лучшие образцы его сценической манеры, наиболее запоминающиеся фрагменты шоу, отмеченных многочисленными премиями и наградами.
Релиз группы
Качество:DVDRip / [i]<a href="viewtopic.php?t=197525" class="postLink">рип с DVD5</a>
Формат: MP4
Видео кодек: H.264
Аудио кодек: AAC
Видео: 466x360 AR:1.294 679 kbps 25 fps
Аудио: 2ch 48 kHz 128 kbps
avs [info]: 466x360p 1:1 @ 25/1 fps (cfr)
x264 [info]: using SAR=1/1
x264 [info]: using cpu capabilities: MMX2 SSE2Fast SSSE3 SSE4.2 LZCNT
x264 [info]: profile High, level 4.1

x264 [info]: frame I:459 Avg QP:17.65 size: 20062
x264 [info]: frame P:16571 Avg QP:20.62 size: 7728
x264 [info]: frame B:66103 Avg QP:22.54 size: 2194
x264 [info]: consecutive B-frames: 1.0% 0.9% 4.4% 18.1% 19.9% 47.8% 5.8% 2.1%
x264 [info]: mb I I16..4: 8.1% 72.5% 19.3%
x264 [info]: mb P I16..4: 0.4% 4.2% 1.0% P16..4: 37.3% 41.4% 12.9% 1.5% 0.2% skip: 1.1%
x264 [info]: mb B I16..4: 0.1% 0.4% 0.1% B16..8: 41.6% 20.1% 2.1% direct: 3.8% skip:31.9% L0:48.5% L1:41.1% BI:10.4%
x264 [info]: 8x8 transform intra:73.3% inter:71.9%
x264 [info]: direct mvs spatial:94.4% temporal:5.6%
x264 [info]: coded y,uvDC,uvAC intra: 89.9% 90.3% 57.8% inter: 19.1% 30.5% 6.0%
x264 [info]: i16 v,h,dc,p: 17% 37% 1% 45%
x264 [info]: i8 v,h,dc,ddl,ddr,vr,hd,vl,hu: 14% 9% 3% 10% 14% 14% 13% 12% 11%
x264 [info]: i4 v,h,dc,ddl,ddr,vr,hd,vl,hu: 17% 13% 2% 8% 12% 14% 11% 11% 10%
x264 [info]: i8c dc,h,v,p: 27% 25% 26% 22%
x264 [info]: Weighted P-Frames: Y:6.3% UV:3.1%
x264 [info]: ref P L0: 37.5% 8.9% 19.0% 7.2% 7.2% 5.0% 5.3% 2.5% 2.7% 2.2% 2.5% 0.1% 0.0%
x264 [info]: ref B L0: 59.1% 14.1% 8.9% 4.7% 3.8% 3.3% 2.8% 1.7% 1.1% 0.5%
x264 [info]: ref B L1: 91.4% 8.6%
x264 [info]: kb/s:679.08

encoded 83133 frames, 12.29 fps, 679.08 kb/s

ОбщееПолное имя : D:\Torrents\Rowan Atkinson Live.1992.DVDRip.x264.640x.rip by Frost O.S.mp4Формат : MPEG-4Профиль формата : Base MediaИдентификатор кодека : isomРазмер файла : 323 МбайтПродолжительность : 55 м.Режим общего битрейта : ПеременныйОбщий поток : 815 Кбит/секНазвание фильма : Rowan Atkinson Live 1992 DVDRip x264 640x rip by Frost O SТип содержимого : Short FilmДата кодирования : UTC 2016-05-21 15:01:10Дата пометки : UTC 2016-05-21 15:01:25Программа кодирования : MkvToMp4 version: 0.224 (x64)Обложка : YesПримечание : rip by Frost O.SLongDescription : Аткинсон — один из самых успешных в своем поколении. Он начинал в 1970-е, как водится, с эстрадных скетчей и монологов, а к концу прошлого столетия превратился в звезду международного масштаба благодаря своим незабываемым персонажам — мистеру Бину и Блэкедеру. В настоящей коллекции представлены лучшие образцы его сценической манеры, наиболее запоминающиеся фрагменты шоу, отмеченных многочисленными премиями и наградами. В 1991 году на сцене Бостонского Университетского Театра произошел взрыв. Взрыв смеха. Виновником оказался гениальный британский комик Роуэн Аткинсон, известный также под псевдонимом «мистер Бин». Он собрал свои лучшие шутки и рассказал их ничего не подозревающим американским зрителям. А потом еще и показал…

ВидеоИдентификатор : 1Формат : AVCФормат/Информация : Advanced Video CodecПрофиль формата : [email protected]Параметр CABAC формата : ДаПараметр ReFrames формата : 11 кадровИдентификатор кодека : avc1Идентификатор кодека/Информация : Advanced Video CodingПродолжительность : 55 м.Битрейт : 679 Кбит/секМаксимальный битрейт : 1830 Кбит/секШирина : 466 пикселейВысота : 360 пикселейСоотношение сторон : 1,294Режим частоты кадров : ПостоянныйЧастота кадров : 25,000 кадров/секЦветовое пространство : YUVСубдискретизация насыщенности : 4:2:0Битовая глубина : 8 битТип развёртки : ПрогрессивнаяБит/(Пиксели*Кадры) : 0.162Размер потока : 269 Мбайт (83%)Библиотека кодирования : x264 core 148 r2692 64f4e24Настройки программы : cabac=1 / ref=11 / deblock=1:-2:-2 / analyse=0x3:0x133 / me=umh / subme=11 / psy=1 / psy_rd=1.10:0.00 / mixed_ref=1 / me_range=48 / chroma_me=1 / trellis=2 / 8x8dct=1 / cqm=0 / deadzone=21,11 / fast_pskip=0 / chroma_qp_offset=-2 / threads=3 / lookahead_threads=1 / sliced_threads=0 / nr=0 / decimate=0 / interlaced=0 / bluray_compat=0 / constrained_intra=0 / bframes=7 / b_pyramid=2 / b_adapt=2 / b_bias=0 / direct=3 / weightb=1 / open_gop=0 / weightp=2 / keyint=250 / keyint_min=25 / scenecut=40 / intra_refresh=0 / rc_lookahead=40 / rc=2pass / mbtree=1 / bitrate=679 / ratetol=1.0 / qcomp=0.60 / qpmin=0 / qpmax=69 / qpstep=4 / cplxblur=20.0 / qblur=0.5 / ip_ratio=1.40 / aq=1:0.80Язык : EnglishДата кодирования : UTC 2016-05-21 15:01:10Дата пометки : UTC 2016-05-21 15:01:15Основные цвета : BT.601 PALХарактеристики трансфера : BT.470 System B, BT.470 System GКоэффициенты матрицы : BT.601

АудиоИдентификатор : 2Формат : AACФормат/Информация : Advanced Audio CodecПрофиль формата : LCИдентификатор кодека : 40Продолжительность : 55 м.Вид битрейта : ПеременныйБитрейт : 128 Кбит/секМаксимальный битрейт : 132 Кбит/секКаналы : 2 каналаРасположение каналов : Front: L RЧастота : 48,0 КГцМетод сжатия : С потерямиРазмер потока : 50,7 Мбайт (16%)Язык : RussianДата кодирования : UTC 2016-05-21 15:01:13Дата пометки : UTC 2016-05-21 15:01:15


Трекер:  [ 21-Май-2016 16:00 ]

  

Скачать .torrent

Размер .torrent файла 13 KB


Размер: 323 MB
Хэш (hash) релиза: b1cb153a61320027a974655ca98544f185353b94

Еще никто не оставлял запись к записи скачать торрент [VIDEO] Шоу Роуэна Аткинсона . Будь первым!

!Обратная связь