Java All-in-One For Dummies, 5th Edition | Revo Uninstaller PRO v3.2.1 Multilingual (Windows) | Natti Natasha ❌ Ozuna - Criminal [Official Video]

Скачать через торрент [VIDEO] День Святого Валентина бесплатно русская версия torrent активатор

Статистика раздачи
Размер:  556 MB   |    Зарегистрирован:  2 года 1 месяц   |    .torrent скачан:  45 раз   |   
Раздают:  1  
   
загрузка...
 
Автор Сообщение

Galfimbul

avatar Galfimbul


День Святого Валентина

Год выпуска: 2000
Страна: Россия
Жанр: Комедия
Продолжительность: 01:03:56
Перевод: не требуется
Cубтитры: нет
Режиссер: Анатолий Эйрамджан
В ролях: Борис Щербаков, Любовь Полищук, Александр Панкратов-Черный, Михаил Кокшенов, Людмила Потапова, Сергей Цигаль, Владимир Екимов, Екатерина Зинченко, Владимир Брежнев, Татьяна Алексеева
Описание: В день Святого Валентина — праздник всех влюбленных, «примерный» муж, проводив жену в командировку, решает отдохнуть от семейной жизни в обществе длинноногой красавицы и приглашает ее к себе домой. Но в самый разгар любовной идиллии неожиданно возвращается жена…
Релиз группы
Качество: DVDRip / рип с DVD5
Формат: MP4
Видео кодек: H.264
Аудио кодек: AAC
Видео: 466x360 AR:1.294 1080 kbps 25 fps
Аудио: 2ch 48 kHz 128 kbps
x264 [info]: frame I:584 Avg QP:24.04 size: 29207
x264[info]: frame P:16458 Avg QP:27.50 size: 12485
x264[info]: frame B:78877 Avg QP:30.85 size: 3744

ОбщееПолное имя : D:\Torrents\Den Cvyatogo Valentina.2000.DVDRip.x264.640x.rip by Frost O.S.mp4Формат : MPEG-4Профиль формата : Base MediaИдентификатор кодека : isomРазмер файла : 556 МбайтПродолжительность : 1 ч. 3 м.Режим общего битрейта : ПеременныйОбщий поток : 1216 Кбит/секНазвание фильма : Den Cvyatogo Valentina 2000 DVDRip x264 640x rip by Frost O SЖанр : ComedyТип содержимого : Short FilmДата кодирования : UTC 2016-05-19 19:57:37Дата пометки : UTC 2016-05-19 19:58:11Программа кодирования : MkvToMp4 version: 0.224 (x64)Обложка : YesПримечание : rip by Frost O.SLongDescription : В день Святого Валентина — праздник всех влюбленных, «примерный» муж, проводив жену в командировку, решает отдохнуть от семейной жизни в обществе длинноногой красавицы и приглашает ее к себе домой. Но в самый разгар любовной идиллии неожиданно возвращается жена…

ВидеоИдентификатор : 1Формат : AVCФормат/Информация : Advanced Video CodecПрофиль формата : [email protected]Параметр CABAC формата : ДаПараметр ReFrames формата : 9 кадровИдентификатор кодека : avc1Идентификатор кодека/Информация : Advanced Video CodingПродолжительность : 1 ч. 3 м.Битрейт : 1080 Кбит/секМаксимальный битрейт : 2682 Кбит/секШирина : 466 пикселейВысота : 360 пикселейСоотношение сторон : 1,294Режим частоты кадров : ПостоянныйЧастота кадров : 25,000 кадров/секЦветовое пространство : YUVСубдискретизация насыщенности : 4:2:0Битовая глубина : 8 битТип развёртки : ПрогрессивнаяБит/(Пиксели*Кадры) : 0.258Размер потока : 494 Мбайт (89%)Библиотека кодирования : x264 core 148 r2692 64f4e24Настройки программы : cabac=1 / ref=9 / deblock=1:-2:-2 / analyse=0x3:0x133 / me=umh / subme=11 / psy=1 / psy_rd=1.00:0.00 / mixed_ref=1 / me_range=48 / chroma_me=1 / trellis=2 / 8x8dct=1 / cqm=0 / deadzone=21,11 / fast_pskip=0 / chroma_qp_offset=-2 / threads=3 / lookahead_threads=1 / sliced_threads=0 / nr=0 / decimate=0 / interlaced=0 / bluray_compat=0 / constrained_intra=0 / bframes=11 / b_pyramid=2 / b_adapt=2 / b_bias=0 / direct=3 / weightb=1 / open_gop=0 / weightp=2 / keyint=250 / keyint_min=25 / scenecut=40 / intra_refresh=0 / rc_lookahead=40 / rc=2pass / mbtree=1 / bitrate=1080 / ratetol=1.0 / qcomp=0.60 / qpmin=0 / qpmax=69 / qpstep=4 / cplxblur=20.0 / qblur=0.5 / ip_ratio=1.40 / aq=1:0.80Язык : EnglishДата кодирования : UTC 2016-05-19 19:57:37Дата пометки : UTC 2016-05-19 19:57:51Основные цвета : BT.601 PALХарактеристики трансфера : BT.470 System B, BT.470 System GКоэффициенты матрицы : BT.601

АудиоИдентификатор : 2Формат : AACФормат/Информация : Advanced Audio CodecПрофиль формата : LCИдентификатор кодека : 40Продолжительность : 1 ч. 3 м.Вид битрейта : ПеременныйБитрейт : 128 Кбит/секМаксимальный битрейт : 132 Кбит/секКаналы : 2 каналаРасположение каналов : Front: L RЧастота : 48,0 КГцМетод сжатия : С потерямиРазмер потока : 58,5 Мбайт (11%)Язык : RussianДата кодирования : UTC 2016-05-19 19:57:49Дата пометки : UTC 2016-05-19 19:57:51


Трекер:  [ 20-Май-2016 14:30 ]

  

Скачать .torrent

Размер .torrent файла 11 KB


Размер: 556 MB
Хэш (hash) релиза: 993f30ed24544ba81642ff5085f5d39457d5eae2

Еще никто не оставлял запись к записи скачать торрент [VIDEO] День Святого Валентина . Будь первым!

!Обратная связь