WhatsApp APK | Đông Phương Chân Long [FULL] | Chapter 23

Скачать через торрент [MULT] Норм и Несокрушимые Norm of the North бесплатно русская версия torrent активатор

Статистика раздачи
Размер:  937 MB   |    Зарегистрирован:  2 года 2 месяца   |    .torrent скачан:  61 раз   |   
Раздают:  1  
   
загрузка...
 
Автор Сообщение

Galfimbul

avatar Galfimbul


Норм и Несокрушимые / Norm of the North
«Главный мультфильм весенних каникул»

Год выпуска: 2016
Страна: Индия, США | Assemblage Entertainment, Lionsgate, Splash Entertainment
Жанр: мультфильм, комедия, приключения, семейный
Продолжительность: 01:30:31
Перевод: Профессиональный (полное дублирование)
Cубтитры: нет
Режиссер: Тревор Уолл / Trevor Wall
Роли озвучивали: Роб Шнайдер, Хэзер Грэм, Кен Жонг, Билл Найи, Колм Мини, Лоретта Дивайн, Майкл МакЭлхаттон, Майя Кэй, Габриэль Иглесиас, Салом Дженс и другие .
Роли дублировали: Антон Комолов, Ольга Шелест, Алина Кукушкина, Сергей Чихачев, Николай Дроздов и другие .
Описание: Встречайте! Норм и Несокрушимые — добродушный белый медведь и шустрые лемминги. Их миссия — спасти родную Арктику от коварной корпорации. Могущественный босс Мистер Грин задумал построить здесь, среди чистых льдов, город богачей, и пушистый отряд должен дать противнику бой на его территории.

Норм и Несокрушимые отправляются прямо в каменные джунгли мегаполиса. Их обаяние, отвага, шутки и танцы — особенно зажигательный «Арктик Шейк» — растопят сердца горожан, но для победы мало просто стать звёздами. Впереди — настоящие испытания и вихрь приключений.
Релиз группы
Качество: HDRip / <a href="viewtopic.php?t=5215892" class="postLink">рип с BDRip 720p</a>
Формат: MP4
Видео кодек: H.264
Аудио кодек: AAC
Видео: 960x518 AR:1.85 1312 kbps 23.976 fps
Аудио: 2ch 48 kHz 128 kbps
avs [info]: 960x518p 1:1 @ 2997/125 fps (cfr)
x264 [info]: using SAR=1/1
x264 [info]: using cpu capabilities: MMX2 SSE2Fast SSSE3 SSE4.2 LZCNT
x264 [info]: profile High, level 4.1

x264 [info]: frame I:1333 Avg QP:15.41 size: 69219
x264 [info]: frame P:37630 Avg QP:21.88 size: 12296
x264 [info]: frame B:91261 Avg QP:25.39 size: 3674
x264 [info]: consecutive B-frames: 6.6% 6.5% 17.6% 29.2% 10.3% 26.2% 1.1% 1.2% 1.1%
x264 [info]: mb I I16..4: 6.8% 66.1% 27.1%
x264 [info]: mb P I16..4: 3.0% 13.3% 1.7% P16..4: 26.1% 22.3% 6.0% 0.0% 0.0% skip:27.7%
x264 [info]: mb B I16..4: 0.4% 2.3% 0.2% B16..8: 22.4% 9.5% 1.6% direct: 1.9% skip:61.6% L0:40.9% L1:47.8% BI:11.3%
x264 [info]: 8x8 transform intra:73.8% inter:72.0%
x264 [info]: direct mvs spatial:92.5% temporal:7.5%
x264 [info]: coded y,uvDC,uvAC intra: 71.1% 62.5% 28.2% inter: 11.9% 8.5% 2.7%
x264 [info]: i16 v,h,dc,p: 13% 24% 3% 60%
x264 [info]: i8 v,h,dc,ddl,ddr,vr,hd,vl,hu: 10% 10% 4% 9% 13% 13% 15% 12% 15%
x264 [info]: i4 v,h,dc,ddl,ddr,vr,hd,vl,hu: 15% 14% 6% 7% 14% 12% 13% 8% 11%
x264 [info]: i8c dc,h,v,p: 23% 37% 19% 21%
x264 [info]: Weighted P-Frames: Y:3.2% UV:1.8%
x264 [info]: ref P L0: 57.0% 11.7% 12.7% 6.0% 3.6% 3.2% 2.3% 1.6% 1.4% 0.4% 0.0%
x264 [info]: ref B L0: 81.9% 7.3% 4.1% 2.3% 1.7% 1.3% 1.0% 0.4%
x264 [info]: ref B L1: 94.8% 5.2%
x264 [info]: kb/s:1311.22

x264 [total]: encoded 130224 frames, 7.70 fps, 1311.23 kb/s

ОбщееПолное имя : D:\Torrents\Norm of the North.2016.HDRip.x264.960x.rip by Frost O.S.mp4Формат : MPEG-4Профиль формата : Base MediaИдентификатор кодека : isomРазмер файла : 937 МбайтПродолжительность : 1 ч. 30 м.Режим общего битрейта : ПеременныйОбщий поток : 1447 Кбит/секНазвание фильма : Norm of the North 2016 HDRip x264 960x rip by Frost O SЖанр : AnimationТип содержимого : Short FilmДата кодирования : UTC 2016-05-16 13:19:11Дата пометки : UTC 2016-05-16 13:21:17Программа кодирования : MkvToMp4 version: 0.224 (x64)Обложка : YesПримечание : rip by Frost O.SLongDescription : Встречайте! Норм и Несокрушимые — добродушный белый медведь и шустрые лемминги. Их миссия — спасти родную Арктику от коварной корпорации. Могущественный босс Мистер Грин задумал построить здесь, среди чистых льдов, город богачей, и пушистый отряд должен дать противнику бой на его территории. Норм и Несокрушимые отправляются прямо в каменные джунгли мегаполиса. Их обаяние, отвага, шутки и танцы — особенно зажигательный «Арктик Шейк» — растопят сердца горожан, но для победы мало просто стать звёздами. Впереди — настоящие испытания и вихрь приключений.

ВидеоИдентификатор : 1Формат : AVCФормат/Информация : Advanced Video CodecПрофиль формата : [email protected]Параметр CABAC формата : ДаПараметр ReFrames формата : 9 кадровИдентификатор кодека : avc1Идентификатор кодека/Информация : Advanced Video CodingПродолжительность : 1 ч. 30 м.Битрейт : 1312 Кбит/секМаксимальный битрейт : 6698 Кбит/секШирина : 960 пикселейВысота : 518 пикселейСоотношение сторон : 1,85:1Режим частоты кадров : ПостоянныйЧастота кадров : 23,976 кадра/секЦветовое пространство : YUVСубдискретизация насыщенности : 4:2:0Битовая глубина : 8 битТип развёртки : ПрогрессивнаяБит/(Пиксели*Кадры) : 0.110Размер потока : 849 Мбайт (91%)Библиотека кодирования : x264 core 130 r2273 b3065e6Настройки программы : cabac=1 / ref=9 / deblock=1:-2:-2 / analyse=0x3:0x113 / me=umh / subme=11 / psy=1 / psy_rd=0.70:0.00 / mixed_ref=1 / me_range=32 / chroma_me=1 / trellis=2 / 8x8dct=1 / cqm=0 / deadzone=21,11 / fast_pskip=0 / chroma_qp_offset=-2 / threads=3 / lookahead_threads=1 / sliced_threads=0 / nr=0 / decimate=0 / interlaced=0 / bluray_compat=0 / constrained_intra=0 / bframes=8 / b_pyramid=2 / b_adapt=2 / b_bias=0 / direct=3 / weightb=1 / open_gop=0 / weightp=2 / keyint=250 / keyint_min=23 / scenecut=40 / intra_refresh=0 / rc_lookahead=40 / rc=2pass / mbtree=1 / bitrate=1312 / ratetol=1.0 / qcomp=0.60 / qpmin=0 / qpmax=69 / qpstep=4 / cplxblur=20.0 / qblur=0.5 / ip_ratio=1.40 / aq=1:1.00Язык : EnglishДата кодирования : UTC 2016-05-16 13:19:11Дата пометки : UTC 2016-05-16 13:19:41Основные цвета : BT.709Характеристики трансфера : BT.709Коэффициенты матрицы : BT.709

АудиоИдентификатор : 2Формат : AACФормат/Информация : Advanced Audio CodecПрофиль формата : LCИдентификатор кодека : 40Продолжительность : 1 ч. 30 м.Вид битрейта : ПеременныйБитрейт : 128 Кбит/секМаксимальный битрейт : 135 Кбит/секКаналы : 2 каналаРасположение каналов : Front: L RЧастота : 48,0 КГцМетод сжатия : С потерямиРазмер потока : 82,9 Мбайт (9%)Язык : RussianДата кодирования : UTC 2016-05-16 13:19:38Дата пометки : UTC 2016-05-16 13:19:41


Трекер:  [ 16-Май-2016 14:30 ]

  

Скачать .torrent

Размер .torrent файла 18 KB


Размер: 937 MB
Хэш (hash) релиза: d471ea1931e9c3f4bb935e661ed7930fe62eec05

Торренты, похожие на [MULT] Норм и Несокрушимые Norm of the North скачать торрент

Форум Название Автор Размер S L Добавлен
Видео (Фильмы/Клипы) ·· [MULT] Норм и Несокрушимые / Norm of the North (Тревор Уолл / Trevor Wall) [2016, мультфильм, комедия, приключения, семейный, HDRip] [MP4, 480x] Dub Galfimbul 431255968411 MB 0 0 1463403993

16:06

16-Май-16

Еще никто не оставлял запись к записи скачать торрент [MULT] Норм и Несокрушимые Norm of the North . Будь первым!

!Обратная связь