Oliver McGowan | Dennoh Coil | 720p | BDRip | Dual Audio | Tödliches Dilemma – Überleben für Anfänger

Скачать через торрент [MULT] Норм и Несокрушимые Norm of the North бесплатно русская версия torrent активатор

Статистика раздачи
Размер:  411 MB   |    Зарегистрирован:  2 года 2 месяца   |    .torrent скачан:  740 раз   |   
Раздают:  1  
   
загрузка...
 
Автор Сообщение

Galfimbul

avatar Galfimbul


Норм и Несокрушимые / Norm of the North
«Главный мультфильм весенних каникул»

Год выпуска: 2016
Страна: Индия, США | Assemblage Entertainment, Lionsgate, Splash Entertainment
Жанр: мультфильм, комедия, приключения, семейный
Продолжительность: 01:30:31
Перевод: Профессиональный (полное дублирование)
Cубтитры: нет
Режиссер: Тревор Уолл / Trevor Wall
Роли озвучивали: Роб Шнайдер, Хэзер Грэм, Кен Жонг, Билл Найи, Колм Мини, Лоретта Дивайн, Майкл МакЭлхаттон, Майя Кэй, Габриэль Иглесиас, Салом Дженс и другие .
Роли дублировали: Антон Комолов, Ольга Шелест, Алина Кукушкина, Сергей Чихачев, Николай Дроздов и другие .
Описание: Встречайте! Норм и Несокрушимые — добродушный белый медведь и шустрые лемминги. Их миссия — спасти родную Арктику от коварной корпорации. Могущественный босс Мистер Грин задумал построить здесь, среди чистых льдов, город богачей, и пушистый отряд должен дать противнику бой на его территории.

Норм и Несокрушимые отправляются прямо в каменные джунгли мегаполиса. Их обаяние, отвага, шутки и танцы — особенно зажигательный «Арктик Шейк» — растопят сердца горожан, но для победы мало просто стать звёздами. Впереди — настоящие испытания и вихрь приключений.
Релиз группы
Качество: HDRip / <a href="viewtopic.php?t=5215892" class="postLink">рип с BDRip 720p</a>
Формат: MP4
Видео кодек: XviD
Аудио кодек: AAC
Видео: 480x256 AR:1.85 499 kbps 23.976 fps
Аудио: 2ch 48 kHz 128 kbps
ОбщееПолное имя : D:\Torrents\Norm of the North.2016.HDRip.XviD.480x.rip by Frost O.S.mp4Формат : MPEG-4Профиль формата : Base MediaИдентификатор кодека : isomРазмер файла : 411 МбайтПродолжительность : 1 ч. 30 м.Режим общего битрейта : ПеременныйОбщий поток : 635 Кбит/секНазвание фильма : Norm of the North 2016 HDRip XviD 480x rip by Frost O SЖанр : AnimationТип содержимого : Short FilmДата кодирования : UTC 2016-05-16 13:23:36Дата пометки : UTC 2016-05-16 13:24:07Программа кодирования : MkvToMp4version: 0.224 (x64)Обложка : YesПримечание : rip by Frost O.SLongDescription : Встречайте! Норм и Несокрушимые — добродушный белый медведь и шустрые лемминги. Их миссия — спасти родную Арктику от коварной корпорации. Могущественный босс Мистер Грин задумал построить здесь, среди чистых льдов, город богачей, и пушистый отряд должен дать противнику бой на его территории. Норм и Несокрушимые отправляются прямо в каменные джунгли мегаполиса. Их обаяние, отвага, шутки и танцы — особенно зажигательный «Арктик Шейк» — растопят сердца горожан, но для победы мало просто стать звёздами. Впереди — настоящие испытания и вихрь приключений.

ВидеоИдентификатор : 1Формат : MPEG-4 VisualПрофиль формата : Advanced [email protected]Параметр BVOP формата : ДаПараметр QPel формата : НетПараметр GMC формата : Без точки переходаПараметр матрицы формата : ВыборочнаяИдентификатор кодека : 20Продолжительность : 1 ч. 30 м.Вид битрейта : ПеременныйБитрейт : 499 Кбит/секМаксимальный битрейт : 2709 Кбит/секШирина : 480 пикселейВысота : 256 пикселейСоотношение сторон : 1,85:1Режим частоты кадров : ПостоянныйЧастота кадров : 23,976 кадра/секЦветовое пространство : YUVСубдискретизация насыщенности : 4:2:0Битовая глубина : 8 битТип развёртки : ПрогрессивнаяМетод сжатия : С потерямиБит/(Пиксели*Кадры) : 0.169Размер потока : 323 Мбайт (79%)Библиотека кодирования : XviD 1.2.1 (UTC 2008-12-04)Язык : EnglishДата пометки : UTC 2016-05-16 13:23:39

АудиоИдентификатор : 2Формат : AACФормат/Информация : Advanced Audio CodecПрофиль формата : LCИдентификатор кодека : 40Продолжительность : 1 ч. 30 м.Вид битрейта : ПеременныйБитрейт : 128 Кбит/секМаксимальный битрейт : 135 Кбит/секКаналы : 2 каналаРасположение каналов : Front: L RЧастота : 48,0 КГцМетод сжатия : С потерямиРазмер потока : 82,9 Мбайт (20%)Язык : RussianДата кодирования : UTC 2016-05-16 13:23:37Дата пометки : UTC 2016-05-16 13:23:39


Трекер:  [ 16-Май-2016 14:30 ]

  

Скачать .torrent

Размер .torrent файла 16 KB


Размер: 411 MB
Хэш (hash) релиза: a392b2d1909d643caefd79152790f0e1af635b65

Торренты, похожие на [MULT] Норм и Несокрушимые Norm of the North скачать торрент

Форум Название Автор Размер S L Добавлен
Видео (Фильмы/Клипы) ·· [MULT] Норм и Несокрушимые / Norm of the North (Тревор Уолл / Trevor Wall) [2016, мультфильм, комедия, приключения, семейный, HDRip] [MP4, 960x] Dub Galfimbul 982663791937 MB 0 0 1463404001

16:06

16-Май-16

Еще никто не оставлял запись к записи скачать торрент [MULT] Норм и Несокрушимые Norm of the North . Будь первым!

!Обратная связь