Cours de cuisine Pâtisserie | Chronicles of Korea | Frida Kahlo - Découvertes Gallimard

Скачать через торрент [MULT] Хороший динозавр The Good Dinosaur бесплатно русская версия torrent активатор

Статистика раздачи
Размер:  426 MB   |    Зарегистрирован:  2 года 2 месяца   |    .torrent скачан:  811 раз   |   
Раздают:  1  
   
загрузка...
 
Автор Сообщение

Galfimbul

avatar Galfimbul


Хороший динозавр / The Good Dinosaur
«Tiny but tough»

Год выпуска: 2015
Страна: США
Жанр: мультфильм, фэнтези, комедия, приключения, семейный
Продолжительность: 01:33:50
Перевод: Профессиональный (полное дублирование)
Cубтитры: нет
Режиссер: Питер Сон / Peter Sohn
Роли озвучивали: Джеффри Райт, Фрэнсис МакДорманд, Малиа Нипай-Падилья, Райан Типл, Джек МакГроу, Маркус Скрибнер, Рэймонд Очоа, Джек Брайт, Питер Сон, Стив Зан и другие .
Роли дублировали:Максим Сергеев, Регина Щукина, Александра Петрова, Дмитрий Головин, Сергей Маркеев и другие .
Описание: По сюжету динозавры не вымерли, а эволюционировали в разумных существ и живут и здравствуют на Земле. А вот люди остались на довольно примитивной стадии развития. Фильм расскажет историю дружбы динозавра и маленького мальчика.

Во время исследовательской экспедиции по Вайомингу кинематографисты решились сплавиться по реке Снейк. Путешествие снималось на камеру GoPro. В какой-то момент крепеж камеры ослаб, и она упала в реку. К счастью, опытный гид, знавший реку, сумел рассчитать, куда примерно поток вынесет ценную аппаратуру. Камеру нашли, при этом она продолжала работать. Съемочная группа получила бесценный материал, на котором был запечатлен весь заплыв от начала и до конца, в том числе — и подводные съемки.
Чтобы окунуться в пучину девственной природы был организован исследовательский конный поход в Вайоминг. Дорога кинематографистов проходила вдоль горного хребта Тетон и реки Снейк. Исследовательская экспедиция дошла до Южной Монтаны, испытав на себе непростые климатические условия. Чтобы перенести все увиденные в ходе экспедиции красоты на экран, кинематографисты обратились к техническим специалистам Pixar, поскольку нужно было обработать огромный массив информации. Данные по Вайомингу нашли в Интернете. С остальными территориями создателям фильма помогло Американское Геологическое Управление, специалисты которого предоставили исчерпывающие ландшафтные данные по всем Соединенным Штатам. Большая часть сведений была представлена в качестве аэрофотографий. Информация о высотах точек рельефа местности стала отправной точкой в последующих изысканиях и разработке системы генерирования компьютерного ландшафта.
Работая над семейством тираннозавров, художники черпали вдохновение в семействе фермеров с северо-западного тихоокеанского побережья США. Кинематографисты наткнулись на дом этой семьи во время исследовательского турне и были очарованы их внешностью и отношением к жизни.
Для того, чтобы местность в фильме выглядела реалистично, команда художников и технических специалистов Pixar подробно изучала Дикий Запад Америки, начиная с города Джунтура (штат Орегон) и вплоть до долины Джексон Хоул (штат Вайоминг). Именно в той местности, если верить сценаристам, заблудился Арло.
При создании местности использовались фотографии со спутников. Был написан специальный плагин для программы, который указывал, что любое зеленое пятно на карте — это деревья и другие зеленые насаждения. По той же аналогии наносились на карту и другие типы местности: коричневый — земля и грязь, синий — водоем или река.
Готовясь к съемкам фильма, художники и техники из Disney/Pixar создали целую библиотеку различных дождевых и облачных эффектов, которые могли видоизменяться и комбинироваться друг с другом для получения оригинальных сочетаний. Обычно облака рисуются двухмерными, в этом же фильме, впервые в истории мультипликации, они были сделаны стопроцентно объемными. Они подвижны и могут освещаться с любого ракурса, создавая очень реалистичную облачность.
Работая над внешностью и поведением Бура (огромный тираннозавр, которого встречает Арло по дороге домой), кинематографисты ориентировались на актеров, которые гармонично смотрелись в образах классических ковбоев, таких как Клинт Иствуд и Джек Пэланс.

Релиз группы
Качество: HDRip / рип с BDRip 720p
Формат: MP4
Видео кодек: XviD
Аудио кодек: AAC
Видео: 480x200 AR:2.40 499 kbps 23.976 fps
Аудио: 2ch 48 kHz 128 kbps
ОбщееПолное имя : D:\Torrents\The Good Dinosaur.2015.HDRip.XviD.480x.rip by Frost O.S.mp4Формат : MPEG-4Профиль формата : Base MediaИдентификатор кодека : isomРазмер файла : 426 МбайтПродолжительность : 1 ч. 33 м.Режим общего битрейта : ПеременныйОбщий поток : 635 Кбит/секНазвание фильма : The Good Dinosaur 2015 HDRip XviD 480x rip by Frost O SЖанр : AnimationТип содержимого : Short FilmДата кодирования : UTC 2016-05-15 15:16:29Дата пометки : UTC 2016-05-15 15:16:50Программа кодирования : MkvToMp4 version: 0.224 (x64)Обложка : YesПримечание : rip by Frost O.SLongDescription : По сюжету динозавры не вымерли, а эволюционировали в разумных существ и живут и здравствуют на Земле. А вот люди остались на довольно примитивной стадии развития. Фильм расскажет историю дружбы динозавра и маленького мальчика.

ВидеоИдентификатор : 1Формат : MPEG-4 VisualПрофиль формата : Advanced [email protected]Параметр BVOP формата : ДаПараметр QPel формата : НетПараметр GMC формата : Без точки переходаПараметр матрицы формата : ВыборочнаяИдентификатор кодека : 20Продолжительность : 1 ч. 33 м.Вид битрейта : ПеременныйБитрейт : 499 Кбит/секМаксимальный битрейт : 2246 Мбит/секШирина : 480 пикселейВысота : 200 пикселейСоотношение сторон : 2,40:1Режим частоты кадров : ПеременныйЧастота кадров : 23,976 кадра/секМинимальная частота кадров : 11,988 кадров/секМаксимальная частота кадров : 23,976 кадра/секЦветовое пространство : YUVСубдискретизация насыщенности : 4:2:0Битовая глубина : 8 битТип развёртки : ПрогрессивнаяМетод сжатия : С потерямиБит/(Пиксели*Кадры) : 0.217Размер потока : 335 Мбайт (79%)Библиотека кодирования : XviD 1.2.1 (UTC 2008-12-04)Язык : EnglishДата пометки : UTC 2016-05-15 15:16:33

АудиоИдентификатор : 2Формат : AACФормат/Информация : Advanced Audio CodecПрофиль формата : LCИдентификатор кодека : 40Продолжительность : 1 ч. 33 м.Вид битрейта : ПеременныйБитрейт : 128 Кбит/секМаксимальный битрейт : 135 Кбит/секКаналы : 2 каналаРасположение каналов : Front: L RЧастота : 48,0 КГцМетод сжатия : С потерямиРазмер потока : 85,9 Мбайт (20%)Язык : RussianДата кодирования : UTC 2016-05-15 15:16:31Дата пометки : UTC 2016-05-15 15:16:33


Трекер:  [ 15-Май-2016 18:00 ]

  

Скачать .torrent

Размер .torrent файла 17 KB


Размер: 426 MB
Хэш (hash) релиза: 160e5bae8709e7ab8c9e0e1cd40ccaeae8500ec2

Торренты, похожие на [MULT] Хороший динозавр The Good Dinosaur скачать торрент

Форум Название Автор Размер S L Добавлен
Видео (Фильмы/Клипы) ·· [MULT] Хороший динозавр The Good Dinosaur (Питер Сон / Peter Sohn) [2015, мультфильм, фэнтези, комедия, приключения, семейный, HDRip] [MP4, 960x] Dub Galfimbul 12128786671.13 GB 0 0 1463328725

19:12

15-Май-16

Еще никто не оставлял запись к записи скачать торрент [MULT] Хороший динозавр The Good Dinosaur . Будь первым!

!Обратная связь