Iron Man – Die Zukunft beginnt | Top-Rated Webcam Shows of the Day | Strange Angel Temporada 1 Capítulo 3

Скачать через торрент [VIDEO] Василиса Прекрасная бесплатно русская версия torrent активатор

Статистика раздачи
Размер:  608 MB   |    Зарегистрирован:  2 года 3 месяца   |    .torrent скачан:  40 раз   |   
Раздают:  1  
   
загрузка...
 
Автор Сообщение

Galfimbul

avatar Galfimbul


Василиса Прекрасная

Год выпуска: 1939
Страна: СССР
Студия: Союздетфильм
Жанр: Сказка
Продолжительность: 01:09:54
Перевод: не требуется
Cубтитры: нет
Режиссер: Александр Роу
В ролях: Георгий Милляр, Сергей Столяров, Лев Потёмкин, Никита Кондратьев, Валентина Сорогожская, Ирина Зарубина, Лидия Сухаревская, Татьяна Барышева, Мария Барабанова.
Описание: Задумал как-то отец женить своих сыновей. Вышли три брата в чисто поле, натянули тетиву луков и пустили стрелы в разные стороны. Стрела старшего сына упала на дворянский двор, к дворянской дочери, стрела среднего сына упала на двор купеческий, а стрела Ивана, младшего сына упала на болото к лягушке-квакушке. Лягушка оказалась непростой, а заколдованной Василисой Прекрасной. Завидуя её красоте, невесты братьев сожгли лягушачью шкурку и Змей Горыныч унёс Василису к себе. Иван решает найти свою суженную и отправляется на поиски...

Во время съемок Роу обратился к землякам-умельцам в загорских мастерских игрушек, и те изготовили макет Змея Горыныча в 11 метров длиной и 5 метров высотой.
В 1966 году вышла новая редакция фильма.

Релиз группы
оригинальная версия 1939 года
DVD-релиз 2011Мастер Тэйп

Качество: DVDRip / <a href="viewtopic.php?t=3656963" class="postLink">рип с DVD9 (Лицензия)</a>
Формат: MP4
Видео кодек: H.264
Аудио кодек: AAC
Видео: 464x360 AR:1.289 1080 kbps 25 fps
Аудио: 2ch 48 kHz 128 kbps
avs [info]: 464x360p 1:1 @ 25/1 fps (cfr)
x264 [info]: using SAR=1/1
x264 [info]: using cpu capabilities: MMX2 SSE2Fast SSSE3 SSE4.2 LZCNT
x264 [info]: profile High, level 4.1

x264 [info]: frame I:745 Avg QP:21.52 size: 24028
x264 [info]: frame P:18505 Avg QP:24.60 size: 10092
x264 [info]: frame B:85601 Avg QP:26.65 size: 4224
x264 [info]: consecutive B-frames: 1.0% 0.7% 2.2% 14.0% 15.1% 33.2% 12.5% 8.8% 5.9% 4.1% 2.3%
x264 [info]: mb I I16..4: 1.2% 86.2% 12.6%
x264 [info]: mb P I16..4: 0.1% 9.4% 0.9% P16..4: 32.6% 40.2% 15.0% 1.5% 0.1% skip: 0.2%
x264 [info]: mb B I16..4: 0.0% 2.0% 0.1% B16..8: 42.1% 21.7% 3.9% direct:10.2% skip:19.8% L0:47.4% L1:41.6% BI:11.0%
x264 [info]: 8x8 transform intra:90.8% inter:64.4%
x264 [info]: direct mvs spatial:96.8% temporal:3.2%
x264 [info]: coded y,uvDC,uvAC intra: 97.8% 16.3% 0.9% inter: 45.4% 7.3% 0.0%
x264 [info]: i16 v,h,dc,p: 33% 38% 7% 22%
x264 [info]: i8 v,h,dc,ddl,ddr,vr,hd,vl,hu: 10% 6% 5% 10% 16% 13% 16% 11% 14%
x264 [info]: i4 v,h,dc,ddl,ddr,vr,hd,vl,hu: 9% 6% 2% 8% 17% 14% 18% 11% 15%
x264 [info]: i8c dc,h,v,p: 53% 37% 8% 2%
x264 [info]: Weighted P-Frames: Y:56.0% UV:0.1%
x264 [info]: ref P L0: 35.1% 11.0% 13.6% 9.6% 6.8% 6.2% 5.0% 3.2% 2.7% 2.7% 2.4% 1.6% 0.0%
x264 [info]: ref B L0: 58.1% 15.0% 8.2% 5.0% 3.8% 3.5% 2.8% 2.0% 1.1% 0.5%
x264 [info]: ref B L1: 90.0% 10.0%
x264 [info]: kb/s:1080.01

x264 [total]: encoded 104851 frames, 10.06 fps, 1080.01 kb/s

ОбщееПолное имя : D:\Torrents\Vasilisa precrasnaya.1939.DVDRip.x264.640x.rip by Frost O.S.mp4Формат : MPEG-4Профиль формата : Base MediaИдентификатор кодека : isomРазмер файла : 608 МбайтПродолжительность : 1 ч. 9 м.Режим общего битрейта : ПеременныйОбщий поток : 1215 Кбит/секНазвание фильма : Vasilisa precrasnaya 1939 DVDRip x264 640x rip by Frost O SТип содержимого : Short FilmДата кодирования : UTC 2016-05-14 19:33:01Дата пометки : UTC 2016-05-14 19:33:31Программа кодирования : MkvToMp4 version: 0.224 (x64)Примечание : rip by Frost O.SLongDescription : Задумал как-то отец женить своих сыновей. Вышли три брата в чисто поле, натянули тетиву луков и пустили стрелы в разные стороны. Стрела старшего сына упала на дворянский двор, к дворянской дочери, стрела среднего сына упала на двор купеческий, а стрела Ивана, младшего сына упала на болото к лягушке-квакушке. Лягушка оказалась непростой, а заколдованной Василисой Прекрасной. Завидуя её красоте, невесты братьев сожгли лягушачью шкурку и Змей Горыныч унёс Василису к себе. Иван решает найти свою суженную и отправляется на поиски...

ВидеоИдентификатор : 1Формат : AVCФормат/Информация : Advanced Video CodecПрофиль формата : [email protected]Параметр CABAC формата : ДаПараметр ReFrames формата : 11 кадровИдентификатор кодека : avc1Идентификатор кодека/Информация : Advanced Video CodingПродолжительность : 1 ч. 9 м.Битрейт : 1080 Кбит/секМаксимальный битрейт : 4285 Кбит/секШирина : 464 пикселяВысота : 360 пикселейСоотношение сторон : 1,289Режим частоты кадров : ПостоянныйЧастота кадров : 25,000 кадров/секЦветовое пространство : YUVСубдискретизация насыщенности : 4:2:0Битовая глубина : 8 битТип развёртки : ПрогрессивнаяБит/(Пиксели*Кадры) : 0.259Размер потока : 540 Мбайт (89%)Библиотека кодирования : x264 core 130 r2273 b3065e6Настройки программы : cabac=1 / ref=11 / deblock=1:-1:-1 / analyse=0x3:0x133 / me=umh / subme=11 / psy=1 / psy_rd=1.20:0.10 / mixed_ref=1 / me_range=48 / chroma_me=1 / trellis=2 / 8x8dct=1 / cqm=0 / deadzone=21,11 / fast_pskip=0 / chroma_qp_offset=-3 / threads=3 / lookahead_threads=1 / sliced_threads=0 / nr=0 / decimate=0 / interlaced=0 / bluray_compat=0 / constrained_intra=0 / bframes=10 / b_pyramid=2 / b_adapt=2 / b_bias=0 / direct=3 / weightb=1 / open_gop=0 / weightp=2 / keyint=250 / keyint_min=25 / scenecut=40 / intra_refresh=0 / rc_lookahead=40 / rc=2pass / mbtree=1 / bitrate=1080 / ratetol=1.0 / qcomp=0.70 / qpmin=0 / qpmax=69 / qpstep=4 / cplxblur=20.0 / qblur=0.5 / ip_ratio=1.40 / aq=1:0.90Язык : EnglishДата кодирования : UTC 2016-05-14 19:33:01Дата пометки : UTC 2016-05-14 19:33:15Основные цвета : BT.601 PALХарактеристики трансфера : BT.470 System B, BT.470 System GКоэффициенты матрицы : BT.601

АудиоИдентификатор : 2Формат : AACФормат/Информация : Advanced Audio CodecПрофиль формата : LCИдентификатор кодека : 40Продолжительность : 1 ч. 9 м.Вид битрейта : ПеременныйБитрейт : 128 Кбит/секМаксимальный битрейт : 132 Кбит/секКаналы : 2 каналаРасположение каналов : Front: L RЧастота : 48,0 КГцМетод сжатия : С потерямиРазмер потока : 64,0 Мбайт (11%)Язык : RussianДата кодирования : UTC 2016-05-14 19:33:13Дата пометки : UTC 2016-05-14 19:33:15


Трекер:  [ 15-Май-2016 18:00 ]

  

Скачать .torrent

Размер .torrent файла 12 KB


Размер: 608 MB
Хэш (hash) релиза: af151c985733a4792959830af6cb8b39ef4c7272

Еще никто не оставлял запись к записи скачать торрент [VIDEO] Василиса Прекрасная . Будь первым!

!Обратная связь