Rosemary Forsyth | Die knallharten Fünf | RULES OF SURVIVAL

Скачать через торрент [VIDEO] По щучьему веленью бесплатно русская версия torrent активатор

Статистика раздачи
Размер:  356 MB   |    Зарегистрирован:  2 года 2 месяца   |    .torrent скачан:  39 раз   |   
Раздают:  1  
   
загрузка...
 
Автор Сообщение

Galfimbul

avatar Galfimbul


По щучьему веленью

Год выпуска: 1938
Страна: СССР
Студия: Союздетфильм
Жанр: Сказка
Продолжительность: 00:56:12
Перевод: не требуется
Cубтитры: нет
Режиссер: Александр Роу
В ролях: Петр Савин, Мария Кравчуновская, Георгий Милляр, С. Терентьева, Лев Потёмкин, Иван Москвин, Александр Жуков, Андрей Файт, Татьяна Струкова, Лидия Рюмина.
Описание: По одноименной пьесе Елизаветы Тараховской, в основе сюжета которой четыре русские народные сказки: «По щучьему веленью», «Царевна Несмеяна», «Плясовая гармонь», «Емеля-дурачок». Давным-давно в каком-то царстве, в каком-то древнем государстве жил был Емеля. Бедно жил. С работой всякою дружил. Гнул спину до седьмого пота, а всё бедняк. Пошёл Емеля воды набрать в речке и зачерпнул в реке щуку вместе с водой...

Во время работы над фильмом неожиданно растаял снег, и не все зимние сцены успели отснять. Тогда придумали в «щучье слово» внести новую сцену — «Обернись, зима лютая, летом красным». Так вышли из положения с зимней натурой, и картина обогатилась новым трюком — переходом из зимы в лето на глазах у изумленного зрителя.

Релиз группы
оригинальная версия 1938 года
DVD-релиз 2011Мастер Тэйп

Качество: DVDRip / <a href="viewtopic.php?t=3656963" class="postLink">рип с DVD9 (Лицензия)</a>
Формат: MP4
Видео кодек: H.264
Аудио кодек: AAC
Видео: 464x360 AR:1.289 749 kbps 25 fps
Аудио: 2ch 48 kHz 128 kbps
avs [info]: 464x360p 1:1 @ 25/1 fps (cfr)
x264 [info]: using SAR=1/1
x264 [info]: using cpu capabilities: MMX2 SSE2Fast SSSE3 SSE4.2 LZCNT
x264 [info]: profile High, level 4.1

x264 [info]: frame I:595 Avg QP:21.13 size: 19189
x264 [info]: frame P:17965 Avg QP:23.83 size: 7907
x264 [info]: frame B:65759 Avg QP:26.95 size: 2470
x264 [info]: consecutive B-frames: 1.3% 1.3% 6.0% 31.4% 19.7% 26.9% 7.2% 3.9% 2.3%
x264 [info]: mb I I16..4: 3.0% 81.5% 15.5%
x264 [info]: mb P I16..4: 0.2% 8.7% 1.1% P16..4: 34.5% 38.6% 14.7% 1.3% 0.1% skip: 0.8%
x264 [info]: mb B I16..4: 0.0% 1.6% 0.2% B16..8: 40.3% 19.2% 2.9% direct: 6.4% skip:29.5% L0:44.9% L1:42.7% BI:12.4%
x264 [info]: 8x8 transform intra:86.6% inter:69.1%
x264 [info]: direct mvs spatial:98.5% temporal:1.5%
x264 [info]: coded y,uvDC,uvAC intra: 95.4% 9.0% 0.2% inter: 32.3% 3.0% 0.0%
x264 [info]: i16 v,h,dc,p: 34% 38% 1% 27%
x264 [info]: i8 v,h,dc,ddl,ddr,vr,hd,vl,hu: 9% 6% 2% 10% 17% 15% 16% 12% 13%
x264 [info]: i4 v,h,dc,ddl,ddr,vr,hd,vl,hu: 10% 6% 1% 8% 17% 16% 17% 11% 14%
x264 [info]: i8c dc,h,v,p: 70% 27% 3% 1%
x264 [info]: Weighted P-Frames: Y:53.0% UV:0.8%
x264 [info]: ref P L0: 39.4% 14.3% 14.0% 8.0% 5.8% 5.2% 4.2% 2.7% 2.4% 2.6% 1.3% 0.1%
x264 [info]: ref B L0: 70.1% 11.7% 5.8% 3.6% 2.6% 2.5% 2.1% 1.0% 0.5%
x264 [info]: ref B L1: 93.3% 6.7%
x264 [info]: kb/s:749.25
encoded 84319 frames, 13.26 fps, 749.25 kb/s

ОбщееПолное имя : D:\Torrents\Po shuchemu veleniu.1938.DVDRip.x264.640x.rip by Frost O.S.mp4Формат : MPEG-4Профиль формата : Base MediaИдентификатор кодека : isomРазмер файла : 356 МбайтПродолжительность : 56 м.Режим общего битрейта : ПеременныйОбщий поток : 885 Кбит/секНазвание фильма : Po shuchemu veleniu 1938 DVDRip x264 640x rip by Frost O SТип содержимого : Short FilmДата кодирования : UTC 2016-05-15 08:26:11Дата пометки : UTC 2016-05-15 08:26:30Программа кодирования : MkvToMp4 version: 0.224 (x64)Примечание : rip by Frost O.SLongDescription : По одноименной пьесе Елизаветы Тараховской, в основе сюжета которой четыре русские народные сказки: «По щучьему веленью», «Царевна Несмеяна», «Плясовая гармонь», «Емеля-дурачок». Давным-давно в каком-то царстве, в каком-то древнем государстве жил был Емеля. Бедно жил. С работой всякою дружил. Гнул спину до седьмого пота, а всё бедняк. Пошёл Емеля воды набрать в речке и зачерпнул в реке щуку вместе с водой...

ВидеоИдентификатор : 1Формат : AVCФормат/Информация : Advanced Video CodecПрофиль формата : [email protected]Параметр CABAC формата : ДаПараметр ReFrames формата : 10 кадровИдентификатор кодека : avc1Идентификатор кодека/Информация : Advanced Video CodingПродолжительность : 56 м.Битрейт : 749 Кбит/секМаксимальный битрейт : 3413 Кбит/секШирина : 464 пикселяВысота : 360 пикселейСоотношение сторон : 1,289Режим частоты кадров : ПостоянныйЧастота кадров : 25,000 кадров/секЦветовое пространство : YUVСубдискретизация насыщенности : 4:2:0Битовая глубина : 8 битТип развёртки : ПрогрессивнаяБит/(Пиксели*Кадры) : 0.179Размер потока : 301 Мбайт (85%)Библиотека кодирования : x264 core 130 r2273 b3065e6Настройки программы : cabac=1 / ref=10 / deblock=1:-1:-1 / analyse=0x3:0x133 / me=umh / subme=11 / psy=1 / psy_rd=1.20:0.00 / mixed_ref=1 / me_range=48 / chroma_me=1 / trellis=2 / 8x8dct=1 / cqm=0 / deadzone=21,11 / fast_pskip=0 / chroma_qp_offset=-2 / threads=3 / lookahead_threads=1 / sliced_threads=0 / nr=0 / decimate=0 / interlaced=0 / bluray_compat=0 / constrained_intra=0 / bframes=8 / b_pyramid=2 / b_adapt=2 / b_bias=0 / direct=3 / weightb=1 / open_gop=0 / weightp=2 / keyint=250 / keyint_min=25 / scenecut=40 / intra_refresh=0 / rc_lookahead=40 / rc=2pass / mbtree=1 / bitrate=749 / ratetol=1.0 / qcomp=0.65 / qpmin=0 / qpmax=69 / qpstep=4 / cplxblur=20.0 / qblur=0.5 / ip_ratio=1.40 / aq=1:0.90Язык : EnglishДата кодирования : UTC 2016-05-15 08:26:11Дата пометки : UTC 2016-05-15 08:26:17Основные цвета : BT.601 PALХарактеристики трансфера : BT.470 System B, BT.470 System GКоэффициенты матрицы : BT.601

АудиоИдентификатор : 2Формат : AACФормат/Информация : Advanced Audio CodecПрофиль формата : LCИдентификатор кодека : 40Продолжительность : 56 м.Вид битрейта : ПеременныйБитрейт : 128 Кбит/секМаксимальный битрейт : 131 Кбит/секКаналы : 2 каналаРасположение каналов : Front: L RЧастота : 48,0 КГцМетод сжатия : С потерямиРазмер потока : 51,5 Мбайт (14%)Язык : RussianДата кодирования : UTC 2016-05-15 08:26:15Дата пометки : UTC 2016-05-15 08:26:17


Трекер:  [ 15-Май-2016 18:00 ]

  

Скачать .torrent

Размер .torrent файла 14 KB


Размер: 356 MB
Хэш (hash) релиза: d9de591a0d1ce5967f87778c9217a0e2b4945626

Еще никто не оставлял запись к записи скачать торрент [VIDEO] По щучьему веленью . Будь первым!

!Обратная связь