Harry’s Law | Cheol-min Park | Episode n° 1

Скачать через торрент Такси Taxi Фильм бесплатно в хорошем качестве torrent

Скачивайте на UnionPeer.org фильмы через торрент без регистрации. Новинки кино в хорошем качестве через торрент. На UnionPeer.org можно скачать через торрент фильмы 2014 и 2015 годов. Самые новые фильмы.

Скачать торрент Такси Taxi бесплатно через .torrent фильм мультфильм сериал

Статистика раздачи
Размер:  4.7 GB   |    Зарегистрирован:  2 года 1 месяц   |    .torrent скачан:  27 раз   |   
Раздают:  1  
   
загрузка...
 
Автор Сообщение

Galfimbul

avatar Galfimbul


Такси / Taxi

Год выпуска: 1982
Страна: США
Студия: Paramount Pictures
Жанр: комедия
Продолжительность: ~25 минут (серия)
Перевод: Профессиональный (двухголосый закадровый) CBS Drama
Режиссёр: Джеймс Берроуз / James Burrows
В ролях: Джадд Хёрш, Дэнни ДеВито, Мэрилу Хеннер, Тони Данза, Дж. Алан Томас, Кристофер Ллойд, Энди Кауфман, Кэрол Кейн и другие.
Описание: Сотрудники такси в Нью-Йорке ходят на свою работу, мечтая о более высоких достижениях.
РЕЛИЗ ОТ: V.SERIJ2013
Спасибо #Antisnl#, Beer kolesik Drinkers за запись звука и v.serij2013 (т.е., мне) за сведение.
Качество: DVDRip |PLAiD|
Формат: MKV
Видео кодек: H.264
Аудио кодек: AC3
Видео: H.264, 718x480 (4:3), 23.976 fps, ~2112 kbps, 0.256 bit/pixel
Аудио:

русская |CBS Drama|: AC3, 48 kHz, 2 ch, 192 kbps
английская |Оригинал|: AC3, 48 kHz, 2 ch, 192 kbps

Субтитры: английские
Сэмпл \ <a href="tracker.php?f%5B%5D=189&f%5B%5D=2367&f%5B%5D=2368&f%5B%5D=2372&f%5B%5D=2371&f%5B%5D=2370&nm=Taxi" class="postLink">Все раздачи сериала</a>

02. Jim's Inheritance
03. Alex Goes Off The Wagon
04. Scenskees from a Marriage (Part 1)
05. Scenskees from a Marriage (Part 2)
06. Crime and Punishment
07. Alex the Gofer
08. Louie's Revenge
09. Travels with My Dad
10. Elaine and the Monk
11. Zena's Honeymoon
General
Unique ID                      : 194171866917635753052104204776986617623 (0x9214242B4816E97199244D07041FA717)
Complete name                  : E:\Video\SD\Taxi Season 5 (DVDRip l AVC)\02. Jim's Inheritance.mkv
Format                         : Matroska
Format version                 : Version 4 / Version 2
File size                      : 441 MiB
Duration                       : 24mn 12s
Overall bit rate               : 2 547 Kbps
Encoded date                   : UTC 2016-05-14 15:07:18
Writing application            : mkvmerge v8.8.0 ('Wind at my back') 32bit
Writing library                : libebml v1.3.3 + libmatroska v1.4.4
DURATION                       : 00:24:12.096000000
NUMBER_OF_FRAMES               : 45378
NUMBER_OF_BYTES                : 34850304
_STATISTICS_WRITING_APP        : mkvmerge v8.8.0 ('Wind at my back') 32bit
_STATISTICS_WRITING_DATE_UTC   : 2016-05-14 15:07:18
_STATISTICS_TAGS               : BPS DURATION NUMBER_OF_FRAMES NUMBER_OF_BYTES

Video
ID                             : 1
Format                         : AVC
Format/Info                    : Advanced Video Codec
Format profile                 : [email protected]
Format settings, CABAC         : Yes
Format settings, ReFrames      : 13 frames
Codec ID                       : V_MPEG4/ISO/AVC
Duration                       : 24mn 12s
Bit rate                       : 2 112 Kbps
Width                          : 718 pixels
Height                         : 480 pixels
Display aspect ratio           : 4:3
Frame rate mode                : Constant
Frame rate                     : 23.976 fps
Color space                    : YUV
Chroma subsampling             : 4:2:0
Bit depth                      : 8 bits
Scan type                      : Progressive
Bits/(Pixel*Frame)             : 0.256
Stream size                    : 366 MiB (83%)
Writing library                : x264 core 144 r2525kMod 40bb568
Encoding settings              : cabac=1 / ref=13 / deblock=1:-3:-3 / analyse=0x3:0x133 / me=umh / subme=10 / psy=1 / fade_compensate=0.00 / psy_rd=1.00:0.05 / mixed_ref=1 / me_range=24 / chroma_me=1 / trellis=2 / 8x8dct=1 / cqm=0 / deadzone=6,6 / fast_pskip=0 / chroma_qp_offset=-3 / threads=12 / lookahead_threads=1 / sliced_threads=0 / nr=0 / decimate=0 / interlaced=0 / bluray_compat=0 / constrained_intra=0 / fgo=0 / bframes=6 / b_pyramid=2 / b_adapt=2 / b_bias=0 / direct=3 / weightb=1 / open_gop=0 / weightp=2 / keyint=250 / keyint_min=23 / scenecut=40 / intra_refresh=0 / rc_lookahead=150 / rc=crf / mbtree=1 / crf=19.0000 / qcomp=0.60 / qpmin=0 / qpmax=69 / qpstep=4 / ip_ratio=1.10 / aq=3:0.60
Language                       : English
Default                        : Yes
Forced                         : No

Audio #1
ID                             : 2
Format                         : AC-3
Format/Info                    : Audio Coding 3
Mode extension                 : CM (complete main)
Format settings, Endianness    : Big
Codec ID                       : A_AC3
Duration                       : 24mn 12s
Bit rate mode                  : Constant
Bit rate                       : 192 Kbps
Channel(s)                     : 2 channels
Channel positions              : Front: L R
Sampling rate                  : 48.0 KHz
Bit depth                      : 16 bits
Compression mode               : Lossy
Stream size                    : 33.2 MiB (8%)
Title                          : DVO (CBS Drama)
Language                       : Russian
Default                        : Yes
Forced                         : No

Audio #2
ID                             : 3
Format                         : AC-3
Format/Info                    : Audio Coding 3
Mode extension                 : CM (complete main)
Format settings, Endianness    : Big
Codec ID                       : A_AC3
Duration                       : 24mn 12s
Bit rate mode                  : Constant
Bit rate                       : 192 Kbps
Channel(s)                     : 2 channels
Channel positions              : Front: L R
Sampling rate                  : 48.0 KHz
Bit depth                      : 16 bits
Compression mode               : Lossy
Stream size                    : 33.2 MiB (8%)
Title                          : Original
Language                       : English
Default                        : No
Forced                         : No

Text
ID                             : 4
Format                         : UTF-8
Codec ID                       : S_TEXT/UTF8
Codec ID/Info                  : UTF-8 Plain Text
Title                          : SDH
Language                       : English
Default                        : No
Forced                         : No

Menu
00:00:00.000                   : en:Chapter 1
00:01:11.267                   : en:Chapter 2
00:10:10.567                   : en:Chapter 3
00:23:35.600                   : en:Chapter 4
00:24:09.401                   : en:Chapter 5
00:24:10.035                   : en:Chapter 6



Трекер:  [ 15-Май-2016 16:00 ]

  

Скачать .torrent

Размер .torrent файла 12 KB


Размер: 4.7 GB
Хэш (hash) релиза: 39ce816e14be1f63bfb47a84de48a4b5129e10fa
Подписка на обновления:

Еще никто не оставлял запись к записи скачать торрент Такси Taxi . Будь первым!

!Обратная связь