Aidan Gillen | TheVideo | 2010 (667)

Скачать через торрент [VIDEO] Астерикс и Обеликс: Тетралогия Astérix & Obélix: Tetralogy бесплатно русская версия torrent активатор

Статистика раздачи
Размер:  5.23 GB   |    Зарегистрирован:  2 года 2 месяца   |    .torrent скачан:  83 раза   |   
Раздают:  1  
   
загрузка...
 
Автор Сообщение

Galfimbul

avatar Galfimbul



Астерикс и Обеликс: Тетралогия / Astérix & Obélix: Tetralogy

Астерикс и Обеликс против Цезаря / Astérix & Obélix contre César«The Gauls are revolting!»

Год выпуска: 1999
Страна: Франция, Германия, Италия
Жанр: фэнтези, комедия, приключения, семейный
Продолжительность: 01:45:32
Перевод: Профессиональный (полное дублирование)
Cубтитры: нет
Режиссер: Клод Зиди / Claude Zidi
В ролях: Кристиан Клавье / Christian Clavier (Astérix), Жерар Депардье / Gérard Depardieu (Obélix), Роберто Бениньи / Roberto Benigni (Lucius Detritus (Tullius Destructivus / Catastrofus)), Мишель Галабрю / Michel Galabru (Abraracourcix (Majestix)), Клод Пьеплю / Claude Piéplu (Panoramix (Miraculix) / Getafix) и другие .
Описание: В 50-м году до нашей эры римский император Юлий Цезарь покорил Галлию. Только жители одной маленькой деревеньки отказались платить налоги римлянам. Ведь у них есть волшебный напиток, с помощью которого неразлучные друзья Астерикс и Обеликс становятся супергероями, способными сразиться со всей Римской империей…
Релиз группы

Астерикс — это чуть-чуть переделанный типографский термин «астериск», а Обеликс — «галльский» вариант памятного термина «обелиск».
Съемки картины начались 26 января 1998 года и проходили в Мюнхене (Германия) и в Бретани (Франция).

Качество: BDRip / рип с Blu-Ray 1080p
Формат: MP4
Видео кодек: H.264
Аудио кодек: AAC
Видео: 960x410 AR:2.35 1688 kbps 25 fps
Аудио: [Russian] 2ch 48 kHz 128 kbps - [Dub]
avs [info]: 960x410p 1:1 @ 25/1 fps (cfr)
x264 [info]: using SAR=1/1
x264 [info]: using cpu capabilities: MMX2 SSE2Fast SSSE3 SSE4.2 LZCNT
x264 [info]: profile High, level 4.1

x264 [info]: frame I:1624 Avg QP:20.58 size: 64715
x264 [info]: frame P:38631 Avg QP:24.44 size: 17447
x264 [info]: frame B:118049 Avg QP:28.23 size: 4713
x264 [info]: consecutive B-frames: 2.6% 3.4% 10.1% 39.7% 17.7% 23.4% 2.2% 1.0%
x264 [info]: mb I I16..4: 4.4% 75.7% 19.9%
x264 [info]: mb P I16..4: 0.5% 8.3% 1.6% P16..4: 34.1% 37.1% 13.4% 0.0% 0.0% skip: 4.9%
x264 [info]: mb B I16..4: 0.1% 1.0% 0.2% B16..8: 38.2% 16.6% 3.1% direct: 3.4% skip:37.4% L0:41.8% L1:46.5% BI:11.8%
x264 [info]: 8x8 transform intra:78.5% inter:65.1%
x264 [info]: direct mvs spatial:96.8% temporal:3.2%
x264 [info]: coded y,uvDC,uvAC intra: 90.3% 87.3% 57.4% inter: 21.9% 17.2% 6.3%
x264 [info]: i16 v,h,dc,p: 32% 18% 3% 46%
x264 [info]: i8 v,h,dc,ddl,ddr,vr,hd,vl,hu: 7% 5% 3% 11% 17% 17% 15% 13% 12%
x264 [info]: i4 v,h,dc,ddl,ddr,vr,hd,vl,hu: 11% 5% 3% 9% 16% 16% 15% 12% 13%
x264 [info]: i8c dc,h,v,p: 40% 19% 19% 22%
x264 [info]: Weighted P-Frames: Y:5.5% UV:1.9%
x264 [info]: ref P L0: 50.7% 15.9% 14.9% 5.3% 4.3% 3.3% 3.1% 2.1% 0.4% 0.0%
x264 [info]: ref B L0: 84.5% 7.3% 3.7% 1.8% 1.4% 0.8% 0.5%
x264 [info]: ref B L1: 95.3% 4.7%
x264 [info]: kb/s:1687.18

x264 [total]: encoded 158304 frames, 7.07 fps, 1687.18 kb/s
ОбщееПолное имя : D:\Torrents\Asteriks i Obelix.Tetralogy.1999-2012.BDRip.x264.960x\Asteriks i Obelix protiv Cezarya.1999.BDRip.x264.960x.rip by Frost O.S.mp4Формат : MPEG-4Профиль формата : Base MediaИдентификатор кодека : isomРазмер файла : 1,34 ГбайтПродолжительность : 1 ч. 45 м.Режим общего битрейта : ПеременныйОбщий поток : 1823 Кбит/секНазвание фильма : Asteriks i Obelix protiv Cezarya 1999 BDRip x264 960x rip by Frost O SЖанр : ComedyТип содержимого : Short FilmДата кодирования : UTC 2016-05-13 18:15:48Дата пометки : UTC 2016-05-13 18:17:20Программа кодирования : MkvToMp4 version: 0.224 (x64)Обложка : YesПримечание : rip by Frost O.SLongDescription : В 50-м году до нашей эры римский император Юлий Цезарь покорил Галлию. Только жители одной маленькой деревеньки отказались платить налоги римлянам. Ведь у них есть волшебный напиток, с помощью которого неразлучные друзья Астерикс и Обеликс становятся супергероями, способными сразиться со всей Римской империей…

ВидеоИдентификатор : 1Формат : AVCФормат/Информация : Advanced Video CodecПрофиль формата : [email protected]Параметр CABAC формата : ДаПараметр ReFrames формата : 8 кадровИдентификатор кодека : avc1Идентификатор кодека/Информация : Advanced Video CodingПродолжительность : 1 ч. 45 м.Битрейт : 1688 Кбит/секМаксимальный битрейт : 7341 Кбит/секШирина : 960 пикселейВысота : 410 пикселейСоотношение сторон : 2,35:1Режим частоты кадров : ПостоянныйЧастота кадров : 25,000 кадров/секЦветовое пространство : YUVСубдискретизация насыщенности : 4:2:0Битовая глубина : 8 битТип развёртки : ПрогрессивнаяБит/(Пиксели*Кадры) : 0.172Размер потока : 1,24 Гбайт (93%)Библиотека кодирования : x264 core 130 r2273 b3065e6Настройки программы : cabac=1 / ref=8 / deblock=1:-2:-2 / analyse=0x3:0x113 / me=umh / subme=11 / psy=1 / psy_rd=1.20:0.05 / mixed_ref=1 / me_range=32 / chroma_me=1 / trellis=2 / 8x8dct=1 / cqm=0 / deadzone=21,11 / fast_pskip=0 / chroma_qp_offset=-3 / threads=3 / lookahead_threads=1 / sliced_threads=0 / nr=0 / decimate=0 / interlaced=0 / bluray_compat=0 / constrained_intra=0 / bframes=7 / b_pyramid=2 / b_adapt=2 / b_bias=0 / direct=3 / weightb=1 / open_gop=0 / weightp=2 / keyint=250 / keyint_min=25 / scenecut=40 / intra_refresh=0 / rc_lookahead=40 / rc=2pass / mbtree=1 / bitrate=1688 / ratetol=1.0 / qcomp=0.60 / qpmin=0 / qpmax=69 / qpstep=4 / cplxblur=20.0 / qblur=0.5 / ip_ratio=1.40 / aq=1:0.90Язык : EnglishДата кодирования : UTC 2016-05-13 18:15:48Дата пометки : UTC 2016-05-13 18:16:21Основные цвета : BT.709Характеристики трансфера : BT.709Коэффициенты матрицы : BT.709

АудиоИдентификатор : 2Формат : AACФормат/Информация : Advanced Audio CodecПрофиль формата : LCИдентификатор кодека : 40Продолжительность : 1 ч. 45 м.Вид битрейта : ПеременныйБитрейт : 128 Кбит/секМаксимальный битрейт : 135 Кбит/секКаналы : 2 каналаРасположение каналов : Front: L RЧастота : 48,0 КГцМетод сжатия : С потерямиРазмер потока : 96,6 Мбайт (7%)Заголовок : [Dub]Язык : RussianДата кодирования : UTC 2016-05-13 18:16:07Дата пометки : UTC 2016-05-13 18:16:21
Астерикс и Обеликс: Миссия Клеопатра / Astérix & Obélix: Mission Cléopâtre«Астерикс в стране мумий»

Год выпуска: 2001
Страна: Франция, Германия
Жанр: фэнтези, комедия, приключения, семейный
Продолжительность: 01:48:01
Перевод: Профессиональный (полное дублирование)
Cубтитры: нет
Режиссер: Ален Шаба / Alain Chabat
В ролях: Жерар Депардье / Gérard Depardieu (Obélix), Кристиан Клавье / Christian Clavier Astérix), Жамель Деббуз / Jamel Debbouze (Numérobis / Edifis), Моника Беллуччи / Monica Bellucci (Cléopâtre), Ален Шаба / Alain Chabat (Jules César (Julius Caesar)) и другие .
Описание: Великая Клеопатра заключила пари с римским императором Юлием Цезарем о том, что ее подданные смогут всего за три месяца построить грандиозный золотой дворец. Этой опасной чести был удостоен архитектор Нумеробис, которого — в случае неудачи — должны растерзать крокодилы.

Нумеробис вызывает на помощь своего старого друга — друида Панорамикса с зельем, дарующим сверхъестественную силу. А веселые, находчивые Астерикс и Обеликс сопровождают старца в Египет, чтобы помешать проискам Цезаря, не желающего проигрывать Клеопатре.
Релиз группы

Картина снималась в течение 126 дней.
Съемки фильма проходили на Мальте, в Марокко и во Франции.
После завершения съемок прекрасные костюмы, в которых снимались главные актеры, были проданы с аукциона милосердия для организации защиты детей.
Кадр, где пираты Красной Бороды цепляются за останки разрушенного судна, является пародией на известную картину Теодора Жерико (Theodore Gericault) «Плот «Медузы».

Качество: BDRip / рип с Blu-Ray Remux 1080p
Формат: MP4
Видео кодек: H.264
Аудио кодек: AAC
Видео: 960x410 AR:2.35 1620 kbps 24 fps
Аудио: [Russian] 2ch 48 kHz 128 kbps - [Dub]
avs [info]: 960x410p 1:1 @ 24/1 fps (cfr)
x264 [info]: using SAR=1/1
x264 [info]: using cpu capabilities: MMX2 SSE2Fast SSSE3 SSE4.2 LZCNT
x264 [info]: profile High, level 4.1

x264 [info]: frame I:1530 Avg QP:19.38 size: 74728
x264 [info]: frame P:37327 Avg QP:23.31 size: 17671
x264 [info]: frame B:116695 Avg QP:26.94 size: 4612
x264 [info]: consecutive B-frames: 3.4% 3.8% 9.8% 27.4% 18.4% 29.5% 4.1% 1.5% 1.2% 0.9%
x264 [info]: mb I I16..4: 9.2% 66.4% 24.4%
x264 [info]: mb P I16..4: 1.0% 5.8% 1.7% P16..4: 33.8% 36.7% 13.5% 0.0% 0.0% skip: 7.5%
x264 [info]: mb B I16..4: 0.1% 0.6% 0.1% B16..8: 37.1% 16.1% 2.9% direct: 3.5% skip:39.5% L0:43.9% L1:45.6% BI:10.5%
x264 [info]: 8x8 transform intra:68.4% inter:60.5%
x264 [info]: direct mvs spatial:95.5% temporal:4.5%
x264 [info]: coded y,uvDC,uvAC intra: 86.0% 86.5% 64.0% inter: 19.8% 20.1% 8.2%
x264 [info]: i16 v,h,dc,p: 30% 34% 3% 34%
x264 [info]: i8 v,h,dc,ddl,ddr,vr,hd,vl,hu: 8% 6% 4% 11% 16% 15% 15% 13% 12%
x264 [info]: i4 v,h,dc,ddl,ddr,vr,hd,vl,hu: 12% 10% 4% 9% 15% 14% 13% 11% 12%
x264 [info]: i8c dc,h,v,p: 37% 23% 19% 21%
x264 [info]: Weighted P-Frames: Y:6.2% UV:4.1%
x264 [info]: ref P L0: 49.7% 13.8% 15.3% 5.7% 4.4% 3.6% 3.0% 2.0% 2.0% 0.4% 0.0%
x264 [info]: ref B L0: 75.6% 10.2% 6.4% 2.6% 2.1% 1.8% 1.0% 0.4%
x264 [info]: ref B L1: 92.5% 7.5%
x264 [info]: kb/s:1619.52

x264 [total]: encoded 155552 frames, 6.71 fps, 1619.52 kb/s
ОбщееПолное имя : D:\Torrents\Asteriks i Obelix.Tetralogy.1999-2012.BDRip.x264.960x\Asteriks i Obelix.Missia Cleopatra.2001.BDRip.x264.960x.rip by Frost O.S.mp4Формат : MPEG-4Профиль формата : Base MediaИдентификатор кодека : isomРазмер файла : 1,32 ГбайтПродолжительность : 1 ч. 48 м.Режим общего битрейта : ПеременныйОбщий поток : 1755 Кбит/секНазвание фильма : Asteriks i Obelix Missia Cleopatra 2001 BDRip x264 960x rip by Frost O SЖанр : ComedyТип содержимого : Short FilmДата кодирования : UTC 2016-05-14 15:26:01Дата пометки : UTC 2016-05-14 15:27:17Программа кодирования : MkvToMp4 version: 0.224 (x64)Обложка : YesПримечание : rip by Frost O.SLongDescription : Великая Клеопатра заключила пари с римским императором Юлием Цезарем о том, что ее подданные смогут всего за три месяца построить грандиозный золотой дворец. Этой опасной чести был удостоен архитектор Нумеробис, которого — в случае неудачи — должны растерзать крокодилы. Нумеробис вызывает на помощь своего старого друга — друида Панорамикса с зельем, дарующим сверхъестественную силу. А веселые, находчивые Астерикс и Обеликс сопровождают старца в Египет, чтобы помешать проискам Цезаря, не желающего проигрывать Клеопатре.

ВидеоИдентификатор : 1Формат : AVCФормат/Информация : Advanced Video CodecПрофиль формата : [email protected]Параметр CABAC формата : ДаПараметр ReFrames формата : 9 кадровИдентификатор кодека : avc1Идентификатор кодека/Информация : Advanced Video CodingПродолжительность : 1 ч. 48 м.Битрейт : 1620 Кбит/секМаксимальный битрейт : 11,0 Мбит/секШирина : 960 пикселейВысота : 410 пикселейСоотношение сторон : 2,35:1Режим частоты кадров : ПостоянныйЧастота кадров : 24,000 кадра/секЦветовое пространство : YUVСубдискретизация насыщенности : 4:2:0Битовая глубина : 8 битТип развёртки : ПрогрессивнаяБит/(Пиксели*Кадры) : 0.171Размер потока : 1,22 Гбайт (92%)Библиотека кодирования : x264 core 130 r2273 b3065e6Настройки программы : cabac=1 / ref=9 / deblock=1:-2:-2 / analyse=0x3:0x113 / me=umh / subme=11 / psy=1 / psy_rd=1.20:0.05 / mixed_ref=1 / me_range=32 / chroma_me=1 / trellis=2 / 8x8dct=1 / cqm=0 / deadzone=21,11 / fast_pskip=0 / chroma_qp_offset=-3 / threads=3 / lookahead_threads=1 / sliced_threads=0 / nr=0 / decimate=0 / interlaced=0 / bluray_compat=0 / constrained_intra=0 / bframes=9 / b_pyramid=2 / b_adapt=2 / b_bias=0 / direct=3 / weightb=1 / open_gop=0 / weightp=2 / keyint=250 / keyint_min=24 / scenecut=40 / intra_refresh=0 / rc_lookahead=40 / rc=2pass / mbtree=1 / bitrate=1620 / ratetol=1.0 / qcomp=0.60 / qpmin=0 / qpmax=69 / qpstep=4 / cplxblur=20.0 / qblur=0.5 / ip_ratio=1.40 / aq=1:0.90Язык : EnglishДата кодирования : UTC 2016-05-14 15:26:01Дата пометки : UTC 2016-05-14 15:26:24Основные цвета : BT.709Характеристики трансфера : BT.709Коэффициенты матрицы : BT.709

АудиоИдентификатор : 2Формат : AACФормат/Информация : Advanced Audio CodecПрофиль формата : LCИдентификатор кодека : 40Продолжительность : 1 ч. 48 м.Вид битрейта : ПеременныйБитрейт : 128 Кбит/секМаксимальный битрейт : 135 Кбит/секКаналы : 2 каналаРасположение каналов : Front: L RЧастота : 48,0 КГцМетод сжатия : С потерямиРазмер потока : 98,9 Мбайт (7%)Заголовок : [Dub]Язык : RussianДата кодирования : UTC 2016-05-14 15:26:21Дата пометки : UTC 2016-05-14 15:26:24
Астерикс на Олимпийских играх / Astérix aux jeux olympiques

Год выпуска: 2008
Страна: Франция, Германия, Испания, Италия, Бельгия
Жанр: фэнтези, комедия, приключения, семейный
Продолжительность: 01:57:14
Перевод: Профессиональный (полное дублирование)
Cубтитры: нет
Режиссеры: Фредерик Форестье / Frédéric Forestier, Тома Лангманн / Thomas Langmann
В ролях: Жерар Депардье / Gérard Depardieu (Obélix), Кловис Корнийяк / Clovis Cornillac (Astérix),
Бенуа Пульворд / Benoît Poelvoorde (Brutus), Ален Делон / Alain Delon (Jules Cesar), Ванесса Эсслер / Vanessa Hessler (Princesse Irina), Франк Дюбоск / Franck Dubosc (Assurancetourix), Хосе Гарсия / José Garcia (Couverdepus),
Стефан Руссо / Stéphane Rousseau (Alafolix) и другие .
Описание: 50 лет до Рождества Христова. Вся Галлия под властью Римской Империи. Но не стоит огорчаться: одна деревня продолжает героическое сопротивление. Ведь ее жители уверены в собственной непобедимости.

Уже несколько месяцев сердце Полюбвикса бьется только ради греческой принцессы Ирины. Но, увы, он не единственный претендент на ее руку. Большая политика предназначила Ирину в жены Бруту, сыну Юлия Цезаря. Чтобы оттянуть нежеланный брак и дать шанс Полюбвиксу Ирина объявляет, что выйдет замуж за победителя Олимпийских Игр. Итак, Полюбвикс приступает к тренировкам под руководством тех, кто быстрее, выше, сильнее, и, разумеется, умнее всех — Астерикса и Обеликса. А хитрый Брут — к разработке коварного плана.
Релиз группы

Съемки начались 19 июня 2006 года и некоторое время проходили в лесу Фонтенбло, однако очень скоро съемочная группа оказалась на студии в Аликанте, где уже возвышался олимпийский стадион.

Качество: HDRip / рип с BDRemux 1080p
Формат: MP4
Видео кодек: H.264
Аудио кодек: AAC
Видео: 960x410 AR:2.35 1546 kbps 24 fps
Аудио: [Russian] 2ch 48 kHz 128 kbps - [Dub]
avs [info]: 960x410p 1:1 @ 24/1 fps (cfr)
x264 [info]: using SAR=1/1
x264 [info]: using cpu capabilities: MMX2 SSE2Fast SSSE3 SSE4.2 LZCNT
x264 [info]: profile High, level 4.1

x264 [info]: frame I:2005 Avg QP:20.58 size: 70980
x264 [info]: frame P:45413 Avg QP:25.05 size: 16249
x264 [info]: frame B:121398 Avg QP:29.45 size: 3940
x264 [info]: consecutive B-frames: 4.0% 6.2% 13.2% 40.8% 16.4% 15.9% 2.2% 0.7% 0.5%
x264 [info]: mb I I16..4: 9.2% 60.1% 30.7%
x264 [info]: mb P I16..4: 1.2% 5.7% 1.7% P16..4: 32.8% 33.9% 13.4% 0.0% 0.0% skip:11.2%
x264 [info]: mb B I16..4: 0.2% 0.8% 0.2% B16..8: 33.9% 14.1% 3.0% direct: 2.6% skip:45.3% L0:41.7% L1:45.0% BI:13.3%
x264 [info]: 8x8 transform intra:65.0% inter:59.5%
x264 [info]: direct mvs spatial:92.5% temporal:7.5%
x264 [info]: coded y,uvDC,uvAC intra: 79.7% 81.6% 57.3% inter: 16.8% 14.6% 7.3%
x264 [info]: i16 v,h,dc,p: 30% 31% 4% 35%
x264 [info]: i8 v,h,dc,ddl,ddr,vr,hd,vl,hu: 9% 7% 5% 10% 15% 15% 14% 13% 13%
x264 [info]: i4 v,h,dc,ddl,ddr,vr,hd,vl,hu: 13% 9% 5% 8% 14% 14% 13% 12% 12%
x264 [info]: i8c dc,h,v,p: 37% 24% 20% 19%
x264 [info]: Weighted P-Frames: Y:4.2% UV:2.5%
x264 [info]: ref P L0: 53.8% 15.5% 12.3% 5.5% 3.8% 3.9% 2.7% 2.2% 0.4% 0.0%
x264 [info]: ref B L0: 83.4% 6.9% 4.1% 1.8% 2.5% 0.9% 0.5%
x264 [info]: ref B L1: 94.1% 5.9%
x264 [info]: kb/s:1545.05

x264 [total]: encoded 168816 frames, 7.39 fps, 1545.05 kb/s
ОбщееПолное имя : D:\Torrents\Asteriks i Obelix.Tetralogy.1999-2012.BDRip.x264.960x\Asteriks na Olimpiyskih igrah.2008.BDRip.x264.960x.rip by Frost O.S.mp4Формат : MPEG-4Профиль формата : Base MediaИдентификатор кодека : isomРазмер файла : 1,38 ГбайтПродолжительность : 1 ч. 57 м.Режим общего битрейта : ПеременныйОбщий поток : 1681 Кбит/секНазвание фильма : Asteriks na Olimpiyskih igrah 2008 BDRip x264 960x rip by Frost O SЖанр : ComedyТип содержимого : Short FilmДата кодирования : UTC 2016-05-10 16:25:18Дата пометки : UTC 2016-05-10 16:26:56Программа кодирования : MkvToMp4 version: 0.224 (x64)Обложка : YesПримечание : rip by Frost O.SLongDescription : 50 лет до Рождества Христова. Вся Галлия под властью Римской Империи. Но не стоит огорчаться: одна деревня продолжает героическое сопротивление. Ведь ее жители уверены в собственной непобедимости. Уже несколько месяцев сердце Полюбвикса бьется только ради греческой принцессы Ирины. Но, увы, он не единственный претендент на ее руку. Большая политика предназначила Ирину в жены Бруту, сыну Юлия Цезаря. Чтобы оттянуть нежеланный брак и дать шанс Полюбвиксу Ирина объявляет, что выйдет замуж за победителя Олимпийских Игр. Итак, Полюбвикс приступает к тренировкам под руководством тех, кто быстрее, выше, сильнее, и, разумеется, умнее всех — Астерикса и Обеликса. А хитрый Брут — к разработке коварного плана.

ВидеоИдентификатор : 1Формат : AVCФормат/Информация : Advanced Video CodecПрофиль формата : [email protected]Параметр CABAC формата : ДаПараметр ReFrames формата : 8 кадровИдентификатор кодека : avc1Идентификатор кодека/Информация : Advanced Video CodingПродолжительность : 1 ч. 57 м.Битрейт : 1546 Кбит/секМаксимальный битрейт : 10,2 Мбит/секШирина : 960 пикселейВысота : 410 пикселейСоотношение сторон : 2,35:1Режим частоты кадров : ПостоянныйЧастота кадров : 24,000 кадра/секЦветовое пространство : YUVСубдискретизация насыщенности : 4:2:0Битовая глубина : 8 битТип развёртки : ПрогрессивнаяБит/(Пиксели*Кадры) : 0.164Размер потока : 1,27 Гбайт (92%)Библиотека кодирования : x264 core 130 r2273 b3065e6Настройки программы : cabac=1 / ref=8 / deblock=1:-2:-2 / analyse=0x3:0x113 / me=umh / subme=11 / psy=1 / psy_rd=1.20:0.05 / mixed_ref=1 / me_range=32 / chroma_me=1 / trellis=2 / 8x8dct=1 / cqm=0 / deadzone=21,11 / fast_pskip=0 / chroma_qp_offset=-3 / threads=3 / lookahead_threads=1 / sliced_threads=0 / nr=0 / decimate=0 / interlaced=0 / bluray_compat=0 / constrained_intra=0 / bframes=8 / b_pyramid=2 / b_adapt=2 / b_bias=0 / direct=3 / weightb=1 / open_gop=0 / weightp=2 / keyint=250 / keyint_min=24 / scenecut=40 / intra_refresh=0 / rc_lookahead=40 / rc=2pass / mbtree=1 / bitrate=1546 / ratetol=1.0 / qcomp=0.60 / qpmin=0 / qpmax=69 / qpstep=4 / cplxblur=20.0 / qblur=0.5 / ip_ratio=1.40 / aq=1:0.90Язык : EnglishДата кодирования : UTC 2016-05-10 16:25:18Дата пометки : UTC 2016-05-10 16:25:50Основные цвета : BT.709Характеристики трансфера : BT.709Коэффициенты матрицы : BT.709

АудиоИдентификатор : 2Формат : AACФормат/Информация : Advanced Audio CodecПрофиль формата : LCИдентификатор кодека : 40Продолжительность : 1 ч. 57 м.Вид битрейта : ПеременныйБитрейт : 128 Кбит/секМаксимальный битрейт : 135 Кбит/секКаналы : 2 каналаРасположение каналов : Front: L RЧастота : 48,0 КГцМетод сжатия : С потерямиРазмер потока : 107 Мбайт (8%)Заголовок : [Dub]Язык : RussianДата кодирования : UTC 2016-05-10 16:25:37Дата пометки : UTC 2016-05-10 16:25:50
Астерикс и Обеликс в Британии / Astérix & Obélix: Au service de sa Majesté

Год выпуска: 2012
Страна: Франция, Венгрия, Италия, Испания
Жанр: комедия, приключения, семейный
Продолжительность: 01:50:06
Перевод: Профессиональный (полное дублирование)
Cубтитры: нет
Режиссер: Лоран Тирар / Laurent Tirard
В ролях: Жерар Депардье / Gérard Depardieu (Obélix), Эдуард Баэр / Edouard Baer (Astérix), Гийом Гальенн / Guillaume Gallienne (в титрах: Guillaume Gallienne de la Comédie Française) (Jolitorax), Венсан Лакост / Vincent Lacoste (Goudurix), Валери Лемерсье / Valérie Lemercier (Miss Macintosh), Фабрис Лукини / Fabrice Luchini (Jules César), Катрин Денёв / Catherine Deneuve (Reine Cordelia) и другие .
Описание: Пятидесятый год до нашей эры. Юлий Цезарь рвется к новым завоеваниям. Во главе своих прославленных легионов он собирается захватить остров, который находится на самом краю света — таинственную страну, именуемую Британией.

Войско Цезаря одерживает быструю и безоговорочную победу. Ну… почти безоговорочную: одна крошечная деревушка продолжает яростно обороняться, однако силы на исходе, и королева бриттов Корделия отправляет своего самого надежного офицера Красовакса за подмогой в Галлию, где находится такая же маленькая деревушка, известная своим упорным сопротивлением римлянам.

Между тем, у Астерикса с Обеликсом и так забот хватает. Вождь поручил им сделать настоящего мужчину из Гадорикса, своего надоедливого племянника, недавно приехавшего из Лютеции, а выполнить это крайне непросто. Когда к галлам приезжает Красовакс, те снабжают его бочонком своего знаменитого волшебного зелья, а Астерикс и Обеликс отправляются вместе с ним в Британию. Гадорикса они тоже берут с собой, ведь путешествие — отличный способ пополнить образование молодого человека.

Но, к сожалению, все идет не так, как задумывалось…
Релиз группы

Норманны и Цезарь жили в разные эпохи.
Эдуард Баэр, сыгравший в фильме Астерикса, исполнял роль Отиса во второй части фильма.
Фильм основан на комиксах французского художника Альбера Юдерзо и писателя Рене Госинни — «Астерикс в Британии» и «Астерикс и нормандцы», выпущенных в 1966 году.
Жерар Депардье — единственный актёр, который появился во всех четырёх фильмах.
Когда Цезарь пытается завлечь Астерикса на свою сторону, он предупреждает, что «когда-нибудь они пойдут на вас войной длиною в сто лет». Речь идет о Столетней войне между Англией и Францией.


В эпизоде, где мисс Макинтош учит варвара, как правильно говорить, положение её рук меняется: при съёмке спереди они находятся сзади, а при съёмке с заднего плана — спереди.

Качество: BDRip / рип с BDRemux 1080p
Формат: MP4
Видео кодек: H.264
Аудио кодек: AAC
Видео: 960x408 AR:2.35 1403 kbps 23.976 fps
Аудио: [Russian] 2ch 48 kHz 128 kbps - [Dub]
avs [info]: 960x408p 1:1 @ 2997/125 fps (cfr)
x264 [info]: using SAR=1/1
x264 [info]: using cpu capabilities: MMX2 SSE2Fast SSSE3 SSE4.2 LZCNT
x264 [info]: profile High, level 4.1

x264 [info]: frame I:1863 Avg QP:19.10 size: 83349
x264 [info]: frame P:36739 Avg QP:23.32 size: 17369
x264 [info]: frame B:119798 Avg QP:27.76 size: 3046
x264 [info]: consecutive B-frames: 2.8% 3.9% 9.5% 26.3% 14.6% 37.5% 3.1% 1.1% 1.2%
x264 [info]: mb I I16..4: 6.6% 63.8% 29.6%
x264 [info]: mb P I16..4: 0.3% 4.1% 1.2% P16..4: 33.5% 33.4% 14.5% 0.0% 0.0% skip:12.9%
x264 [info]: mb B I16..4: 0.1% 0.5% 0.1% B16..8: 32.9% 11.4% 2.3% direct: 2.1% skip:50.6% L0:40.6% L1:47.8% BI:11.5%
x264 [info]: 8x8 transform intra:69.0% inter:55.4%
x264 [info]: direct mvs spatial:92.2% temporal:7.8%
x264 [info]: coded y,uvDC,uvAC intra: 87.8% 84.8% 65.2% inter: 14.4% 12.0% 7.6%
x264 [info]: i16 v,h,dc,p: 29% 22% 5% 44%
x264 [info]: i8 v,h,dc,ddl,ddr,vr,hd,vl,hu: 12% 7% 4% 10% 14% 14% 14% 12% 13%
x264 [info]: i4 v,h,dc,ddl,ddr,vr,hd,vl,hu: 13% 8% 5% 9% 14% 14% 13% 11% 13%
x264 [info]: i8c dc,h,v,p: 41% 23% 19% 18%
x264 [info]: Weighted P-Frames: Y:1.9% UV:0.6%
x264 [info]: ref P L0: 54.6% 15.1% 13.2% 5.8% 3.9% 3.9% 3.2% 0.3% 0.0%
x264 [info]: ref B L0: 86.0% 6.9% 4.1% 1.6% 1.0% 0.4%
x264 [info]: ref B L1: 93.8% 6.2%
x264 [info]: kb/s:1402.58

x264 [total]: encoded 158400 frames, 8.22 fps, 1402.59 kb/s
ОбщееПолное имя : D:\Torrents\Asteriks i Obelix.Tetralogy.1999-2012.BDRip.x264.960x\Asteriks i Obelix v Britanii.2012.BDRip.x264.960x.rip by Frost O.S.mp4Формат : MPEG-4Профиль формата : Base MediaИдентификатор кодека : isomРазмер файла : 1,18 ГбайтПродолжительность : 1 ч. 50 м.Режим общего битрейта : ПеременныйОбщий поток : 1539 Кбит/секНазвание фильма : Asteriks i Obelix v Britanii 2012 BDRip x264 960x rip by Frost O SЖанр : ComedyТип содержимого : Short FilmДата кодирования : UTC 2016-05-11 13:07:03Дата пометки : UTC 2016-05-11 13:08:12Программа кодирования : MkvToMp4 version: 0.224 (x64)Обложка : YesПримечание : rip by Frost O.SLongDescription : Пятидесятый год до нашей эры. Юлий Цезарь рвется к новым завоеваниям. Во главе своих прославленных легионов он собирается захватить остров, который находится на самом краю света — таинственную страну, именуемую Британией. Войско Цезаря одерживает быструю и безоговорочную победу. Ну… почти безоговорочную: одна крошечная деревушка продолжает яростно обороняться, однако силы на исходе, и королева бриттов Корделия отправляет своего самого надежного офицера Красовакса за подмогой в Галлию, где находится такая же маленькая деревушка, известная своим упорным сопротивлением римлянам. Между тем, у Астерикса с Обеликсом и так забот хватает. Вождь поручил им сделать настоящего мужчину из Гадорикса, своего надоедливого племянника, недавно приехавшего из Лютеции, а выполнить это крайне непросто. Когда к галлам приезжает Красовакс, те снабжают его бочонком своего знаменитого волшебного зелья, а Астерикс и Обеликс отправляются вместе с ним в Британию. Гадорикса они тоже берут с собой, ведь путешествие — отличный способ пополнить образование молодого человека. Но, к сожалению, все идет не так, как задумывалось…

ВидеоИдентификатор : 1Формат : AVCФормат/Информация : Advanced Video CodecПрофиль формата : [email protected]Параметр CABAC формата : ДаПараметр ReFrames формата : 7 кадровИдентификатор кодека : avc1Идентификатор кодека/Информация : Advanced Video CodingПродолжительность : 1 ч. 50 м.Битрейт : 1403 Кбит/секМаксимальный битрейт : 7908 Кбит/секШирина : 960 пикселейВысота : 408 пикселейСоотношение сторон : 2,35:1Режим частоты кадров : ПостоянныйЧастота кадров : 23,976 кадра/секЦветовое пространство : YUVСубдискретизация насыщенности : 4:2:0Битовая глубина : 8 битТип развёртки : ПрогрессивнаяБит/(Пиксели*Кадры) : 0.149Размер потока : 1,08 Гбайт (91%)Библиотека кодирования : x264 core 130 r2273 b3065e6Настройки программы : cabac=1 / ref=7 / deblock=1:-2:-2 / analyse=0x3:0x113 / me=umh / subme=11 / psy=1 / psy_rd=1.20:0.05 / mixed_ref=1 / me_range=32 / chroma_me=1 / trellis=2 / 8x8dct=1 / cqm=0 / deadzone=21,11 / fast_pskip=0 / chroma_qp_offset=-3 / threads=3 / lookahead_threads=1 / sliced_threads=0 / nr=0 / decimate=0 / interlaced=0 / bluray_compat=0 / constrained_intra=0 / bframes=8 / b_pyramid=2 / b_adapt=2 / b_bias=0 / direct=3 / weightb=1 / open_gop=0 / weightp=2 / keyint=250 / keyint_min=23 / scenecut=40 / intra_refresh=0 / rc_lookahead=40 / rc=2pass / mbtree=1 / bitrate=1403 / ratetol=1.0 / qcomp=0.60 / qpmin=0 / qpmax=69 / qpstep=4 / cplxblur=20.0 / qblur=0.5 / ip_ratio=1.40 / aq=1:0.90Язык : EnglishДата кодирования : UTC 2016-05-11 13:07:03Дата пометки : UTC 2016-05-11 13:07:27Основные цвета : BT.709Характеристики трансфера : BT.709Коэффициенты матрицы : BT.709

АудиоИдентификатор : 2Формат : AACФормат/Информация : Advanced Audio CodecПрофиль формата : LCИдентификатор кодека : 40Продолжительность : 1 ч. 50 м.Вид битрейта : ПеременныйБитрейт : 128 Кбит/секМаксимальный битрейт : 132 Кбит/секКаналы : 2 каналаРасположение каналов : Front: L RЧастота : 48,0 КГцМетод сжатия : С потерямиРазмер потока : 101 Мбайт (8%)Заголовок : [Dub]Язык : RussianДата кодирования : UTC 2016-05-11 13:07:24Дата пометки : UTC 2016-05-11 13:07:27
Отдельно хочу выразить благодарность за помощь в оформлении Контарику

Трекер:  [ 14-Май-2016 16:30 ]

  

Скачать .torrent

Размер .torrent файла 27 KB


Размер: 5.23 GB
Хэш (hash) релиза: c22dd59c5be82d41a653bbad90424b075aac015f

Еще никто не оставлял запись к записи скачать торрент [VIDEO] Астерикс и Обеликс: Тетралогия Astérix & Obélix: Tetralogy . Будь первым!

!Обратная связь