Slow Starter 35 | Anime All Day Free | Télécharger

Скачать через торрент [VIDEO] СуперБобровы бесплатно русская версия torrent активатор

Статистика раздачи
Размер:  942 MB   |    Зарегистрирован:  2 года 2 месяца   |    .torrent скачан:  22 раза   |   
Раздают:  1  
   
загрузка...
 
Автор Сообщение

Galfimbul

avatar Galfimbul


СуперБобровы
«Вместе мы сила»

Год выпуска: 2016
Страна: Россия
Жанр: комедия, семейный
Продолжительность: 01:35:12
Перевод: не требуется
Cубтитры: нет
Режиссер: Дмитрий Дьяченко
В ролях: Павел Деревянко, Оксана Акиньшина, Роман Мадянов, Владимир Толоконников, Ирина Пегова, Даниил Вахрушев, Софья Мицкевич, Виталий Кищенко, Алексей Хардиков, Андрей Ребенков, Александр Карпиловский, Эльберд Агаев, Анжела Белянская, Павел Ворожцов, Максим Заусалин, Максим Емельянов, Юрий Горин, Александр Егерев, Дмитрий Межевич, Сергей Афанасьев, Владимир Тимофеев, Александр Обласов, Алексей Матошин, Сергей Волобуев, Валерий Панков, Анастасия Попова (II), Анжела Кольцова, Елена Нестерова, Ольга Ергина, Мария Лаврова
Описание: Вместо десерта на ужин семейство Бобровых получило… метеорит. Настоящий, большой, из космоса. Благодаря ему Бобровы вдруг приобретают немыслимые сверхспособности. Дед становится бессмертным, а отец теперь может телепортироваться. Сын начинает понимать собачий язык, а его сёстры получают суперсилу, возможность летать и быть невидимой. Единственное ограничение — способности действуют только когда вся семейка в сборе.

Короче, у заурядной, среднестатистической ячейки общества появляется шанс превратиться в отряд настоящих супергероев. Вот только вместо того, чтобы спасать мир, они решают ограбить ближайший банк…
Релиз группы
Качество: WEB-DLRip / рип с WEB-DL 720p
Формат: MP4
Видео кодек: H.264
Аудио кодек: AAC
Видео: 960x402 AR:2.40 1247 kbps 24 fps
Аудио: 2ch 48 kHz 128 kbps
avs [info]: 960x402p 1:1 @ 24/1 fps (cfr)
x264 [info]: using SAR=1/1
x264 [info]: using cpu capabilities: MMX2 SSE2Fast SSSE3 SSE4.2 LZCNT
x264 [info]: profile High, level 4.1

x264 [info]: frame I:2070 Avg QP:18.40 size: 46235
x264 [info]: frame P:39134 Avg QP:22.43 size: 12586
x264 [info]: frame B:95884 Avg QP:25.89 size: 3147
x264 [info]: consecutive B-frames: 4.2% 8.9% 8.8% 63.9% 6.1% 5.7% 1.3% 1.1%
x264 [info]: mb I I16..4: 11.0% 63.0% 26.0%
x264 [info]: mb P I16..4: 1.5% 7.7% 2.2% P16..4: 34.4% 34.9% 9.2% 0.0% 0.0% skip:10.1%
x264 [info]: mb B I16..4: 0.3% 1.1% 0.3% B16..8: 35.9% 13.2% 1.6% direct: 2.4% skip:45.2% L0:36.9% L1:52.4% BI:10.7%
x264 [info]: 8x8 transform intra:66.1% inter:61.8%
x264 [info]: direct mvs spatial:97.2% temporal:2.8%
x264 [info]: coded y,uvDC,uvAC intra: 73.8% 78.4% 44.6% inter: 13.6% 14.8% 6.2%
x264 [info]: i16 v,h,dc,p: 28% 14% 3% 55%
x264 [info]: i8 v,h,dc,ddl,ddr,vr,hd,vl,hu: 17% 8% 3% 8% 12% 13% 13% 12% 13%
x264 [info]: i4 v,h,dc,ddl,ddr,vr,hd,vl,hu: 26% 9% 5% 7% 11% 11% 11% 9% 11%
x264 [info]: i8c dc,h,v,p: 27% 26% 25% 21%
x264 [info]: Weighted P-Frames: Y:1.3% UV:0.5%
x264 [info]: ref P L0: 64.2% 11.7% 13.1% 3.9% 2.8% 2.2% 2.0% 0.2% 0.0%
x264 [info]: ref B L0: 88.5% 6.3% 2.9% 1.2% 0.7% 0.3%
x264 [info]: ref B L1: 95.9% 4.1%
x264 [info]: kb/s:1246.46

x264 [total]: encoded 137088 frames, 9.46 fps, 1246.46 kb/s

ОбщееПолное имя : D:\Torrents\SuperBobrovy.2016.WEB-DLRip.x264.960x.rip by Frost O.S.mp4Формат : MPEG-4Профиль формата : Base MediaИдентификатор кодека : isomРазмер файла : 942 МбайтПродолжительность : 1 ч. 35 м.Режим общего битрейта : ПеременныйОбщий поток : 1383 Кбит/секНазвание фильма : SuperBobrovy 2016 WEB-DLRip x264 960x rip by Frost O SЖанр : AnimationТип содержимого : Short FilmДата кодирования : UTC 2016-05-08 18:31:23Дата пометки : UTC 2016-05-08 18:32:30Программа кодирования : MkvToMp4 version: 0.224 (x64)Обложка : YesПримечание : rip by Frost O.SLongDescription : Вместо десерта на ужин семейство Бобровых получило… метеорит. Настоящий, большой, из космоса. Благодаря ему Бобровы вдруг приобретают немыслимые сверхспособности. Дед становится бессмертным, а отец теперь может телепортироваться. Сын начинает понимать собачий язык, а его сёстры получают суперсилу, возможность летать и быть невидимой. Единственное ограничение — способности действуют только когда вся семейка в сборе. Короче, у заурядной, среднестатистической ячейки общества появляется шанс превратиться в отряд настоящих супергероев. Вот только вместо того, чтобы спасать мир, они решают ограбить ближайший банк…

ВидеоИдентификатор : 1Формат : AVCФормат/Информация : Advanced Video CodecПрофиль формата : [email protected]Параметр CABAC формата : ДаПараметр ReFrames формата : 7 кадровИдентификатор кодека : avc1Идентификатор кодека/Информация : Advanced Video CodingПродолжительность : 1 ч. 35 м.Битрейт : 1247 Кбит/секМаксимальный битрейт : 7487 Кбит/секШирина : 960 пикселейВысота : 402 пикселяСоотношение сторон : 2,40:1Режим частоты кадров : ПостоянныйЧастота кадров : 24,000 кадра/секЦветовое пространство : YUVСубдискретизация насыщенности : 4:2:0Битовая глубина : 8 битТип развёртки : ПрогрессивнаяБит/(Пиксели*Кадры) : 0.135Размер потока : 849 Мбайт (90%)Библиотека кодирования : x264 core 130 r2273 b3065e6Настройки программы : cabac=1 / ref=7 / deblock=1:-2:-2 / analyse=0x3:0x113 / me=umh / subme=11 / psy=1 / psy_rd=1.10:0.05 / mixed_ref=1 / me_range=32 / chroma_me=1 / trellis=2 / 8x8dct=1 / cqm=0 / deadzone=21,11 / fast_pskip=0 / chroma_qp_offset=-3 / threads=3 / lookahead_threads=1 / sliced_threads=0 / nr=0 / decimate=0 / interlaced=0 / bluray_compat=0 / constrained_intra=0 / bframes=7 / b_pyramid=2 / b_adapt=2 / b_bias=0 / direct=3 / weightb=1 / open_gop=0 / weightp=2 / keyint=250 / keyint_min=24 / scenecut=40 / intra_refresh=0 / rc_lookahead=40 / rc=2pass / mbtree=1 / bitrate=1247 / ratetol=1.0 / qcomp=0.60 / qpmin=0 / qpmax=69 / qpstep=4 / cplxblur=20.0 / qblur=0.5 / ip_ratio=1.40 / aq=1:0.70Язык : EnglishДата кодирования : UTC 2016-05-08 18:31:23Дата пометки : UTC 2016-05-08 18:31:53Основные цвета : BT.709Характеристики трансфера : BT.709Коэффициенты матрицы : BT.709

АудиоИдентификатор : 2Формат : AACФормат/Информация : Advanced Audio CodecПрофиль формата : LCИдентификатор кодека : 40Продолжительность : 1 ч. 35 м.Вид битрейта : ПеременныйБитрейт : 128 Кбит/секМаксимальный битрейт : 133 Кбит/секКаналы : 2 каналаРасположение каналов : Front: L RЧастота : 48,0 КГцМетод сжатия : С потерямиРазмер потока : 87,2 Мбайт (9%)Язык : RussianДата кодирования : UTC 2016-05-08 18:31:37Дата пометки : UTC 2016-05-08 18:31:53


Трекер:  [ 09-Май-2016 10:30 ]

  

Скачать .torrent

Размер .torrent файла 19 KB


Размер: 942 MB
Хэш (hash) релиза: 90a769bf58dff2995d332942440c64aeaadd10ee

Торренты, похожие на [VIDEO] СуперБобровы скачать торрент

Форум Название Автор Размер S L Добавлен
Видео (Фильмы/Клипы) ·· [VIDEO] СуперБобровы (Дмитрий Дьяченко) [2016, комедия, семейный, WEB-DLRip] [MP4, 480x] Galfimbul 439628528419 MB 0 0 1462783429

11:43

9-Май-16

Еще никто не оставлял запись к записи скачать торрент [VIDEO] СуперБобровы . Будь первым!

!Обратная связь