Download PDF | Industries | The First 90 Days, Updated and Expanded

Скачать через торрент [VIDEO] СуперБобровы бесплатно русская версия torrent активатор

Статистика раздачи
Размер:  419 MB   |    Зарегистрирован:  2 года 2 месяца   |    .torrent скачан:  16 раз   |   
Раздают:  1  
   
загрузка...
 
Автор Сообщение

Galfimbul

avatar Galfimbul


СуперБобровы
«Вместе мы сила»

Год выпуска: 2016
Страна: Россия
Жанр: комедия, семейный
Продолжительность: 01:35:12
Перевод: не требуется
Cубтитры: нет
Режиссер: Дмитрий Дьяченко
В ролях: Павел Деревянко, Оксана Акиньшина, Роман Мадянов, Владимир Толоконников, Ирина Пегова, Даниил Вахрушев, Софья Мицкевич, Виталий Кищенко, Алексей Хардиков, Андрей Ребенков, Александр Карпиловский, Эльберд Агаев, Анжела Белянская, Павел Ворожцов, Максим Заусалин, Максим Емельянов, Юрий Горин, Александр Егерев, Дмитрий Межевич, Сергей Афанасьев, Владимир Тимофеев, Александр Обласов, Алексей Матошин, Сергей Волобуев, Валерий Панков, Анастасия Попова (II), Анжела Кольцова, Елена Нестерова, Ольга Ергина, Мария Лаврова
Описание: Вместо десерта на ужин семейство Бобровых получило… метеорит. Настоящий, большой, из космоса. Благодаря ему Бобровы вдруг приобретают немыслимые сверхспособности. Дед становится бессмертным, а отец теперь может телепортироваться. Сын начинает понимать собачий язык, а его сёстры получают суперсилу, возможность летать и быть невидимой. Единственное ограничение — способности действуют только когда вся семейка в сборе.

Короче, у заурядной, среднестатистической ячейки общества появляется шанс превратиться в отряд настоящих супергероев. Вот только вместо того, чтобы спасать мир, они решают ограбить ближайший банк…
Релиз группы
Качество: WEB-DLRip / рип с WEB-DL 720p
Формат: MP4
Видео кодек: XviD
Аудио кодек: AAC
Видео: 480x200 AR:2.40 480 kbps 24 fps
Аудио: 2ch 48 kHz 128 kbps
ОбщееПолное имя : D:\Torrents\SuperBobrovy.2016.WEB-DLRip.XviD.480x.rip by Frost O.S.mp4Формат : MPEG-4Профиль формата : Base MediaИдентификатор кодека : isomРазмер файла : 419 МбайтПродолжительность : 1 ч. 35 м.Режим общего битрейта : ПеременныйОбщий поток : 616 Кбит/секНазвание фильма : SuperBobrovy 2016 WEB-DLRip XviD 480x rip by Frost O SЖанр : ComedyТип содержимого : Short FilmДата кодирования : UTC 2016-05-09 08:22:09Дата пометки : UTC 2016-05-09 08:22:31Программа кодирования : MkvToMp4 version: 0.224 (x64)Обложка : YesПримечание : rip by Frost O.SLongDescription : Вместо десерта на ужин семейство Бобровых получило… метеорит. Настоящий, большой, из космоса. Благодаря ему Бобровы вдруг приобретают немыслимые сверхспособности. Дед становится бессмертным, а отец теперь может телепортироваться. Сын начинает понимать собачий язык, а его сёстры получают суперсилу, возможность летать и быть невидимой. Единственное ограничение — способности действуют только когда вся семейка в сборе. Короче, у заурядной, среднестатистической ячейки общества появляется шанс превратиться в отряд настоящих супергероев. Вот только вместо того, чтобы спасать мир, они решают ограбить ближайший банк…

ВидеоИдентификатор : 1Формат : MPEG-4 VisualПрофиль формата : Advanced [email protected]Параметр BVOP формата : ДаПараметр QPel формата : НетПараметр GMC формата : Без точки переходаПараметр матрицы формата : ВыборочнаяИдентификатор кодека : 20Продолжительность : 1 ч. 35 м.Вид битрейта : ПеременныйБитрейт : 480 Кбит/секМаксимальный битрейт : 2608 Кбит/секШирина : 480 пикселейВысота : 200 пикселейСоотношение сторон : 2,40:1Режим частоты кадров : ПостоянныйЧастота кадров : 24,000 кадра/секЦветовое пространство : YUVСубдискретизация насыщенности : 4:2:0Битовая глубина : 8 битТип развёртки : ПрогрессивнаяМетод сжатия : С потерямиБит/(Пиксели*Кадры) : 0.208Размер потока : 327 Мбайт (78%)Библиотека кодирования : XviD 1.2.1 (UTC 2008-12-04)Язык : EnglishДата пометки : UTC 2016-05-09 08:22:17

АудиоИдентификатор : 2Формат : AACФормат/Информация : Advanced Audio CodecПрофиль формата : LCИдентификатор кодека : 40Продолжительность : 1 ч. 35 м.Вид битрейта : ПеременныйБитрейт : 128 Кбит/секМаксимальный битрейт : 133 Кбит/секКаналы : 2 каналаРасположение каналов : Front: L RЧастота : 48,0 КГцМетод сжатия : С потерямиРазмер потока : 87,2 Мбайт (21%)Язык : RussianДата кодирования : UTC 2016-05-09 08:22:15Дата пометки : UTC 2016-05-09 08:22:17


Трекер:  [ 09-Май-2016 10:30 ]

  

Скачать .torrent

Размер .torrent файла 17 KB


Размер: 419 MB
Хэш (hash) релиза: 0c326f6174fdb8b269a1171c974c473a0ebfb4ed

Торренты, похожие на [VIDEO] СуперБобровы скачать торрент

Форум Название Автор Размер S L Добавлен
Видео (Фильмы/Клипы) ·· [VIDEO] СуперБобровы (Дмитрий Дьяченко) [2016, комедия, семейный, WEB-DLRip] [MP4, 960x] Galfimbul 987275080942 MB 0 0 1462783434

11:43

9-Май-16

Еще никто не оставлял запись к записи скачать торрент [VIDEO] СуперБобровы . Будь первым!

!Обратная связь