تحميل XAPK | Patrick O#39Brien Demsey | Nikohl Boosheri

Скачать через торрент [MULT] Крякнутые каникулы бесплатно русская версия torrent активатор

Статистика раздачи
Размер:  1.07 GB   |    Зарегистрирован:  2 года 2 месяца   |    .torrent скачан:  13 раз   |   
Раздают:  1  
   
загрузка...
 
Автор Сообщение

Galfimbul

avatar Galfimbul


Крякнутые каникулы
«They'll quack you up»

Год выпуска: 2016
Страна: Россия
Жанр: мультфильм, комедия, приключения, семейный
Продолжительность: 01:21:47
Перевод: не требуется
Cубтитры: нет
Режиссер: Виктор Лакисов
Роли озвучивали: Никита Пресняков, Владимир Пресняков мл., Эвелина Блёданс, Полина Максимова, Александр Головин, Всеволод Кузнецов, Борис Токарев, Станислав Стрелков, Елена Шульман, Михаил Лукашов
Описание: Перелётные кряквы из России, решившие провести свой отдых на Гавайях, сбиваются с пути и приземляются на китайский остров, на котором живут утки-мандаринки. Между двумя стаями возникает много смешных и курьёзных ситуаций. Пока отцы дерутся и спорят, Ник, сын императора мандаринок и Ариша, дочь командира русских крякв, знакомятся и становятся друзьями. Дети должны объединить мандаринок и крякв и победить Ведьму Марго, которая хочет погубить солнце.

В производстве проекта, основной объём работы выполнила российская анимационная студия, расположенная в Москве, при этом были задействованы мощности студий в Канаде, Испании, Перу и Эстонии.
Рассчитанный на международный прокат мультфильм изначально был озвучен на английском языке.
«Крякнутые Каникулы», стал первым российским проектом получившим финансовую поддержку со стороны КНР. Китайский холдинг Star Alliance Media инвестировал в производство значительную часть бюджета картины, а так же заявил о выходе мультфильма в широкий прокат в Китае на более чем пяти тысячах экранах в 2016 году.
Записью шумов и финальным сведением звука занималась американская студия Juniper Post, работавшая над фильмами «Престиж» (2006), «Малышка на миллион» (2004), «Фарго» (1995), «Мёрзлая земля» (2011).

Релиз группы
Качество: WEB-DLRip / рип с WEB-DL 1080p
Формат: MP4
Видео кодек: H.264
Аудио кодек: AAC
Видео: 960x532 AR:16/9 1740 kbps 24 fps
Аудио: 2ch 48 kHz 128 kbps
avs [info]: 960x532p 1:1 @ 24/1 fps (cfr)
x264 [info]: using SAR=1/1
x264 [info]: using cpu capabilities: MMX2 SSE2Fast SSSE3 SSE4.2 LZCNT
x264 [info]: profile High, level 4.1

x264 [info]: frame I:1381 Avg QP:20.32 size: 86215
x264 [info]: frame P:33307 Avg QP:25.39 size: 17207
x264 [info]: frame B:83080 Avg QP:29.35 size: 4512
x264 [info]: consecutive B-frames: 4.1% 7.3% 8.1% 65.3% 6.5% 7.4% 0.7% 0.7%
x264 [info]: mb I I16..4: 6.1% 52.8% 41.2%
x264 [info]: mb P I16..4: 1.5% 8.0% 3.1% P16..4: 34.0% 31.4% 11.1% 0.0% 0.0% skip:10.9%
x264 [info]: mb B I16..4: 0.2% 1.6% 0.6% B16..8: 30.5% 11.4% 2.6% direct: 2.2% skip:50.9% L0:41.6% L1:49.3% BI: 9.1%
x264 [info]: 8x8 transform intra:61.8% inter:54.6%
x264 [info]: direct mvs spatial:90.0% temporal:10.0%
x264 [info]: coded y,uvDC,uvAC intra: 77.2% 87.6% 58.5% inter: 13.6% 14.4% 6.3%
x264 [info]: i16 v,h,dc,p: 11% 18% 5% 66%
x264 [info]: i8 v,h,dc,ddl,ddr,vr,hd,vl,hu: 10% 8% 4% 10% 14% 13% 15% 12% 16%
x264 [info]: i4 v,h,dc,ddl,ddr,vr,hd,vl,hu: 18% 8% 6% 8% 12% 11% 12% 10% 14%
x264 [info]: i8c dc,h,v,p: 37% 24% 19% 20%
x264 [info]: Weighted P-Frames: Y:2.4% UV:1.5%
x264 [info]: ref P L0: 61.1% 12.6% 11.8% 5.4% 3.3% 3.0% 2.5% 0.3% 0.0%
x264 [info]: ref B L0: 84.5% 7.2% 4.6% 1.9% 1.2% 0.5%
x264 [info]: ref B L1: 95.3% 4.7%
x264 [info]: kb/s:1739.64

x264 [total]: encoded 117768 frames, 6.74 fps, 1739.64 kb/s

ОбщееПолное имя : D:\Torrents\Quackerz.2016.WEB-DLRip.x264.960x.rip by Frost O.S.mp4Формат : MPEG-4Профиль формата : Base MediaИдентификатор кодека : isomРазмер файла : 1,07 ГбайтПродолжительность : 1 ч. 21 м.Режим общего битрейта : ПеременныйОбщий поток : 1876 Кбит/секНазвание фильма : Quackerz 2016 WEB-DLRip x264 960x rip by Frost O SЖанр : AnimationТип содержимого : Short FilmДата кодирования : UTC 2016-05-08 18:20:35Дата пометки : UTC 2016-05-08 18:21:53Программа кодирования : MkvToMp4 version: 0.224 (x64)Обложка : YesПримечание : rip by Frost O.SLongDescription : Перелётные кряквы из России, решившие провести свой отдых на Гавайях, сбиваются с пути и приземляются на китайский остров, на котором живут утки-мандаринки. Между двумя стаями возникает много смешных и курьёзных ситуаций. Пока отцы дерутся и спорят, Ник, сын императора мандаринок и Ариша, дочь командира русских крякв, знакомятся и становятся друзьями. Дети должны объединить мандаринок и крякв и победить Ведьму Марго, которая хочет погубить солнце.

ВидеоИдентификатор : 1Формат : AVCФормат/Информация : Advanced Video CodecПрофиль формата : [email protected]Параметр CABAC формата : ДаПараметр ReFrames формата : 7 кадровИдентификатор кодека : avc1Идентификатор кодека/Информация : Advanced Video CodingПродолжительность : 1 ч. 21 м.Битрейт : 1740 Кбит/секМаксимальный битрейт : 7864 Кбит/секШирина : 960 пикселейВысота : 532 пикселяСоотношение сторон : 16:9Режим частоты кадров : ПостоянныйЧастота кадров : 24,000 кадра/секЦветовое пространство : YUVСубдискретизация насыщенности : 4:2:0Битовая глубина : 8 битТип развёртки : ПрогрессивнаяБит/(Пиксели*Кадры) : 0.142Размер потока : 1018 Мбайт (93%)Библиотека кодирования : x264 core 130 r2273 b3065e6Настройки программы : cabac=1 / ref=7 / deblock=1:-2:-2 / analyse=0x3:0x113 / me=umh / subme=11 / psy=1 / psy_rd=0.80:0.00 / mixed_ref=1 / me_range=32 / chroma_me=1 / trellis=2 / 8x8dct=1 / cqm=0 / deadzone=21,11 / fast_pskip=0 / chroma_qp_offset=-2 / threads=3 / lookahead_threads=1 / sliced_threads=0 / nr=0 / decimate=0 / interlaced=0 / bluray_compat=0 / constrained_intra=0 / bframes=7 / b_pyramid=2 / b_adapt=2 / b_bias=0 / direct=3 / weightb=1 / open_gop=0 / weightp=2 / keyint=250 / keyint_min=24 / scenecut=40 / intra_refresh=0 / rc_lookahead=40 / rc=2pass / mbtree=1 / bitrate=1740 / ratetol=1.0 / qcomp=0.60 / qpmin=0 / qpmax=69 / qpstep=4 / cplxblur=20.0 / qblur=0.5 / ip_ratio=1.40 / aq=1:1.10Язык : EnglishДата кодирования : UTC 2016-05-08 18:20:35Дата пометки : UTC 2016-05-08 18:20:52Основные цвета : BT.709Характеристики трансфера : BT.709Коэффициенты матрицы : BT.709

АудиоИдентификатор : 2Формат : AACФормат/Информация : Advanced Audio CodecПрофиль формата : LCИдентификатор кодека : 40Продолжительность : 1 ч. 21 м.Вид битрейта : ПеременныйБитрейт : 128 Кбит/секМаксимальный битрейт : 132 Кбит/секКаналы : 2 каналаРасположение каналов : Front: L RЧастота : 48,0 КГцМетод сжатия : С потерямиРазмер потока : 74,9 Мбайт (7%)Язык : RussianДата кодирования : UTC 2016-05-08 18:20:50Дата пометки : UTC 2016-05-08 18:20:52


Трекер:  [ 09-Май-2016 10:30 ]

  

Скачать .torrent

Размер .torrent файла 11 KB


Размер: 1.07 GB
Хэш (hash) релиза: 917f1ccc16327f17b2ef2fad193fe109bf13f7fe

Торренты, похожие на [MULT] Крякнутые каникулы скачать торрент

Форум Название Автор Размер S L Добавлен
Видео (Фильмы/Клипы) ·· [MULT] Крякнутые каникулы (Виктор Лакисов) [2016, мультфильм, комедия, приключения, семейный, WEB-DLRip] [MP4, 480x] Galfimbul 389343730371 MB 0 0 1462783417

11:43

9-Май-16

Еще никто не оставлял запись к записи скачать торрент [MULT] Крякнутые каникулы . Будь первым!

!Обратная связь