Flint Hammerhead | Watch movie | La mucca viola

Скачать через торрент [MULT] Крякнутые каникулы бесплатно русская версия torrent активатор

Статистика раздачи
Размер:  371 MB   |    Зарегистрирован:  2 года 2 месяца   |    .torrent скачан:  12 раз   |   
Раздают:  1  
   
загрузка...
 
Автор Сообщение

Galfimbul

avatar Galfimbul


Крякнутые каникулы
«They'll quack you up»

Год выпуска: 2016
Страна: Россия
Жанр: мультфильм, комедия, приключения, семейный
Продолжительность: 01:21:47
Перевод: не требуется
Cубтитры: нет
Режиссер: Виктор Лакисов
Роли озвучивали: Никита Пресняков, Владимир Пресняков мл., Эвелина Блёданс, Полина Максимова, Александр Головин, Всеволод Кузнецов, Борис Токарев, Станислав Стрелков, Елена Шульман, Михаил Лукашов
Описание: Перелётные кряквы из России, решившие провести свой отдых на Гавайях, сбиваются с пути и приземляются на китайский остров, на котором живут утки-мандаринки. Между двумя стаями возникает много смешных и курьёзных ситуаций. Пока отцы дерутся и спорят, Ник, сын императора мандаринок и Ариша, дочь командира русских крякв, знакомятся и становятся друзьями. Дети должны объединить мандаринок и крякв и победить Ведьму Марго, которая хочет погубить солнце.

В производстве проекта, основной объём работы выполнила российская анимационная студия, расположенная в Москве, при этом были задействованы мощности студий в Канаде, Испании, Перу и Эстонии.
Рассчитанный на международный прокат мультфильм изначально был озвучен на английском языке.
«Крякнутые Каникулы», стал первым российским проектом получившим финансовую поддержку со стороны КНР. Китайский холдинг Star Alliance Media инвестировал в производство значительную часть бюджета картины, а так же заявил о выходе мультфильма в широкий прокат в Китае на более чем пяти тысячах экранах в 2016 году.
Записью шумов и финальным сведением звука занималась американская студия Juniper Post, работавшая над фильмами «Престиж» (2006), «Малышка на миллион» (2004), «Фарго» (1995), «Мёрзлая земля» (2011).

Релиз группы
Качество: WEB-DLRip / рип с WEB-DL 1080p
Формат: MP4
Видео кодек: XviD
Аудио кодек: AAC
Видео: 480x264 AR:16/9 499 kbps 24 fps
Аудио: 2ch 48 kHz 128 kbps
ОбщееПолное имя : D:\Torrents\Quackerz.2016.WEB-DLRip.XviD.480x.rip by Frost O.S.mp4Формат : MPEG-4Профиль формата : Base MediaИдентификатор кодека : isomРазмер файла : 371 МбайтПродолжительность : 1 ч. 21 м.Режим общего битрейта : ПеременныйОбщий поток : 635 Кбит/секНазвание фильма : Quackerz 2016 WEB-DLRip XviD 480x rip by Frost O SЖанр : AnimationТип содержимого : Short FilmДата кодирования : UTC 2016-05-09 08:29:18Дата пометки : UTC 2016-05-09 08:29:35Программа кодирования : MkvToMp4 version: 0.224 (x64)Обложка : YesПримечание : rip by Frost O.SLongDescription : Перелётные кряквы из России, решившие провести свой отдых на Гавайях, сбиваются с пути и приземляются на китайский остров, на котором живут утки-мандаринки. Между двумя стаями возникает много смешных и курьёзных ситуаций. Пока отцы дерутся и спорят, Ник, сын императора мандаринок и Ариша, дочь командира русских крякв, знакомятся и становятся друзьями. Дети должны объединить мандаринок и крякв и победить Ведьму Марго, которая хочет погубить солнце.

ВидеоИдентификатор : 1Формат : MPEG-4 VisualПрофиль формата : Advanced [email protected]Параметр BVOP формата : ДаПараметр QPel формата : НетПараметр GMC формата : Без точки переходаПараметр матрицы формата : ВыборочнаяИдентификатор кодека : 20Продолжительность : 1 ч. 21 м.Вид битрейта : ПеременныйБитрейт : 499 Кбит/секМаксимальный битрейт : 1572 Кбит/секШирина : 480 пикселейВысота : 264 пикселяСоотношение сторон : 16:9Режим частоты кадров : ПостоянныйЧастота кадров : 24,000 кадра/секЦветовое пространство : YUVСубдискретизация насыщенности : 4:2:0Битовая глубина : 8 битТип развёртки : ПрогрессивнаяМетод сжатия : С потерямиБит/(Пиксели*Кадры) : 0.164Размер потока : 292 Мбайт (79%)Библиотека кодирования : XviD 1.2.1 (UTC 2008-12-04)Язык : EnglishДата пометки : UTC 2016-05-09 08:29:22

АудиоИдентификатор : 2Формат : AACФормат/Информация : Advanced Audio CodecПрофиль формата : LCИдентификатор кодека : 40Продолжительность : 1 ч. 21 м.Вид битрейта : ПеременныйБитрейт : 128 Кбит/секМаксимальный битрейт : 132 Кбит/секКаналы : 2 каналаРасположение каналов : Front: L RЧастота : 48,0 КГцМетод сжатия : С потерямиРазмер потока : 74,9 Мбайт (20%)Язык : RussianДата кодирования : UTC 2016-05-09 08:29:21Дата пометки : UTC 2016-05-09 08:29:22


Трекер:  [ 09-Май-2016 10:30 ]

  

Скачать .torrent

Размер .torrent файла 15 KB


Размер: 371 MB
Хэш (hash) релиза: bdce958140a446530d24820431fcfbe7efcfbe9f

Торренты, похожие на [MULT] Крякнутые каникулы скачать торрент

Форум Название Автор Размер S L Добавлен
Видео (Фильмы/Клипы) ·· [MULT] Крякнутые каникулы (Виктор Лакисов) [2016, мультфильм, комедия, приключения, семейный, WEB-DLRip] [MP4, 960x] Galfimbul 11506249651.07 GB 0 0 1462783423

11:43

9-Май-16

Еще никто не оставлял запись к записи скачать торрент [MULT] Крякнутые каникулы . Будь первым!

!Обратная связь