Super Troopers 2 +When an international border dispute arises between the U.S. and Canada, the Super Troopers- Mac, Thorny, Foster, Rabbit and Farva, are called in to set up a new Highway Patrol station in the disputed area. | Johannes Brahms, Ludwig van Beethoven, Richard Wagner - The Finest German Classical (2018) | Русский

Скачать через торрент [VIDEO] Полицейская академия: Коллекция Police Academy: Collection бесплатно русская версия torrent активатор

Статистика раздачи
Размер:  9.03 GB   |    Зарегистрирован:  2 года 2 месяца   |    .torrent скачан:  180 раз   |   
Раздают:  1  
   
загрузка...
 
Автор Сообщение

Galfimbul

avatar Galfimbul


Полицейская академия: Коллекция / Police Academy: Collection

Полицейская академия / Police Academy«What an Institution!»

Год выпуска: 1984
Страна: США
Жанр: комедия, криминал
Продолжительность: 01:36:25
Перевод №1: Профессиональный (полное дублирование) Варус Видео
Перевод №2: Профессиональный (двухголосый, закадровый) НТВ
Перевод №3: Авторский (одноголосый, закадровый) Михалёв
Cубтитры: нет
Режиссер: Хью Уилсон / Hugh Wilson
В ролях: Стив Гуттенберг / Steve Guttenberg, Ким Кэтролл / Kim Cattrall, Дж. У. Бейли / G.W. Bailey, Бубба Смит / Bubba Smith, Донован Скотт / Donovan Scott, Джордж Гейнс / George Gaynes, Эндрю Рубин / Andrew Rubin, Дэвид Граф / David Graf, Лесли Истербрук / Leslie Easterbrook, Майкл Уинслоу / Michael Winslow и другие .
Описание: Мирные жители США находятся в опасности! Мэр города принял новый закон — больше нет никаких ограничений при приеме на службу в полицию. Вес, пол, рост и слабые умственные способности никому не помешают поступить в полицейскую академию. Приемные комиссии ломятся от толстяков, ботаников и уличных хулиганов. Преподаватели академии в шоке и намерены любым способом избавиться от студентов. Но экзамены, физподготовка и гей-бары абсолютно не страшат новичков. Не такое видали!
Релиз группы

Забавная сцена с кремом для обуви на мегафоне произошла от подобной проделки на съёмках одного из фильмов британского режиссёра Майкла Уиннера, когда кто-то попытался так подшутить над ним. Хью Уилсон услышал эту историю от одного из участников съёмочной группы и решил вставить её в сценарий.
После того как комендант Лассард с кадетами отъезжают от бушующей толпы, они ударяются о грузовик с мясом, на котором написано «Maslansky`s Bologna». Это шуточная отсылка в сторону одного из продюсеров фильма Пола Масланский.
«Полицейская академия» стала самым успешным фильмом года в Германии (5,19 млн. проданных билетов), обойдя все остальные голливудские проекты и даже «Бесконечную историю» Вольфганга Петерсена.
Единственный из всех фильмов френчайза, получивший в США кинопрокатный рейтинг R.
На роль кадета Махони рассматривались кандидатуры Тома Хэнкса, Майкла Китона, Джаджа Рейнхолда и Брюса Уиллиса.
Съёмки фильма уложились ровно в 40 дней.
Режиссёр Хью Уилсон имеет камео водителя, машина которого получает небольшие повреждения во время ночных уроков вождения Хайтауэра с Махони.
Бар «Голубая устрица» в фильме на самом деле находится в Торонто и носит название «Комната Серебряного доллара» ("Silver Dollar Room»).
Единственный из всех семи фильмов серии, где можно увидеть кадетов Лесли Барбара, Карен Томпсон и Джорджа Мартина.
Единственный из всех фильмов франшизы, где можно увидеть жену коменданта Лассарда.
Майкл Уинслоу (Джонс), Дэвид Граф (Тэклберри) и Джордж Гейнс (комендант Лассард) — единственные актёры, которые появляются во всех семи частях «Полицейской Академии».
Роль коменданта Эрика Лассарда была предложена Роберту Конраду, но актёр ответил отказом и впоследствии сожалел о своём решении.
Киностудия Warner Bros. пригласила Хью Уилсона написать сценарий фильма, но он согласился только тогда, когда ему было предложено стать и режиссёром проекта.
Трость, ставшая отличительным знаком лейтенанта Харриса на протяжении всей серии фильмов, не была запланирована в сценарии. Это был обычный предмет реквизита, принесённый на съёмочную площадку одним из участников массовки, который дал подержать его на время игравшему эту роль актёру Дж. У. Бейли.
Во время съёмок сцены преодоления полосы препятствий, первый человек, посланный на пробу оценить стену, перелезая её, оказался на такой большой высоте, что при приземлении сломал ногу.
Скотт Томсон (кадет Чад Коуплэнд) и Брант фон Хоффман (кадет Блэнкс) в ряде сцен фильма вынуждены были носить специальные парики. Это произошло из-за того, что сцены снимались не по порядку, и сначала был снят фрагмент, в котором им полностью обрили головы, а затем выяснилось, что остались эпизоды с их участием перед и во время прибытия в Академию.

Качество: HDRip / <a href="viewtopic.php?t=4120217" class="postLink">BDRip 720p</a>
Формат: MP4
Видео кодек: H.264
Аудио кодек: AAC
Видео: 960x540 AR:16/9 1740 kbps 23.976 fps
Аудио №1: [Russian] 2ch 48 kHz 128 kbps - [Dub] Варус Видео
Аудио №2: [Russian] 2ch 48 kHz 128 kbps - [DVO] НТВ
Аудио №3: [Russian] 1ch 48 kHz 128 kbps - [VO] Михалёв
avs [info]: 960x540p 1:1 @ 2997/125 fps (cfr)
x264 [info]: using SAR=1/1
x264 [info]: using cpu capabilities: MMX2 SSE2Fast SSSE3 SSE4.2 LZCNT
x264 [info]: profile High, level 4.1

x264 [info]: frame I:1090 Avg QP:19.61 size: 65640
x264 [info]: frame P:29399 Avg QP:23.14 size: 21084
x264 [info]: frame B:108208 Avg QP:25.76 size: 5239
x264 [info]: consecutive B-frames: 1.7% 2.7% 6.6% 23.6% 15.4% 33.2% 6.7% 7.1% 2.0% 0.9%
x264 [info]: mb I I16..4: 6.4% 74.4% 19.2%
x264 [info]: mb P I16..4: 0.4% 4.9% 1.1% P16..4: 39.2% 41.2% 11.3% 0.0% 0.0% skip: 1.8%
x264 [info]: mb B I16..4: 0.0% 0.4% 0.1% B16..8: 44.6% 16.0% 2.0% direct: 3.0% skip:33.8% L0:43.9% L1:49.4% BI: 6.7%
x264 [info]: 8x8 transform intra:75.8% inter:60.7%
x264 [info]: direct mvs spatial:98.8% temporal:1.2%
x264 [info]: coded y,uvDC,uvAC intra: 91.4% 75.1% 37.3% inter: 20.1% 17.6% 2.7%
x264 [info]: i16 v,h,dc,p: 29% 26% 2% 43%
x264 [info]: i8 v,h,dc,ddl,ddr,vr,hd,vl,hu: 6% 6% 2% 12% 18% 16% 16% 12% 12%
x264 [info]: i4 v,h,dc,ddl,ddr,vr,hd,vl,hu: 9% 8% 2% 9% 16% 15% 16% 12% 14%
x264 [info]: i8c dc,h,v,p: 31% 27% 21% 20%
x264 [info]: Weighted P-Frames: Y:8.9% UV:3.3%
x264 [info]: ref P L0: 45.4% 12.3% 17.1% 6.1% 5.4% 3.9% 3.8% 1.9% 2.0% 1.8% 0.4% 0.0%
x264 [info]: ref B L0: 74.0% 11.4% 5.6% 2.8% 2.1% 1.8% 1.5% 0.6% 0.3%
x264 [info]: ref B L1: 92.6% 7.4%
x264 [info]: kb/s:1740.11

x264 [total]: encoded 138697 frames, 5.09 fps, 1740.11 kb/s
ОбщееПолное имя : D:\Torrents\Police Academy.Collection.1984-1994.HDRip.x264.960x\Police Academy.1984.HDRip.x264.960x.rip by Frost O.S.mp4Формат : MPEG-4Профиль формата : Base MediaИдентификатор кодека : isomРазмер файла : 1,44 ГбайтПродолжительность : 1 ч. 36 м.Режим общего битрейта : ПеременныйОбщий поток : 2139 Кбит/секНазвание фильма : Police Academy 1984 HDRip x264 960x rip by Frost O SЖанр : ComedyТип содержимого : Short FilmДата кодирования : UTC 2016-04-26 17:25:59Дата пометки : UTC 2016-04-26 17:29:41Программа кодирования : MkvToMp4 version: 0.224 (x64)Обложка : YesПримечание : rip by Frost O.SLongDescription : Мирные жители США находятся в опасности! Мэр города принял новый закон — больше нет никаких ограничений при приеме на службу в полицию. Вес, пол, рост и слабые умственные способности никому не помешают поступить в полицейскую академию. Приемные комиссии ломятся от толстяков, ботаников и уличных хулиганов. Преподаватели академии в шоке и намерены любым способом избавиться от студентов. Но экзамены, физподготовка и гей-бары абсолютно не страшат новичков. Не такое видали!

ВидеоИдентификатор : 1Формат : AVCФормат/Информация : Advanced Video CodecПрофиль формата : [email protected]Параметр CABAC формата : ДаПараметр ReFrames формата : 10 кадровИдентификатор кодека : avc1Идентификатор кодека/Информация : Advanced Video CodingПродолжительность : 1 ч. 36 м.Битрейт : 1740 Кбит/секМаксимальный битрейт : 5467 Кбит/секШирина : 960 пикселейВысота : 540 пикселейСоотношение сторон : 16:9Режим частоты кадров : ПостоянныйЧастота кадров : 23,976 кадра/секЦветовое пространство : YUVСубдискретизация насыщенности : 4:2:0Битовая глубина : 8 битТип развёртки : ПрогрессивнаяБит/(Пиксели*Кадры) : 0.140Размер потока : 1,17 Гбайт (81%)Библиотека кодирования : x264 core 130 r2273 b3065e6Настройки программы : cabac=1 / ref=10 / deblock=1:-1:-1 / analyse=0x3:0x113 / me=umh / subme=11 / psy=1 / psy_rd=1.20:0.00 / mixed_ref=1 / me_range=32 / chroma_me=1 / trellis=2 / 8x8dct=1 / cqm=0 / deadzone=21,11 / fast_pskip=0 / chroma_qp_offset=-2 / threads=3 / lookahead_threads=1 / sliced_threads=0 / nr=0 / decimate=0 / interlaced=0 / bluray_compat=0 / constrained_intra=0 / bframes=9 / b_pyramid=2 / b_adapt=2 / b_bias=0 / direct=3 / weightb=1 / open_gop=0 / weightp=2 / keyint=250 / keyint_min=23 / scenecut=40 / intra_refresh=0 / rc_lookahead=40 / rc=2pass / mbtree=1 / bitrate=1740 / ratetol=1.0 / qcomp=0.60 / qpmin=0 / qpmax=69 / qpstep=4 / cplxblur=20.0 / qblur=0.5 / ip_ratio=1.40 / aq=1:0.90Язык : EnglishДата кодирования : UTC 2016-04-26 17:25:59Дата пометки : UTC 2016-04-26 17:26:25Основные цвета : BT.709Характеристики трансфера : BT.709Коэффициенты матрицы : BT.709

Аудио #1Идентификатор : 2Формат : AACФормат/Информация : Advanced Audio CodecПрофиль формата : LCИдентификатор кодека : 40Продолжительность : 1 ч. 36 м.Вид битрейта : ПеременныйБитрейт : 128 Кбит/секМаксимальный битрейт : 131 Кбит/секКаналы : 2 каналаРасположение каналов : Front: L RЧастота : 48,0 КГцМетод сжатия : С потерямиРазмер потока : 88,3 Мбайт (6%)Заголовок : [Dub] Varus VideoЯзык : RussianДата кодирования : UTC 2016-04-26 17:26:18Дата пометки : UTC 2016-04-26 17:26:25

Аудио #2Идентификатор : 3Формат : AACФормат/Информация : Advanced Audio CodecПрофиль формата : LCИдентификатор кодека : 40Продолжительность : 1 ч. 36 м.Вид битрейта : ПеременныйБитрейт : 128 Кбит/секМаксимальный битрейт : 132 Кбит/секКаналы : 2 каналаРасположение каналов : Front: L RЧастота : 48,0 КГцМетод сжатия : С потерямиРазмер потока : 88,3 Мбайт (6%)Заголовок : [DVO] HTBЯзык : RussianДата кодирования : UTC 2016-04-26 17:26:20Дата пометки : UTC 2016-04-26 17:26:25

Аудио #3Идентификатор : 4Формат : AACФормат/Информация : Advanced Audio CodecПрофиль формата : LCИдентификатор кодека : 40Продолжительность : 1 ч. 36 м.Вид битрейта : ПостоянныйБитрейт : 128 Кбит/секКаналы : 1 каналРасположение каналов : Front: CЧастота : 48,0 КГцМетод сжатия : С потерямиРазмер потока : 88,3 Мбайт (6%)Заголовок : [VO] MixalevЯзык : RussianДата кодирования : UTC 2016-04-26 17:26:23Дата пометки : UTC 2016-04-26 17:26:25
Полицейская академия 2: Их первое задание / Police Academy 2: Their First Assignment«To protect, to serve... and make you laugh. America's funniest crimebusters are back!»

Год выпуска: 1985
Страна: США
Жанр: комедия, криминал
Продолжительность: 01:27:10
Перевод №1: Профессиональный (полное дублирование) Варус Видео
Перевод №2: Профессиональный (двухголосый, закадровый) НТВ
Перевод №3: Авторский (одноголосый, закадровый) Михалёв
Cубтитры: нет
Режиссер: Джерри Пэрис / Jerry Paris
В ролях: Стив Гуттенберг / Steve Guttenberg, Бубба Смит / Bubba Smith, Дэвид Граф / David Graf, Майкл Уинслоу / Michael Winslow, Брюс Малер / Bruce Mahler, Мэрион Рэмси / Marion Ramsey, Коллин Кэмп / Colleen Camp, Ховард Хессеман / Howard Hesseman, Арт Метрано / Art Metrano, Джордж Гейнс / George Gaynes и другие .
Описание: Банда хулиганов творит безобразия по всему городу и опустошает карманы всех, кто находится с ними на одном тротуаре. Осторожно! Когда увальни в голубой форме решат разобраться с этими парнями, это закончится умопомрачительным смехом.
Релиз группы

Примерно на 66-ой минуте фильма в кадр на несколько секунд попадает телефонная будка, с написанным на ней нецензурным русским словом из трёх букв.
Режиссер Джерри Пэрис снял в фильме своих двух детей. Оба появились в небольших камео.
Несмотря на то, что героя Тима Казурински называют Свитчак (англ. Sweetchuck), на вывеске его магазина мы можем видеть, что по-настоящему фамилия его персонажа звучит как Швичук (нем. Schweechuk).
На официальном постере можно увидеть сексапильную девушку-блондинку, персонажа которой нет в фильме. Это было специальным трюком продюсеров, которые хотели использовать его еще в постере первой части.
Биллу Пэкстону было сделано предложение сыграть одну из центральных ролей в сиквеле. Однако он был вынужден отказаться, поскольку контракт предусматривал появление персонажа в продолжениях фильма. Вместо этого он снялся в «Чужих» Джеймса Кэмерона.
Актер Дж. В. Бэйли надеялся вернуться в сиквел «Полицейской академии» в качестве лейтенанта Харриса, однако режиссер Джерри Пэрис вычеркнул данного персонажа из сценария, заменив его на антагониста второго и третьего фильма Арта Метрано.
Во время драки в баре «Голубая устрица», когда Хукс спрашивала адрес, Проктор ответил: Коуэн Авеню, 655. Однако в первом фильме Махоуни говорил, что «Голубая устрица» находится на Хауэлл Авеню.
В сцене, когда офицер Джонс перепрыгивает через железную ограду, его фуражка дважды падает с его головы.
В сцене, где Штульман бросает носки в шкаф, в носки были вшиты миниатюрные магниты. Сделано это было специально для того, чтобы носки плотно «прилипли» к дверце.

Качество: HDRip / <a href="viewtopic.php?t=4122381" class="postLink">BDRip 720p</a>
Формат: MP4
Видео кодек: H.264
Аудио кодек: AAC
Видео: 960x540 AR:16/9 1680 kbps 23.976 fps
Аудио №1: [Russian] 2ch 48 kHz 128 kbps - [Dub] Варус Видео
Аудио №2: [Russian] 2ch 48 kHz 128 kbps - [DVO] НТВ
Аудио №3: [Russian] 1ch 48 kHz 128 kbps - [VO] Михалёв
avs [info]: 960x540p 1:1 @ 2997/125 fps (cfr)
x264 [info]: using SAR=1/1
x264 [info]: using cpu capabilities: MMX2 SSE2Fast SSSE3 SSE4.2 LZCNT
x264 [info]: profile High, level 4.1

x264 [info]: frame I:1035 Avg QP:19.27 size: 68647
x264 [info]: frame P:27198 Avg QP:22.80 size: 20166
x264 [info]: frame B:97144 Avg QP:26.46 size: 4927
x264 [info]: consecutive B-frames: 2.0% 2.2% 6.5% 23.8% 18.7% 38.4% 4.7% 2.5% 1.0%
x264 [info]: mb I I16..4: 7.0% 72.6% 20.4%
x264 [info]: mb P I16..4: 0.4% 4.4% 1.1% P16..4: 39.0% 40.8% 11.4% 0.0% 0.0% skip: 2.9%
x264 [info]: mb B I16..4: 0.0% 0.5% 0.1% B16..8: 43.7% 14.8% 1.9% direct: 2.8% skip:36.1% L0:43.4% L1:49.5% BI: 7.1%
x264 [info]: 8x8 transform intra:74.7% inter:57.8%
x264 [info]: direct mvs spatial:99.0% temporal:1.0%
x264 [info]: coded y,uvDC,uvAC intra: 90.9% 72.9% 35.2% inter: 17.6% 14.6% 2.7%
x264 [info]: i16 v,h,dc,p: 35% 24% 2% 38%
x264 [info]: i8 v,h,dc,ddl,ddr,vr,hd,vl,hu: 6% 6% 3% 12% 18% 16% 15% 13% 12%
x264 [info]: i4 v,h,dc,ddl,ddr,vr,hd,vl,hu: 10% 7% 2% 10% 15% 15% 14% 13% 13%
x264 [info]: i8c dc,h,v,p: 32% 28% 21% 19%
x264 [info]: Weighted P-Frames: Y:6.3% UV:2.1%
x264 [info]: ref P L0: 48.7% 11.9% 16.6% 6.0% 5.1% 3.8% 3.6% 1.9% 2.1% 0.3% 0.0%
x264 [info]: ref B L0: 79.0% 9.9% 4.7% 2.2% 1.6% 1.4% 0.8% 0.3%
x264 [info]: ref B L1: 93.4% 6.6%
x264 [info]: kb/s:1679.99

x264 [total]: encoded 125377 frames, 5.85 fps, 1679.99 kb/s
щееПолное имя : D:\Torrents\Police Academy.Collection.1984-1994.HDRip.x264.960x\Police Academy 2 Their First Assignment.1985.HDRip.x264.960x.rip by Frost O.S.mp4Формат : MPEG-4Профиль формата : Base MediaИдентификатор кодека : isomРазмер файла : 1,27 ГбайтПродолжительность : 1 ч. 27 м.Режим общего битрейта : ПеременныйОбщий поток : 2079 Кбит/секНазвание фильма : Police Academy 2 Their First Assignment 1985 HDRip x264 960x rip by Frost O SЖанр : ComedyТип содержимого : Short FilmДата кодирования : UTC 2016-04-26 17:32:10Дата пометки : UTC 2016-04-26 17:33:55Программа кодирования : MkvToMp4 version: 0.224 (x64)Обложка : YesПримечание : rip by Frost O.SLongDescription : Банда хулиганов творит безобразия по всему городу и опустошает карманы всех, кто находится с ними на одном тротуаре. Осторожно! Когда увальни в голубой форме решат разобраться с этими парнями, это закончится умопомрачительным смехом.

ВидеоИдентификатор : 1Формат : AVCФормат/Информация : Advanced Video CodecПрофиль формата : [email protected]Параметр CABAC формата : ДаПараметр ReFrames формата : 9 кадровИдентификатор кодека : avc1Идентификатор кодека/Информация : Advanced Video CodingПродолжительность : 1 ч. 27 м.Битрейт : 1680 Кбит/секМаксимальный битрейт : 5376 Кбит/секШирина : 960 пикселейВысота : 540 пикселейСоотношение сторон : 16:9Режим частоты кадров : ПостоянныйЧастота кадров : 23,976 кадра/секЦветовое пространство : YUVСубдискретизация насыщенности : 4:2:0Битовая глубина : 8 битТип развёртки : ПрогрессивнаяБит/(Пиксели*Кадры) : 0.135Размер потока : 1,02 Гбайт (81%)Библиотека кодирования : x264 core 130 r2273 b3065e6Настройки программы : cabac=1 / ref=9 / deblock=1:-1:-1 / analyse=0x3:0x113 / me=umh / subme=11 / psy=1 / psy_rd=1.20:0.00 / mixed_ref=1 / me_range=32 / chroma_me=1 / trellis=2 / 8x8dct=1 / cqm=0 / deadzone=21,11 / fast_pskip=0 / chroma_qp_offset=-2 / threads=3 / lookahead_threads=1 / sliced_threads=0 / nr=0 / decimate=0 / interlaced=0 / bluray_compat=0 / constrained_intra=0 / bframes=8 / b_pyramid=2 / b_adapt=2 / b_bias=0 / direct=3 / weightb=1 / open_gop=0 / weightp=2 / keyint=250 / keyint_min=23 / scenecut=40 / intra_refresh=0 / rc_lookahead=40 / rc=2pass / mbtree=1 / bitrate=1680 / ratetol=1.0 / qcomp=0.60 / qpmin=0 / qpmax=69 / qpstep=4 / cplxblur=20.0 / qblur=0.5 / ip_ratio=1.40 / aq=1:0.90Язык : EnglishДата кодирования : UTC 2016-04-26 17:32:10Дата пометки : UTC 2016-04-26 17:32:32Основные цвета : BT.709Характеристики трансфера : BT.709Коэффициенты матрицы : BT.709

Аудио #1Идентификатор : 2Формат : AACФормат/Информация : Advanced Audio CodecПрофиль формата : LCИдентификатор кодека : 40Продолжительность : 1 ч. 27 м.Вид битрейта : ПеременныйБитрейт : 128 Кбит/секМаксимальный битрейт : 135 Кбит/секКаналы : 2 каналаРасположение каналов : Front: L RЧастота : 48,0 КГцМетод сжатия : С потерямиРазмер потока : 79,8 Мбайт (6%)Заголовок : [Dub] Varus VideoЯзык : RussianДата кодирования : UTC 2016-04-26 17:32:24Дата пометки : UTC 2016-04-26 17:32:32

Аудио #2Идентификатор : 3Формат : AACФормат/Информация : Advanced Audio CodecПрофиль формата : LCИдентификатор кодека : 40Продолжительность : 1 ч. 27 м.Вид битрейта : ПеременныйБитрейт : 128 Кбит/секМаксимальный битрейт : 132 Кбит/секКаналы : 2 каналаРасположение каналов : Front: L RЧастота : 48,0 КГцМетод сжатия : С потерямиРазмер потока : 79,8 Мбайт (6%)Заголовок : [DVO] HTBЯзык : RussianДата кодирования : UTC 2016-04-26 17:32:27Дата пометки : UTC 2016-04-26 17:32:32

Аудио #3Идентификатор : 4Формат : AACФормат/Информация : Advanced Audio CodecПрофиль формата : LCИдентификатор кодека : 40Продолжительность : 1 ч. 27 м.Вид битрейта : ПеременныйБитрейт : 129 Кбит/секКаналы : 1 каналРасположение каналов : Front: CЧастота : 48,0 КГцМетод сжатия : С потерямиРазмер потока : 79,8 Мбайт (6%)Заголовок : [VO] MixalevЯзык : RussianДата кодирования : UTC 2016-04-26 17:32:29Дата пометки : UTC 2016-04-26 17:32:32
Полицейская академия 3: Переподготовка / Police Academy 3: Back in Training«An open-and-shut case of nonstop laughter»

Год выпуска: 1986
Страна: США
Жанр: комедия, криминал
Продолжительность: 01:23:44
Перевод №1: Профессиональный (полное дублирование) Варус Видео
Перевод №2: Профессиональный (двухголосый, закадровый) НТВ
Перевод №3: Авторский (одноголосый, закадровый) А.Гаврилов (поздняя версия)
Cубтитры: нет
Режиссер: Джерри Пэрис / Jerry Paris
В ролях: Стив Гуттенберг / Steve Guttenberg, Бубба Смит / Bubba Smith, Дэвид Граф / David Graf, Майкл Уинслоу / Michael Winslow, Мэрион Рэмси / Marion Ramsey, Лесли Истербрук / Leslie Easterbrook, Арт Метрано / Art Metrano, Тим Казурински / Tim Kazurinsky, Боб Голдтуэйт / Bob Goldthwait, Джордж Гейнс / George Gaynes и другие .
Описание: Правительство заявило, что только одна из двух полицейских школ может продолжать свою работу. Начинается жестокое состязание на выживание — ни одна из академий не желает закрываться, в дело идут все средства.

Махони, Хайтауэр, Тэклберри, Джонс, Хукс и Кэллагэн под командованием несгибаемого коменданта Лассарда, мобилизуют для спасения своей Альма Матер новую команду безнадежных рекрутов.
Релиз группы

Этот фильм стал последним для актера Арта Метрано, сыгравшего роль Маузера. В 1989 году, в результате несчастного случая, актер больше не мог ходить.
Актрисе Лесли Истербрук понадобилось четыре часа на то, чтобы научиться кататься на гидроцикле для съемки финальной сцены фильма.
Бубба Смит безумно боялся акул, а посему во время съемок сцены, в которой актер в воде останавливал лодку, он был напуган до смерти.

Качество: HDRip / <a href="viewtopic.php?t=4677100" class="postLink">BDRip 720p</a>
Формат: MP4
Видео кодек: H.264
Аудио кодек: AAC
Видео: 956x540 AR:16/9 1740 kbps 23.976 fps
Аудио №1: [Russian] 2ch 48 kHz 128 kbps - [Dub] Варус Видео
Аудио №2: [Russian] 2ch 48 kHz 128 kbps - [DVO] НТВ
Аудио №3: [Russian] 1ch 48 kHz 128 kbps - [VO] А.Гаврилов (поздняя версия)
avs [info]: 956x540p 1:1 @ 2997/125 fps (cfr)
x264 [info]: using SAR=1/1
x264 [info]: using cpu capabilities: MMX2 SSE2Fast SSSE3 SSE4.2 LZCNT
x264 [info]: profile High, level 4.1

x264 [info]: frame I:1089 Avg QP:19.97 size: 58510
x264 [info]: frame P:27323 Avg QP:23.87 size: 18566
x264 [info]: frame B:92037 Avg QP:27.25 size: 5666
x264 [info]: consecutive B-frames: 2.0% 2.7% 8.1% 31.8% 18.0% 29.7% 4.1% 2.7% 0.9%
x264 [info]: mb I I16..4: 9.1% 65.9% 24.9%
x264 [info]: mb P I16..4: 0.8% 6.8% 1.8% P16..4: 37.2% 38.6% 10.8% 0.0% 0.0% skip: 4.0%
x264 [info]: mb B I16..4: 0.1% 1.1% 0.2% B16..8: 41.4% 15.9% 2.3% direct: 3.0% skip:36.1% L0:42.9% L1:48.6% BI: 8.5%
x264 [info]: 8x8 transform intra:72.8% inter:62.2%
x264 [info]: direct mvs spatial:98.3% temporal:1.7%
x264 [info]: coded y,uvDC,uvAC intra: 88.1% 66.3% 31.0% inter: 19.0% 13.0% 3.0%
x264 [info]: i16 v,h,dc,p: 26% 33% 2% 39%
x264 [info]: i8 v,h,dc,ddl,ddr,vr,hd,vl,hu: 5% 7% 2% 11% 17% 15% 18% 12% 15%
x264 [info]: i4 v,h,dc,ddl,ddr,vr,hd,vl,hu: 9% 11% 2% 9% 14% 14% 15% 11% 15%
x264 [info]: i8c dc,h,v,p: 31% 31% 19% 19%
x264 [info]: Weighted P-Frames: Y:5.6% UV:2.1%
x264 [info]: ref P L0: 48.6% 11.8% 16.3% 6.2% 5.0% 4.0% 3.5% 2.0% 2.2% 0.4% 0.0%
x264 [info]: ref B L0: 78.2% 9.9% 5.1% 2.3% 1.8% 1.5% 0.9% 0.3%
x264 [info]: ref B L1: 93.1% 6.9%
x264 [info]: kb/s:1739.71

x264 [total]: encoded 120449 frames, 5.76 fps, 1739.71 kb/s
ОбщееПолное имя : D:\Torrents\Police Academy.Collection.1984-1994.HDRip.x264.960x\Police Academy 3 Back in Training.1986.HDRip.x264.960x.rip by Frost O.S.mp4Формат : MPEG-4Профиль формата : Base MediaИдентификатор кодека : isomРазмер файла : 1,25 ГбайтПродолжительность : 1 ч. 23 м.Режим общего битрейта : ПеременныйОбщий поток : 2138 Кбит/секНазвание фильма : Police Academy 3 Back in Training 1986 HDRip x264 960x rip by Frost O SЖанр : ComedyТип содержимого : Short FilmДата кодирования : UTC 2016-04-27 13:40:24Дата пометки : UTC 2016-04-27 13:42:12Программа кодирования : MkvToMp4 version: 0.224 (x64)Обложка : YesПримечание : rip by Frost O.SLongDescription : Правительство заявило, что только одна из двух полицейских школ может продолжать свою работу. Начинается жестокое состязание на выживание — ни одна из академий не желает закрываться, в дело идут все средства. Махони, Хайтауэр, Тэклберри, Джонс, Хукс и Кэллагэн под командованием несгибаемого коменданта Лассарда, мобилизуют для спасения своей Альма Матер новую команду безнадежных рекрутов.

ВидеоИдентификатор : 1Формат : AVCФормат/Информация : Advanced Video CodecПрофиль формата : [email protected]Параметр CABAC формата : ДаПараметр ReFrames формата : 9 кадровИдентификатор кодека : avc1Идентификатор кодека/Информация : Advanced Video CodingПродолжительность : 1 ч. 23 м.Битрейт : 1740 Кбит/секМаксимальный битрейт : 12,0 Мбит/секШирина : 956 пикселейВысота : 540 пикселейСоотношение сторон : 16:9Режим частоты кадров : ПостоянныйЧастота кадров : 23,976 кадра/секЦветовое пространство : YUVСубдискретизация насыщенности : 4:2:0Битовая глубина : 8 битТип развёртки : ПрогрессивнаяБит/(Пиксели*Кадры) : 0.141Размер потока : 1,02 Гбайт (81%)Библиотека кодирования : x264 core 130 r2273 b3065e6Настройки программы : cabac=1 / ref=9 / deblock=1:-1:-1 / analyse=0x3:0x113 / me=umh / subme=11 / psy=1 / psy_rd=1.20:0.00 / mixed_ref=1 / me_range=32 / chroma_me=1 / trellis=2 / 8x8dct=1 / cqm=0 / deadzone=21,11 / fast_pskip=0 / chroma_qp_offset=-2 / threads=3 / lookahead_threads=1 / sliced_threads=0 / nr=0 / decimate=0 / interlaced=0 / bluray_compat=0 / constrained_intra=0 / bframes=8 / b_pyramid=2 / b_adapt=2 / b_bias=0 / direct=3 / weightb=1 / open_gop=0 / weightp=2 / keyint=250 / keyint_min=23 / scenecut=40 / intra_refresh=0 / rc_lookahead=40 / rc=2pass / mbtree=1 / bitrate=1740 / ratetol=1.0 / qcomp=0.60 / qpmin=0 / qpmax=69 / qpstep=4 / cplxblur=20.0 / qblur=0.5 / ip_ratio=1.40 / aq=1:0.90Язык : EnglishДата кодирования : UTC 2016-04-27 13:40:24Дата пометки : UTC 2016-04-27 13:41:08Основные цвета : BT.709Характеристики трансфера : BT.709Коэффициенты матрицы : BT.709

Аудио #1Идентификатор : 2Формат : AACФормат/Информация : Advanced Audio CodecПрофиль формата : LCИдентификатор кодека : 40Продолжительность : 1 ч. 23 м.Вид битрейта : ПеременныйБитрейт : 128 Кбит/секМаксимальный битрейт : 131 Кбит/секКаналы : 2 каналаРасположение каналов : Front: L RЧастота : 48,0 КГцМетод сжатия : С потерямиРазмер потока : 76,7 Мбайт (6%)Заголовок : [Dub] Varus VideoЯзык : RussianДата кодирования : UTC 2016-04-27 13:40:45Дата пометки : UTC 2016-04-27 13:41:08

Аудио #2Идентификатор : 3Формат : AACФормат/Информация : Advanced Audio CodecПрофиль формата : LCИдентификатор кодека : 40Продолжительность : 1 ч. 23 м.Вид битрейта : ПеременныйБитрейт : 128 Кбит/секМаксимальный битрейт : 131 Кбит/секКаналы : 2 каналаРасположение каналов : Front: L RЧастота : 48,0 КГцМетод сжатия : С потерямиРазмер потока : 76,7 Мбайт (6%)Заголовок : [DVO] HTBЯзык : RussianДата кодирования : UTC 2016-04-27 13:40:56Дата пометки : UTC 2016-04-27 13:41:08

Аудио #3Идентификатор : 4Формат : AACФормат/Информация : Advanced Audio CodecПрофиль формата : LCИдентификатор кодека : 40Продолжительность : 1 ч. 23 м.Вид битрейта : ПостоянныйБитрейт : 128 Кбит/секКаналы : 1 каналРасположение каналов : Front: CЧастота : 48,0 КГцМетод сжатия : С потерямиРазмер потока : 76,7 Мбайт (6%)Заголовок : [VO] GavrilovЯзык : RussianДата кодирования : UTC 2016-04-27 13:41:01Дата пометки : UTC 2016-04-27 13:41:08
Полицейская академия 4: Граждане в дозоре / Police Academy 4: Citizens on Patrol«On land, on sea, or in the air, no place is safe from them!»

Год выпуска: 1987
Страна: США
Жанр: комедия, криминал
Продолжительность: 01:27:18
Перевод №1: Профессиональный (полное дублирование) Варус Видео
Перевод №2: Профессиональный (двухголосый, закадровый) НТВ
Перевод №3: Авторский (одноголосый, закадровый) А.Гаврилов (поздняя версия)
Cубтитры: нет
Режиссер: Джим Дрейк / Jim Drake
В ролях: Стив Гуттенберг / Steve Guttenberg, Бубба Смит / Bubba Smith, Майкл Уинслоу / Michael Winslow, Дэвид Граф / David Graf, Тим Казурински / Tim Kazurinsky, Шэрон Стоун / Sharon Stone, Лесли Истербрук / Leslie Easterbrook, Мэрион Рэмси / Marion Ramsey, Лэнс Кинси / Lance Kinsey, Дж. У. Бейли / G.W. Bailey и другие .
Описание: Упрямый и предприимчивый Лассард решает усилить безопасность на улице с помощью создания добровольных дружин под названием «Граждане на дежурстве». Угадайте, кто будет инструктировать обывателей? Верно, те же выпускники академии, что принимали «неуд» в своих зачетках за отличные отметки.

Когда конкурент, лейтенант Харрис, наблюдает за этими упражнениями, он решает использовать их для дискредитации Академии. Но наши герои сложили свои коэффициенты умственного развития и поднялись в воздух на бипланах и воздушных шарах: кто-то должен спасать положение!
Релиз группы

Последний фильм франшизы «Полицейская академия», в котором принял участие Стив Гуттенберг — главная звезда данной серии фильмов.
Примечательно, что ни одна часть серии не получала ни наград, ни даже номинаций на какую-либо награду или анти-награду. Это единственная картина, получившая номинацию самой известной анти-награды кинематографа — «Золотую малину».
Для актера Дэвида Спейда роль в данном фильме была дебютной, а для Джека Крили — последней.
Несмотря на свою боязнь высоты, актер Дэвид Граф, игравший роль Тэклберри, согласился сняться в сценах на аэроплане и необходимые сцены были сняты с одного дубля.
Последний фильм, в котором был показан бар «Голубая устрица».
Изначально четвертую часть планировалось снять сразу же после третьей, однако производство было приостановлено в связи со смертью режиссера второго и третьего фильмов — Джерри Пэриса.
Легендарный скейтбордист Тони Хоук сыграл камео в данной ленте. Его можно заметить среди приятелей Арни и Кайла.

Качество: HDRip / <a href="viewtopic.php?t=4677147" class="postLink">BDRip 720p</a>
Формат: MP4
Видео кодек: H.264
Аудио кодек: AAC
Видео: 956x540 AR:16/9 1740 kbps 23.976 fps
Аудио №1: [Russian] 2ch 48 kHz 128 kbps - [Dub] Варус Видео
Аудио №2: [Russian] 2ch 48 kHz 128 kbps - [DVO] НТВ
Аудио №3: [Russian] 1ch 48 kHz 128 kbps - [VO] А.Гаврилов (поздняя версия)
avs [info]: 956x540p 1:1 @ 2997/125 fps (cfr)
x264 [info]: using SAR=1/1
x264 [info]: using cpu capabilities: MMX2 SSE2Fast SSSE3 SSE4.2 LZCNT
x264 [info]: profile High, level 4.1

x264 [info]: frame I:1005 Avg QP:20.15 size: 72147
x264 [info]: frame P:28423 Avg QP:23.62 size: 20368
x264 [info]: frame B:96127 Avg QP:26.99 size: 5072
x264 [info]: consecutive B-frames: 1.9% 2.8% 8.1% 30.3% 18.5% 31.3% 3.3% 2.8% 0.6% 0.3%
x264 [info]: mb I I16..4: 5.1% 76.8% 18.1%
x264 [info]: mb P I16..4: 0.4% 5.7% 1.2% P16..4: 38.6% 40.3% 11.5% 0.0% 0.0% skip: 2.2%
x264 [info]: mb B I16..4: 0.0% 0.7% 0.1% B16..8: 42.5% 15.5% 2.1% direct: 2.8% skip:36.3% L0:42.7% L1:49.4% BI: 7.9%
x264 [info]: 8x8 transform intra:78.0% inter:63.2%
x264 [info]: direct mvs spatial:98.5% temporal:1.5%
x264 [info]: coded y,uvDC,uvAC intra: 92.0% 75.7% 41.3% inter: 19.9% 14.9% 3.5%
x264 [info]: i16 v,h,dc,p: 26% 33% 2% 39%
x264 [info]: i8 v,h,dc,ddl,ddr,vr,hd,vl,hu: 6% 6% 2% 12% 18% 15% 17% 12% 13%
x264 [info]: i4 v,h,dc,ddl,ddr,vr,hd,vl,hu: 9% 7% 2% 9% 16% 16% 16% 12% 13%
x264 [info]: i8c dc,h,v,p: 33% 27% 20% 19%
x264 [info]: Weighted P-Frames: Y:4.1% UV:1.3%
x264 [info]: ref P L0: 47.4% 14.1% 17.2% 5.4% 4.9% 3.4% 3.4% 1.7% 2.1% 0.3% 0.0%
x264 [info]: ref B L0: 80.9% 9.4% 4.1% 2.0% 1.4% 1.2% 0.7% 0.3%
x264 [info]: ref B L1: 94.4% 5.6%
x264 [info]: kb/s:1739.99

x264 [total]: encoded 125555 frames, 5.85 fps, 1739.99 kb/s
ОбщееПолное имя : D:\Torrents\Police Academy.Collection.1984-1994.HDRip.x264.960x\Police Academy 4 Citizens on Patrol.1987.HDRip.x264.960x.rip by Frost O.S.mp4Формат : MPEG-4Профиль формата : Base MediaИдентификатор кодека : isomРазмер файла : 1,30 ГбайтПродолжительность : 1 ч. 27 м.Режим общего битрейта : ПеременныйОбщий поток : 2138 Кбит/секНазвание фильма : Police Academy 4 Citizens on Patrol 1987 HDRip x264 960x rip by Frost O SЖанр : ComedyТип содержимого : Short FilmДата кодирования : UTC 2016-05-01 13:53:17Дата пометки : UTC 2016-05-01 13:55:24Программа кодирования : MkvToMp4 version: 0.224 (x64)Обложка : YesПримечание : rip by Frost O.SLongDescription : Упрямый и предприимчивый Лассард решает усилить безопасность на улице с помощью создания добровольных дружин под названием «Граждане на дежурстве». Угадайте, кто будет инструктировать обывателей? Верно, те же выпускники академии, что принимали «неуд» в своих зачетках за отличные отметки. Когда конкурент, лейтенант Харрис, наблюдает за этими упражнениями, он решает использовать их для дискредитации Академии. Но наши герои сложили свои коэффициенты умственного развития и поднялись в воздух на бипланах и воздушных шарах: кто-то должен спасать положение!

ВидеоИдентификатор : 1Формат : AVCФормат/Информация : Advanced Video CodecПрофиль формата : [email protected]Параметр CABAC формата : ДаПараметр ReFrames формата : 9 кадровИдентификатор кодека : avc1Идентификатор кодека/Информация : Advanced Video CodingПродолжительность : 1 ч. 27 м.Битрейт : 1740 Кбит/секМаксимальный битрейт : 11,6 Мбит/секШирина : 956 пикселейВысота : 540 пикселейСоотношение сторон : 16:9Режим частоты кадров : ПостоянныйЧастота кадров : 23,976 кадра/секЦветовое пространство : YUVСубдискретизация насыщенности : 4:2:0Битовая глубина : 8 битТип развёртки : ПрогрессивнаяБит/(Пиксели*Кадры) : 0.141Размер потока : 1,06 Гбайт (81%)Библиотека кодирования : x264 core 130 r2273 b3065e6Настройки программы : cabac=1 / ref=9 / deblock=1:-1:-1 / analyse=0x3:0x113 / me=umh / subme=11 / psy=1 / psy_rd=1.20:0.00 / mixed_ref=1 / me_range=32 / chroma_me=1 / trellis=2 / 8x8dct=1 / cqm=0 / deadzone=21,11 / fast_pskip=0 / chroma_qp_offset=-2 / threads=3 / lookahead_threads=1 / sliced_threads=0 / nr=0 / decimate=0 / interlaced=0 / bluray_compat=0 / constrained_intra=0 / bframes=9 / b_pyramid=2 / b_adapt=2 / b_bias=0 / direct=3 / weightb=1 / open_gop=0 / weightp=2 / keyint=250 / keyint_min=23 / scenecut=40 / intra_refresh=0 / rc_lookahead=40 / rc=2pass / mbtree=1 / bitrate=1740 / ratetol=1.0 / qcomp=0.60 / qpmin=0 / qpmax=69 / qpstep=4 / cplxblur=20.0 / qblur=0.5 / ip_ratio=1.40 / aq=1:0.90Язык : EnglishДата кодирования : UTC 2016-05-01 13:53:17Дата пометки : UTC 2016-05-01 13:54:06Основные цвета : BT.709Характеристики трансфера : BT.709Коэффициенты матрицы : BT.709

Аудио #1Идентификатор : 2Формат : AACФормат/Информация : Advanced Audio CodecПрофиль формата : LCИдентификатор кодека : 40Продолжительность : 1 ч. 27 м.Вид битрейта : ПеременныйБитрейт : 128 Кбит/секМаксимальный битрейт : 133 Кбит/секКаналы : 2 каналаРасположение каналов : Front: L RЧастота : 48,0 КГцМетод сжатия : С потерямиРазмер потока : 79,9 Мбайт (6%)Заголовок : [Dub] Varus VideoЯзык : RussianДата кодирования : UTC 2016-05-01 13:53:39Дата пометки : UTC 2016-05-01 13:54:06

Аудио #2Идентификатор : 3Формат : AACФормат/Информация : Advanced Audio CodecПрофиль формата : LCИдентификатор кодека : 40Продолжительность : 1 ч. 27 м.Вид битрейта : ПеременныйБитрейт : 128 Кбит/секМаксимальный битрейт : 131 Кбит/секКаналы : 2 каналаРасположение каналов : Front: L RЧастота : 48,0 КГцМетод сжатия : С потерямиРазмер потока : 79,9 Мбайт (6%)Заголовок : [DVO] HTBЯзык : RussianДата кодирования : UTC 2016-05-01 13:53:50Дата пометки : UTC 2016-05-01 13:54:06

Аудио #3Идентификатор : 4Формат : AACФормат/Информация : Advanced Audio CodecПрофиль формата : LCИдентификатор кодека : 40Продолжительность : 1 ч. 27 м.Вид битрейта : ПостоянныйБитрейт : 128 Кбит/секКаналы : 1 каналРасположение каналов : Front: CЧастота : 48,0 КГцМетод сжатия : С потерямиРазмер потока : 79,9 Мбайт (6%)Заголовок : [VO] GavrilovЯзык : RussianДата кодирования : UTC 2016-05-01 13:53:58Дата пометки : UTC 2016-05-01 13:54:06
Полицейская академия 5: Место назначения – Майами Бич / Police Academy 5: Assignment: Miami Beach«Hold everything! The cadets are dropping in on Miami Beach for an all new adventure»

Год выпуска: 1988
Страна: США
Жанр: комедия, криминал
Продолжительность: 01:29:51
Перевод №1: Профессиональный (полное дублирование) Варус Видео
Перевод №2: Профессиональный (двухголосый, закадровый) НТВ
Перевод №3: Авторский (одноголосый, закадровый) Михалёв
Cубтитры: нет
Режиссер: Алан Майерсон / Alan Myerson
В ролях: Бубба Смит / Bubba Smith, Дэвид Граф / David Graf, Майкл Уинслоу / Michael Winslow, Лесли Истербрук / Leslie Easterbrook, Мэрион Рэмси / Marion Ramsey, Джанет Джонс / Janet Jones, Лэнс Кинси / Lance Kinsey, Мэтт МакКой / Matt McCoy, Дж. У. Бейли / G.W. Bailey, Джордж Гейнс / George Gaynes и другие .
Описание: Солнце, веселье и красивые девушки. Где всему этому быть, как не в Майами Бич? На этом пятом празднике смеха наши герои летят в Майами на чествование любимого коменданта Лассарда. Но у преступников не бывает отпусков, когда отдыхают наши любимые полицейские.

Лассард похищен. И даже соблазнительные пляжные вечеринки не смогут отвлечь наших неистовых бойцов от отчаянной попытки спасения заложника.
Релиз группы
Качество: HDRip / <a href="viewtopic.php?t=4677178" class="postLink">BDRip 720p</a>
Формат: MP4
Видео кодек: H.264
Аудио кодек: AAC
Видео: 960x540 AR:16/9 1740 kbps 23.976 fps
Аудио №1: [Russian] 2ch 48 kHz 128 kbps - [Dub] Варус Видео
Аудио №2: [Russian] 2ch 48 kHz 128 kbps - [DVO] НТВ
Аудио №3: [Russian] 1ch 48 kHz 128 kbps - [VO] Михалёв
avs [info]: 960x540p 1:1 @ 2997/125 fps (cfr)
x264 [info]: using SAR=1/1
x264 [info]: using cpu capabilities: MMX2 SSE2Fast SSSE3 SSE4.2 LZCNT
x264 [info]: profile High, level 4.1

x264 [info]: frame I:940 Avg QP:19.83 size: 64469
x264 [info]: frame P:29408 Avg QP:23.48 size: 19467
x264 [info]: frame B:98900 Avg QP:26.73 size: 5449
x264 [info]: consecutive B-frames: 1.7% 3.0% 8.0% 32.1% 18.3% 30.8% 3.0% 2.5% 0.6%
x264 [info]: mb I I16..4: 6.3% 72.6% 21.1%
x264 [info]: mb P I16..4: 0.5% 6.7% 1.5% P16..4: 37.4% 39.7% 11.0% 0.0% 0.0% skip: 3.1%
x264 [info]: mb B I16..4: 0.0% 0.9% 0.2% B16..8: 43.3% 15.8% 2.2% direct: 2.8% skip:34.9% L0:42.7% L1:49.8% BI: 7.5%
x264 [info]: 8x8 transform intra:77.8% inter:63.1%
x264 [info]: direct mvs spatial:98.1% temporal:1.9%
x264 [info]: coded y,uvDC,uvAC intra: 91.2% 70.2% 32.3% inter: 19.7% 14.7% 2.9%
x264 [info]: i16 v,h,dc,p: 29% 26% 3% 43%
x264 [info]: i8 v,h,dc,ddl,ddr,vr,hd,vl,hu: 5% 5% 2% 12% 18% 16% 17% 12% 12%
x264 [info]: i4 v,h,dc,ddl,ddr,vr,hd,vl,hu: 9% 6% 2% 9% 16% 16% 15% 13% 13%
x264 [info]: i8c dc,h,v,p: 33% 26% 20% 20%
x264 [info]: Weighted P-Frames: Y:4.4% UV:1.3%
x264 [info]: ref P L0: 50.2% 13.2% 15.6% 5.4% 4.4% 3.3% 3.0% 1.6% 1.6% 1.6% 0.2% 0.0%
x264 [info]: ref B L0: 80.7% 8.8% 4.3% 1.9% 1.4% 1.2% 1.0% 0.4% 0.2%
x264 [info]: ref B L1: 94.1% 5.9%
x264 [info]: kb/s:1739.27

x264 [total]: encoded 129248 frames, 5.34 fps, 1739.28 kb/s
ОбщееПолное имя : D:\Torrents\Police Academy.Collection.1984-1994.HDRip.x264.960x\Police Academy 5 Assignment Miami Beach.1988.HDRip.x264.960x.rip by Frost O.S.mp4Формат : MPEG-4Профиль формата : Base MediaИдентификатор кодека : isomРазмер файла : 1,34 ГбайтПродолжительность : 1 ч. 29 м.Режим общего битрейта : ПеременныйОбщий поток : 2138 Кбит/секНазвание фильма : Police Academy 5 Assignment Miami Beach 1988 HDRip x264 960x rip by Frost O SЖанр : ComedyТип содержимого : Short FilmДата кодирования : UTC 2016-05-02 15:07:25Дата пометки : UTC 2016-05-02 15:09:10Программа кодирования : MkvToMp4 version: 0.224 (x64)Обложка : YesПримечание : rip by Frost O.SLongDescription : Солнце, веселье и красивые девушки. Где всему этому быть, как не в Майами Бич? На этом пятом празднике смеха наши герои летят в Майами на чествование любимого коменданта Лассарда. Но у преступников не бывает отпусков, когда отдыхают наши любимые полицейские. / Лассард похищен. И даже соблазнительные пляжные вечеринки не смогут отвлечь наших неистовых бойцов от отчаянной попытки спасения заложника.

ВидеоИдентификатор : 1Формат : AVCФормат/Информация : Advanced Video CodecПрофиль формата : [email protected]Параметр CABAC формата : ДаПараметр ReFrames формата : 10 кадровИдентификатор кодека : avc1Идентификатор кодека/Информация : Advanced Video CodingПродолжительность : 1 ч. 29 м.Битрейт : 1740 Кбит/секМаксимальный битрейт : 8424 Кбит/секШирина : 960 пикселейВысота : 540 пикселейСоотношение сторон : 16:9Режим частоты кадров : ПостоянныйЧастота кадров : 23,976 кадра/секЦветовое пространство : YUVСубдискретизация насыщенности : 4:2:0Битовая глубина : 8 битТип развёртки : ПрогрессивнаяБит/(Пиксели*Кадры) : 0.140Размер потока : 1,09 Гбайт (81%)Библиотека кодирования : x264 core 130 r2273 b3065e6Настройки программы : cabac=1 / ref=10 / deblock=1:-1:-1 / analyse=0x3:0x113 / me=umh / subme=11 / psy=1 / psy_rd=1.20:0.00 / mixed_ref=1 / me_range=32 / chroma_me=1 / trellis=2 / 8x8dct=1 / cqm=0 / deadzone=21,11 / fast_pskip=0 / chroma_qp_offset=-2 / threads=3 / lookahead_threads=1 / sliced_threads=0 / nr=0 / decimate=0 / interlaced=0 / bluray_compat=0 / constrained_intra=0 / bframes=8 / b_pyramid=2 / b_adapt=2 / b_bias=0 / direct=3 / weightb=1 / open_gop=0 / weightp=2 / keyint=250 / keyint_min=23 / scenecut=40 / intra_refresh=0 / rc_lookahead=40 / rc=2pass / mbtree=1 / bitrate=1740 / ratetol=1.0 / qcomp=0.60 / qpmin=0 / qpmax=69 / qpstep=4 / cplxblur=20.0 / qblur=0.5 / ip_ratio=1.40 / aq=1:0.90Язык : EnglishДата кодирования : UTC 2016-05-02 15:07:25Дата пометки : UTC 2016-05-02 15:07:48Основные цвета : BT.709Характеристики трансфера : BT.709Коэффициенты матрицы : BT.709

Аудио #1Идентификатор : 2Формат : AACФормат/Информация : Advanced Audio CodecПрофиль формата : LCИдентификатор кодека : 40Продолжительность : 1 ч. 29 м.Вид битрейта : ПеременныйБитрейт : 128 Кбит/секМаксимальный битрейт : 131 Кбит/секКаналы : 2 каналаРасположение каналов : Front: L RЧастота : 48,0 КГцМетод сжатия : С потерямиРазмер потока : 82,3 Мбайт (6%)Заголовок : [Dub] Varus VideoЯзык : RussianДата кодирования : UTC 2016-05-02 15:07:43Дата пометки : UTC 2016-05-02 15:07:48

Аудио #2Идентификатор : 3Формат : AACФормат/Информация : Advanced Audio CodecПрофиль формата : LCИдентификатор кодека : 40Продолжительность : 1 ч. 29 м.Вид битрейта : ПеременныйБитрейт : 128 Кбит/секМаксимальный битрейт : 131 Кбит/секКаналы : 2 каналаРасположение каналов : Front: L RЧастота : 48,0 КГцМетод сжатия : С потерямиРазмер потока : 82,3 Мбайт (6%)Заголовок : [DVO] HTBЯзык : RussianДата кодирования : UTC 2016-05-02 15:07:44Дата пометки : UTC 2016-05-02 15:07:48

Аудио #3Идентификатор : 4Формат : AACФормат/Информация : Advanced Audio CodecПрофиль формата : LCИдентификатор кодека : 40Продолжительность : 1 ч. 29 м.Вид битрейта : ПостоянныйБитрейт : 128 Кбит/секКаналы : 1 каналРасположение каналов : Front: CЧастота : 48,0 КГцМетод сжатия : С потерямиРазмер потока : 82,3 Мбайт (6%)Заголовок : [VO] MixalevЯзык : RussianДата кодирования : UTC 2016-05-02 15:07:46Дата пометки : UTC 2016-05-02 15:07:48
Полицейская академия 6: Город в осаде / Police Academy 6: City Under Siege«THE FUNNIEST COPS ARE FUNNIER THAN EVER! They're Undercover To Unmask The Mastermind of Crime!»

Год выпуска: 1989
Страна: США
Жанр: комедия, криминал
Продолжительность: 01:23:56
Перевод №1: Профессиональный (полное дублирование) Варус Видео
Перевод №2: Профессиональный (двухголосый, закадровый) НТВ
Перевод №3: Авторский (одноголосый, закадровый) А.Гаврилов
Cубтитры: нет
Режиссер: Питер Бонерз / Peter Bonerz
В ролях: Бубба Смит / Bubba Smith, Дэвид Граф / David Graf, Майкл Уинслоу / Michael Winslow, Лесли Истербрук / Leslie Easterbrook, Мэрион Рэмси / Marion Ramsey, Лэнс Кинси / Lance Kinsey, Мэтт МакКой / Matt McCoy, Брюс Малер / Bruce Mahler, Дж. У. Бейли / G.W. Bailey, Джордж Гейнс / George Gaynes и другие .
Описание: Вспышка криминальной активности под кодовым названием «Операция Хаос» может потребовать занавеса для ничего не подозревающего города. Лучшие полицейские специалисты из знаменитой Полицейской Академии взялись за дело.
Релиз группы
Качество: HDRip / <a href="viewtopic.php?t=4677203" class="postLink">BDRip 720p</a>
Формат: MP4
Видео кодек: H.264
Аудио кодек: AAC
Видео: 960x540 AR:16/9 1632 kbps 23.976 fps
Аудио №1: [Russian] 2ch 48 kHz 128 kbps - [Dub] Варус Видео
Аудио №2: [Russian] 2ch 48 kHz 128 kbps - [DVO] НТВ
Аудио №3: [Russian] 1ch 48 kHz 128 kbps - [VO] А.Гаврилов
avs [info]: 960x540p 1:1 @ 2997/125 fps (cfr)
x264 [info]: using SAR=1/1
x264 [info]: using cpu capabilities: MMX2 SSE2Fast SSSE3 SSE4.2 LZCNT
x264 [info]: profile High, level 4.1

x264 [info]: frame I:1059 Avg QP:18.95 size: 68161
x264 [info]: frame P:23770 Avg QP:22.56 size: 19799
x264 [info]: frame B:95902 Avg QP:25.15 size: 5045
x264 [info]: consecutive B-frames: 1.5% 1.8% 5.1% 16.8% 15.2% 40.7% 7.9% 7.5% 3.4%
x264 [info]: mb I I16..4: 6.3% 74.9% 18.9%
x264 [info]: mb P I16..4: 0.4% 4.1% 0.9% P16..4: 37.9% 40.7% 11.6% 0.0% 0.0% skip: 4.4%
x264 [info]: mb B I16..4: 0.0% 0.4% 0.1% B16..8: 42.5% 15.6% 1.8% direct: 3.0% skip:36.5% L0:45.1% L1:48.0% BI: 6.8%
x264 [info]: 8x8 transform intra:75.9% inter:60.9%
x264 [info]: direct mvs spatial:99.2% temporal:0.8%
x264 [info]: coded y,uvDC,uvAC intra: 89.7% 75.6% 46.7% inter: 19.2% 14.0% 3.9%
x264 [info]: i16 v,h,dc,p: 39% 25% 5% 32%
x264 [info]: i8 v,h,dc,ddl,ddr,vr,hd,vl,hu: 8% 6% 3% 12% 17% 16% 15% 12% 12%
x264 [info]: i4 v,h,dc,ddl,ddr,vr,hd,vl,hu: 11% 7% 4% 10% 16% 15% 14% 12% 12%
x264 [info]: i8c dc,h,v,p: 35% 27% 21% 17%
x264 [info]: Weighted P-Frames: Y:5.3% UV:2.0%
x264 [info]: ref P L0: 42.5% 10.7% 19.7% 6.9% 6.5% 4.4% 4.4% 2.2% 2.4% 0.3% 0.0%
x264 [info]: ref B L0: 68.5% 13.9% 7.4% 3.6% 2.7% 2.3% 1.2% 0.4%
x264 [info]: ref B L1: 91.0% 9.0%
x264 [info]: kb/s:1631.04

x264 [total]: encoded 120731 frames, 6.24 fps, 1631.04 kb/s
ОбщееПолное имя : D:\Torrents\Police Academy.Collection.1984-1994.HDRip.x264.960x\Police Academy 6 City Under Siege.1989.HDRip.x264.960x.rip by Frost O.S.mp4Формат : MPEG-4Профиль формата : Base MediaИдентификатор кодека : isomРазмер файла : 1,19 ГбайтПродолжительность : 1 ч. 23 м.Режим общего битрейта : ПеременныйОбщий поток : 2029 Кбит/секНазвание фильма : Police Academy 6 City Under Siege 1989 HDRip x264 960x rip by Frost O SЖанр : ComedyТип содержимого : Short FilmДата кодирования : UTC 2016-05-03 13:14:40Дата пометки : UTC 2016-05-03 13:16:23Программа кодирования : MkvToMp4 version: 0.224 (x64)Обложка : YesПримечание : rip by Frost O.SLongDescription : Вспышка криминальной активности под кодовым названием «Операция Хаос» может потребовать занавеса для ничего не подозревающего города. Лучшие полицейские специалисты из знаменитой Полицейской Академии взялись за дело.

ВидеоИдентификатор : 1Формат : AVCФормат/Информация : Advanced Video CodecПрофиль формата : [email protected]Параметр CABAC формата : ДаПараметр ReFrames формата : 9 кадровИдентификатор кодека : avc1Идентификатор кодека/Информация : Advanced Video CodingПродолжительность : 1 ч. 23 м.Битрейт : 1632 Кбит/секМаксимальный битрейт : 5688 Кбит/секШирина : 960 пикселейВысота : 540 пикселейСоотношение сторон : 16:9Режим частоты кадров : ПостоянныйЧастота кадров : 23,976 кадра/секЦветовое пространство : YUVСубдискретизация насыщенности : 4:2:0Битовая глубина : 8 битТип развёртки : ПрогрессивнаяБит/(Пиксели*Кадры) : 0.131Размер потока : 979 Мбайт (80%)Библиотека кодирования : x264 core 130 r2273 b3065e6Настройки программы : cabac=1 / ref=9 / deblock=1:-2:-2 / analyse=0x3:0x113 / me=umh / subme=11 / psy=1 / psy_rd=1.10:0.00 / mixed_ref=1 / me_range=32 / chroma_me=1 / trellis=2 / 8x8dct=1 / cqm=0 / deadzone=21,11 / fast_pskip=0 / chroma_qp_offset=-2 / threads=3 / lookahead_threads=1 / sliced_threads=0 / nr=0 / decimate=0 / interlaced=0 / bluray_compat=0 / constrained_intra=0 / bframes=8 / b_pyramid=2 / b_adapt=2 / b_bias=0 / direct=3 / weightb=1 / open_gop=0 / weightp=2 / keyint=250 / keyint_min=23 / scenecut=40 / intra_refresh=0 / rc_lookahead=40 / rc=2pass / mbtree=1 / bitrate=1632 / ratetol=1.0 / qcomp=0.60 / qpmin=0 / qpmax=69 / qpstep=4 / cplxblur=20.0 / qblur=0.5 / ip_ratio=1.40 / aq=1:0.80Язык : EnglishДата кодирования : UTC 2016-05-03 13:14:40Дата пометки : UTC 2016-05-03 13:15:04Основные цвета : BT.709Характеристики трансфера : BT.709Коэффициенты матрицы : BT.709

Аудио #1Идентификатор : 2Формат : AACФормат/Информация : Advanced Audio CodecПрофиль формата : LCИдентификатор кодека : 40Продолжительность : 1 ч. 23 м.Вид битрейта : ПеременныйБитрейт : 128 Кбит/секМаксимальный битрейт : 132 Кбит/секКаналы : 2 каналаРасположение каналов : Front: L RЧастота : 48,0 КГцМетод сжатия : С потерямиРазмер потока : 76,9 Мбайт (6%)Заголовок : [Dub] Varus VideoЯзык : RussianДата кодирования : UTC 2016-05-03 13:14:58Дата пометки : UTC 2016-05-03 13:15:04

Аудио #2Идентификатор : 3Формат : AACФормат/Информация : Advanced Audio CodecПрофиль формата : LCИдентификатор кодека : 40Продолжительность : 1 ч. 23 м.Вид битрейта : ПеременныйБитрейт : 128 Кбит/секМаксимальный битрейт : 131 Кбит/секКаналы : 2 каналаРасположение каналов : Front: L RЧастота : 48,0 КГцМетод сжатия : С потерямиРазмер потока : 76,9 Мбайт (6%)Заголовок : [DVO] HTBЯзык : RussianДата кодирования : UTC 2016-05-03 13:15:00Дата пометки : UTC 2016-05-03 13:15:04

Аудио #3Идентификатор : 4Формат : AACФормат/Информация : Advanced Audio CodecПрофиль формата : LCИдентификатор кодека : 40Продолжительность : 1 ч. 23 м.Вид битрейта : ПостоянныйБитрейт : 128 Кбит/секКаналы : 1 каналРасположение каналов : Front: CЧастота : 48,0 КГцМетод сжатия : С потерямиРазмер потока : 76,9 Мбайт (6%)Заголовок : [VO] GavrilovЯзык : RussianДата кодирования : UTC 2016-05-03 13:15:02Дата пометки : UTC 2016-05-03 13:15:04
Полицейская академия 7: Миссия в Москве / Police Academy: Mission to Moscow«Just when we thought the Cold War was over, leave it to these guys to heat it up again»

Год выпуска: 1994
Страна: США
Жанр: комедия, криминал
Продолжительность: 01:22:42
Перевод №1: Профессиональный (многоголосый, закадровый) Lazer Video
Перевод №2: Профессиональный (двухголосый, закадровый) НТВ/ОРТ/Россия
Перевод №3: Авторский (одноголосый, закадровый) А.Гаврилов
Cубтитры: нет
Режиссер: Алан Меттер / Alan Metter
В ролях: Джордж Гейнс / George Gaynes, Майкл Уинслоу / Michael Winslow, Дэвид Граф / David Graf, Лесли Истербрук / Leslie Easterbrook, Дж. У. Бейли / G.W. Bailey, Кристофер Ли / Christopher Lee, Рон Перлман / Ron Perlman, Клэр Форлани / Claire Forlani, Чарли Шлаттер / Charlie Schlatter, Ричард Израэль / Richard Israel и другие .
Описание: Полицейская академия в Москве! Русский балет. Русская водка. И русская мафия. Самая опасная операция в жизни полицейских академиков! Смогут ли они вернуться живыми?..
Релиз группы

В кабинете начальника милиции Александра Николаевича Ракова флаг Российской Федерации и настольный флажок выглядят как флаг Республики Сербской.
В одной из сцен фильма показывается обгоревшее здание Верховного Совета России (Белый дом), после танкового обстрела.
В качестве дачи главаря русской мафии Константина Канали фигурировал клуб в коттеджном поселке «Жуковка-2» (в период съемки — правительственный дачный поселок).
Сцена в метро снималась на станции Новослободская Кольцевой линии..

Качество: HDRip / <a href="viewtopic.php?t=4677233" class="postLink">BDRip 720p</a>
Формат: MP4
Видео кодек: H.264
Аудио кодек: AAC
Видео: 958x540 AR:16/9 1740 kbps 23.976 fps
Аудио №1: [Russian] 2ch 48 kHz 128 kbps - [MVO] Lazer Video
Аудио №2: [Russian] 2ch 48 kHz 128 kbps - [DVO] НТВ/ОРТ/Россия
Аудио №3: [Russian] 2ch 48 kHz 128 kbps - [VO] А.Гаврилов
avs [info]: 958x540p 1:1 @ 2997/125 fps (cfr)
x264 [info]: using SAR=1/1
x264 [info]: using cpu capabilities: MMX2 SSE2Fast SSSE3 SSE4.2 LZCNT
x264 [info]: profile High, level 4.1

x264 [info]: frame I:1213 Avg QP:18.86 size: 66172
x264 [info]: frame P:23764 Avg QP:22.51 size: 19148
x264 [info]: frame B:93979 Avg QP:24.62 size: 5783
x264 [info]: consecutive B-frames: 1.9% 2.2% 5.8% 15.9% 15.7% 37.5% 8.5% 8.1% 2.8% 1.2% 0.4%
x264 [info]: mb I I16..4: 4.1% 81.8% 14.2%
x264 [info]: mb P I16..4: 0.5% 6.1% 1.0% P16..4: 36.9% 40.3% 10.7% 0.0% 0.0% skip: 4.4%
x264 [info]: mb B I16..4: 0.0% 0.6% 0.1% B16..8: 44.2% 17.2% 2.0% direct: 3.2% skip:32.6% L0:44.9% L1:49.0% BI: 6.0%
x264 [info]: 8x8 transform intra:81.3% inter:62.6%
x264 [info]: direct mvs spatial:99.1% temporal:0.9%
x264 [info]: coded y,uvDC,uvAC intra: 93.3% 72.8% 34.4% inter: 22.1% 14.2% 1.8%
x264 [info]: i16 v,h,dc,p: 29% 24% 4% 43%
x264 [info]: i8 v,h,dc,ddl,ddr,vr,hd,vl,hu: 7% 6% 3% 12% 18% 16% 15% 12% 12%
x264 [info]: i4 v,h,dc,ddl,ddr,vr,hd,vl,hu: 10% 7% 3% 10% 17% 16% 15% 12% 12%
x264 [info]: i8c dc,h,v,p: 31% 29% 21% 19%
x264 [info]: Weighted P-Frames: Y:3.0% UV:0.9%
x264 [info]: ref P L0: 45.9% 11.9% 19.3% 6.6% 5.9% 4.0% 3.9% 2.2% 0.3% 0.0%
x264 [info]: ref B L0: 71.3% 13.5% 7.2% 3.5% 2.6% 1.4% 0.5%
x264 [info]: ref B L1: 91.3% 8.7%
x264 [info]: kb/s:1739.46

x264 [total]: encoded 118956 frames, 6.14 fps, 1739.46 kb/s
ОбщееПолное имя : D:\Torrents\Police Academy.Collection.1984-1994.HDRip.x264.960x\Police Academy Mission to Moscow.1994.HDRip.x264.960x.rip by Frost O.S.mp4Формат : MPEG-4Профиль формата : Base MediaИдентификатор кодека : isomРазмер файла : 1,24 ГбайтПродолжительность : 1 ч. 22 м.Режим общего битрейта : ПеременныйОбщий поток : 2138 Кбит/секНазвание фильма : Police Academy Mission to Moscow 1994 HDRip x264 960x rip by Frost O SЖанр : ComedyТип содержимого : Short FilmДата кодирования : UTC 2016-05-04 13:15:48Дата пометки : UTC 2016-05-04 13:17:29Программа кодирования : MkvToMp4 version: 0.224 (x64)Обложка : YesПримечание : rip by Frost O.SLongDescription : Полицейская академия в Москве! Русский балет. Русская водка. И русская мафия. Самая опасная операция в жизни полицейских академиков! Смогут ли они вернуться живыми?..

ВидеоИдентификатор : 1Формат : AVCФормат/Информация : Advanced Video CodecПрофиль формата : [email protected]Параметр CABAC формата : ДаПараметр ReFrames формата : 8 кадровИдентификатор кодека : avc1Идентификатор кодека/Информация : Advanced Video CodingПродолжительность : 1 ч. 22 м.Битрейт : 1740 Кбит/секМаксимальный битрейт : 9825 Кбит/секШирина : 958 пикселейВысота : 540 пикселейСоотношение сторон : 16:9Режим частоты кадров : ПостоянныйЧастота кадров : 23,976 кадра/секЦветовое пространство : YUVСубдискретизация насыщенности : 4:2:0Битовая глубина : 8 битТип развёртки : ПрогрессивнаяБит/(Пиксели*Кадры) : 0.140Размер потока : 1,00 Гбайт (81%)Библиотека кодирования : x264 core 130 r2273 b3065e6Настройки программы : cabac=1 / ref=8 / deblock=1:-2:-2 / analyse=0x3:0x113 / me=umh / subme=11 / psy=1 / psy_rd=1.10:0.00 / mixed_ref=1 / me_range=32 / chroma_me=1 / trellis=2 / 8x8dct=1 / cqm=0 / deadzone=21,11 / fast_pskip=0 / chroma_qp_offset=-2 / threads=3 / lookahead_threads=1 / sliced_threads=0 / nr=0 / decimate=0 / interlaced=0 / bluray_compat=0 / constrained_intra=0 / bframes=10 / b_pyramid=2 / b_adapt=2 / b_bias=0 / direct=3 / weightb=1 / open_gop=0 / weightp=2 / keyint=250 / keyint_min=23 / scenecut=40 / intra_refresh=0 / rc_lookahead=40 / rc=2pass / mbtree=1 / bitrate=1740 / ratetol=1.0 / qcomp=0.60 / qpmin=0 / qpmax=69 / qpstep=4 / cplxblur=20.0 / qblur=0.5 / ip_ratio=1.40 / aq=1:0.80Язык : EnglishДата кодирования : UTC 2016-05-04 13:15:48Дата пометки : UTC 2016-05-04 13:16:21Основные цвета : BT.709Характеристики трансфера : BT.709Коэффициенты матрицы : BT.709

Аудио #1Идентификатор : 2Формат : AACФормат/Информация : Advanced Audio CodecПрофиль формата : LCИдентификатор кодека : 40Продолжительность : 1 ч. 22 м.Вид битрейта : ПеременныйБитрейт : 128 Кбит/секМаксимальный битрейт : 135 Кбит/секКаналы : 2 каналаРасположение каналов : Front: L RЧастота : 48,0 КГцМетод сжатия : С потерямиРазмер потока : 75,7 Мбайт (6%)Заголовок : [MVO] Lazer VideoЯзык : RussianДата кодирования : UTC 2016-05-04 13:16:07Дата пометки : UTC 2016-05-04 13:16:21

Аудио #2Идентификатор : 3Формат : AACФормат/Информация : Advanced Audio CodecПрофиль формата : LCИдентификатор кодека : 40Продолжительность : 1 ч. 22 м.Вид битрейта : ПеременныйБитрейт : 128 Кбит/секМаксимальный битрейт : 131 Кбит/секКаналы : 2 каналаРасположение каналов : Front: L RЧастота : 48,0 КГцМетод сжатия : С потерямиРазмер потока : 75,7 Мбайт (6%)Заголовок : [DVO] HTB OPT RussiaЯзык : RussianДата кодирования : UTC 2016-05-04 13:16:14Дата пометки : UTC 2016-05-04 13:16:21

Аудио #3Идентификатор : 4Формат : AACФормат/Информация : Advanced Audio CodecПрофиль формата : LCИдентификатор кодека : 40Продолжительность : 1 ч. 22 м.Вид битрейта : ПеременныйБитрейт : 128 Кбит/секМаксимальный битрейт : 132 Кбит/секКаналы : 2 каналаРасположение каналов : Front: L RЧастота : 48,0 КГцМетод сжатия : С потерямиРазмер потока : 75,7 Мбайт (6%)Заголовок : [VO] GavrilovЯзык : RussianДата кодирования : UTC 2016-05-04 13:16:15Дата пометки : UTC 2016-05-04 13:16:21
Хочу выразить отдельную благодарность пользователю и Snake1965 за помощь в оформлении раздачи

Трекер:  [ 04-Май-2016 15:30 ]

  

Скачать .torrent

Размер .torrent файла 46 KB


Размер: 9.03 GB
Хэш (hash) релиза: f6ba11a3eba2cbac409029f7b4437127c78f149f

Еще никто не оставлял запись к записи скачать торрент [VIDEO] Полицейская академия: Коллекция Police Academy: Collection . Будь первым!

!Обратная связь