1x15 La leyenda del mar azul
Shokugeki no Soma 11

Скачать через торрент [VIDEO] Побег из Шоушенка The Shawshank Redemption бесплатно русская версия torrent активатор

Статистика раздачи
Размер:  4.1 GB   |    Зарегистрирован:  1 год 11 месяцев   |    .torrent скачан:  74 раза   |   
Раздают:  1  
   
загрузка...
 
Автор Сообщение

Galfimbul

avatar Galfimbul


Побег из Шоушенка / The Shawshank Redemption
Год выпуска: 1994
Страна: США
Жанр: драма, криминал
Продолжительность: 02:22:33
Перевод 1: Профессиональный (многоголосый закадровый) РТР (ТВЦ)
Перевод 2: Профессиональный (многоголосый закадровый) Киномания
Перевод 3: Одноголосый закадровый Юрий Сербин
Перевод 4: Профессиональный (многоголосый закадровый) LDV (отдельно)
Перевод 5: Профессиональный (многоголосый закадровый) СОЮЗ Видео (отдельно)
Перевод 6: Профессиональный (двухголосый закадровый) Videogram (отдельно)
Перевод 7: Профессиональный (двухголосый закадровый) Видеофильм (отдельно)
Перевод 8: Одноголосый закадровый Андрей Гаврилов (отдельно)
Перевод 9: Одноголосый закадровый Юрий Живов (отдельно)
Оригинальная аудиодорожка: английский (отдельно)

Режиссер: Фрэнк Дарабонт / Frank Darabont

В ролях: Тим Роббинс, Морган Фриман, Боб Гантон, Уильям Сэдлер, Кланси Браун, Гил Беллоуз, Рени Блэйн, Брайан Дилэйт, Брайан Либби, Пол МакКрейн, Дон МакМэнус, Скотт Манн, Джозеф Раньо, Марк Ролстон, Нил Саммерс, Джеймс Уитмор, Джон Хортон, Джуд Чикколелла, Джеффри ДеМанн, Ларри Бранденбург

Описание: Успешный банкир Энди Дюфрейн обвинен в убийстве собственной жены и ее любовника. Оказавшись в тюрьме под названием Шоушенк, он сталкивается с жестокостью и беззаконием, царящими по обе стороны решетки. Каждый, кто попадает в эти стены, становится их рабом до конца жизни. Но Энди, вооруженный живым умом и доброй душой, отказывается мириться с приговором судьбы и начинает разрабатывать невероятно дерзкий план своего освобождения.

Качество видео: BDRip |<a href="viewtopic.php?t=3956478" class="postLink">BDRemux 1080p</a>|
Формат видео: MP4

Видео: AVC (x264), 1280x720 (1.77:1), ~2500 kbps, 23.976 fps, 0.113 bpp
Аудио 1: AСC, 48 KHz, 2 ch, 160 kbps
Аудио 2: AСC, 48 KHz, 2 ch, 160 kbps
Аудио 3: AСC, 48 KHz, 2 ch, 160 kbps
Аудио 4-10: AСC, 48 KHz, 2 ch, 160 kbps
Cубтитры: русские, английские
Формат субтитров: softsub (SRT)

[b]Релиз:

</span></a></span>
GeneralUnique ID : 193026027923157669855833968780497264530 (0x913775F1E61B62BF95AD7567BF6A1F92)Complete name : C:\Pobeg iz Shawshank 1994\Побег из Шоушенка 1994\Pobeg iz Shawshank [email protected] : MatroskaFormat version : Version 4 / Version 2File size : 2.97 GiBDuration : 2h 22mnOverall bit rate : 2 981 KbpsMovie name : The Shawshank Redemption / 1994 [email protected]=-Encoded date : UTC 2016-05-01 18:06:40Writing application : mkvmerge v9.1.0 ('Little Earthquakes') 64bitWriting library : libebml v1.3.3 + libmatroska v1.4.4

VideoID : 1Format : AVCFormat/Info : Advanced Video CodecFormat profile : [email protected] settings, CABAC : YesFormat settings, ReFrames : 8 framesCodec ID : V_MPEG4/ISO/AVCDuration : 2h 22mnBit rate : 2 499 KbpsWidth : 1 280 pixelsHeight : 720 pixelsDisplay aspect ratio : 16:9Frame rate mode : ConstantFrame rate : 23.976 (24000/1001) fpsColor space : YUVChroma subsampling : 4:2:0Bit depth : 8 bitsScan type : ProgressiveBits/(Pixel*Frame) : 0.113Stream size : 2.49 GiB (84%)Title : Rip by nnlabetikWriting library : x264 core 148 r2692 64f4e24Encoding settings : cabac=1 / ref=8 / deblock=1:-2:-1 / analyse=0x3:0x113 / me=umh / subme=11 / psy=1 / psy_rd=1.00:0.00 / mixed_ref=1 / me_range=32 / chroma_me=1 / trellis=2 / 8x8dct=1 / cqm=0 / deadzone=21,11 / fast_pskip=0 / chroma_qp_offset=-2 / threads=6 / lookahead_threads=1 / sliced_threads=0 / nr=0 / decimate=1 / interlaced=0 / bluray_compat=0 / constrained_intra=0 / bframes=10 / b_pyramid=2 / b_adapt=2 / b_bias=0 / direct=3 / weightb=1 / open_gop=0 / weightp=0 / keyint=240 / keyint_min=23 / scenecut=40 / intra_refresh=0 / rc_lookahead=60 / rc=2pass / mbtree=0 / bitrate=2499 / ratetol=1.0 / qcomp=0.60 / qpmin=0 / qpmax=69 / qpstep=4 / cplxblur=20.0 / qblur=0.5 / vbv_maxrate=50000 / vbv_bufsize=62500 / nal_hrd=none / filler=0 / ip_ratio=1.35 / pb_ratio=1.25 / aq=1:1.00Language : EnglishDefault : YesForced : NoColor range : LimitedColor primaries : BT.709Transfer characteristics : BT.709Matrix coefficients : BT.709

Audio #1ID : 2Format : AACFormat/Info : Advanced Audio CodecFormat profile : LCCodec ID : A_AACDuration : 2h 22mnBit rate : 160 KbpsChannel(s) : 2 channelsChannel positions : Front: L RSampling rate : 48.0 KHzFrame rate : 46.875 fps (1024 spf)Compression mode : LossyStream size : 163 MiB (5%)Title : PTPLanguage : RussianDefault : YesForced : No

Audio #2ID : 3Format : AACFormat/Info : Advanced Audio CodecFormat profile : LCCodec ID : A_AACDuration : 2h 22mnBit rate : 160 KbpsChannel(s) : 2 channelsChannel positions : Front: L RSampling rate : 48.0 KHzFrame rate : 46.875 fps (1024 spf)Compression mode : LossyStream size : 163 MiB (5%)Title : KinovaniyaLanguage : RussianDefault : NoForced : No

Audio #3ID : 4Format : AACFormat/Info : Advanced Audio CodecFormat profile : LCCodec ID : A_AACDuration : 2h 22mnBit rate : 160 KbpsChannel(s) : 2 channelsChannel positions : Front: L RSampling rate : 48.0 KHzFrame rate : 46.875 fps (1024 spf)Compression mode : LossyStream size : 163 MiB (5%)Title : SerbinLanguage : RussianDefault : NoForced : No

Text #1ID : 5Format : UTF-8Codec ID : S_TEXT/UTF8Codec ID/Info : UTF-8 Plain TextDuration : 2h 17mnBit rate : 91 bpsCount of elements : 1113Stream size : 91.9 KiB (0%)Language : RussianDefault : NoForced : No

Text #2ID : 6Format : UTF-8Codec ID : S_TEXT/UTF8Codec ID/Info : UTF-8 Plain TextDuration : 2h 17mnBit rate : 87 bpsCount of elements : 1373Stream size : 88.7 KiB (0%)Language : RussianDefault : NoForced : No

Text #3ID : 7Format : UTF-8Codec ID : S_TEXT/UTF8Codec ID/Info : UTF-8 Plain TextDuration : 2h 15mnBit rate : 56 bpsCount of elements : 1687Stream size : 56.1 KiB (0%)Language : EnglishDefault : NoForced : No

Menu00:00:00.000 : en:On Trial00:04:39.967 : en:Icy/remorseless00:06:39.500 : en:This guy who can get it00:10:06.800 : en:A stiff breeze and other arrivals00:13:53.133 : en:Fresh fish00:17:58.967 : en:Nameless00:23:41.967 : en:First request00:28:59.467 : en:Andy's routine00:33:30.967 : en:Beer on the roof00:38:48.634 : en:Just like everybody else00:41:03.967 : en:Second request00:42:38.133 : en:A pair of beatings00:46:11.666 : en:Welcome back00:48:11.633 : en:Cell toss00:51:18.500 : en:A cottage industry00:57:15.800 : en:Exactly what they take01:00:23.966 : en:Brooks was here01:05:41.966 : en:A shipment for Andy01:07:12.666 : en:Time out for Mozart01:10:59.466 : en:The danger of hope01:13:48.833 : en:Parole rejection present01:15:51.133 : en:Keeping the books01:21:03.466 : en:A crook in prison01:23:53.966 : en:Tommy Williams01:29:20.966 : en:Elmo Blatch01:32:04.999 : en:Solitary01:35:31.466 : en:Sniper's target01:38:22.966 : en:Catching Norton's drift01:40:32.466 : en:A certain hay field01:47:16.799 : en:The longest night01:50:39.499 : en:Vanished01:54:24.299 : en:Andy's way out02:00:28.332 : en:His judgement cometh02:04:01.965 : en:Not meant to be caged02:05:43.465 : en:Rehabilitated?02:08:18.165 : en:On the outside02:10:05.798 : en:Honoring a promise02:12:48.298 : en:"No good thing ever dies"02:16:19.631 : en:A free man's dreams02:17:59.331 : en:Dedication and End Credits


Трекер:  [ 01-Май-2016 21:00 ]

  

Скачать .torrent

Размер .torrent файла 11 KB


Размер: 4.1 GB
Хэш (hash) релиза: b316f953b557349594f63bfa24b3787c7bf3097a

Еще никто не оставлял запись к записи скачать торрент [VIDEO] Побег из Шоушенка The Shawshank Redemption . Будь первым!

!Обратная связь