Глеб Матвейчук в программе Пусть говорят 5 июня 2014г Mp3 | Dan Cohen | Hedge (Finance)

Скачать через торрент [VIDEO] Анкор, еще анкор! бесплатно русская версия torrent активатор

Статистика раздачи
Размер:  828 MB   |    Зарегистрирован:  2 года 2 месяца   |    .torrent скачан:  25 раз   |   
Раздают:  1  
   
загрузка...
 
Автор Сообщение

Galfimbul

avatar Galfimbul


Анкор, еще анкор!
Год выпуска: 1992
Страна: Россия
Жанр: драма, комедия, мелодрама
Продолжительность: 01:35:42
Перевод: Не требуется

Режиссер: Петр Тодоровский
Сценарий: Петр Тодоровский
Продюсер: Мира Тодоровская
Оператор: Юрий Райский
Композитор: Петр Тодоровский, Игорь Кантюков
Художник: Валентин Коновалов
Монтаж: Ольга Колотикова

В ролях: Валентин Гафт, Ирина Розанова, Евгений Миронов, Елена Яковлева, Лариса Малеванная, Сергей Никоненко, Владимир Ильин, Андрей Ильин, Анатолий Ведёнкин, Ольга Лебедева, Александр Пашутин, Людмила Гнилова, Елена Котихина, Станислав Говорухин

Описание: Комедийная драма про жизнь маленького провинциального гарнизона. Действие происходит после войны - тут все на виду: семейные ссоры, любовь, смерть, предательство, человеческая подлость и трусость. Это фильм про людей, которые выиграли войну.

Качество: DVDRip |<a href="viewtopic.php?t=2267359" class="postLink">DVD5</a>|
Формат: MP4

Видео: AVC, 480x360, [email protected], AR:1.33, 1080 kbps, 25.000 fps, 0.250 bpp
Аудио: AAC, 2ch, 48 kHz, 128 kbps

[b]Релиз:

</a></span></span>
ОбщееУникальный идентификатор : 176947737920107655112851894560225280151 (0x851EE50B664340DABFC4A808EA70C097)Полное имя : C:\Ankor_esche_ankor_1992\[email protected]Формат : MatroskaВерсия формата : Version 4 / Version 2Размер файла : 828 МбайтПродолжительность : 1 ч. 35 м.Общий поток : 1209 Кбит/секНазвание фильма : Анкор, еще анкор! / 1992 [email protected]=-Дата кодирования : UTC 2016-04-26 12:16:29Программа кодирования : mkvmerge v9.1.0 ('Little Earthquakes') 64bitБиблиотека кодирования : libebml v1.3.3 + libmatroska v1.4.4Attachments : 500.jpg

ВидеоИдентификатор : 1Формат : AVCФормат/Информация : Advanced Video CodecПрофиль формата : [email protected]Параметр CABAC формата : ДаПараметр ReFrames формата : 8 кадровИдентификатор кодека : V_MPEG4/ISO/AVCПродолжительность : 1 ч. 35 м.Битрейт : 1079 Кбит/секШирина : 480 пикселейВысота : 360 пикселейСоотношение сторон : 4:3Режим частоты кадров : ПостоянныйЧастота кадров : 25,000 кадров/секЦветовое пространство : YUVСубдискретизация насыщенности : 4:2:0Битовая глубина : 8 битТип развёртки : ПрогрессивнаяБит/(Пиксели*Кадры) : 0.250Размер потока : 739 Мбайт (89%)Заголовок : Rip by nnlabetikБиблиотека кодирования : x264 core 148 r2692 64f4e24Настройки программы : cabac=1 / ref=8 / deblock=1:-2:-1 / analyse=0x3:0x113 / me=umh / subme=11 / psy=1 / psy_rd=1.00:0.00 / mixed_ref=1 / me_range=32 / chroma_me=1 / trellis=2 / 8x8dct=1 / cqm=0 / deadzone=21,11 / fast_pskip=0 / chroma_qp_offset=-2 / threads=6 / lookahead_threads=1 / sliced_threads=0 / nr=0 / decimate=1 / interlaced=0 / bluray_compat=0 / constrained_intra=0 / bframes=10 / b_pyramid=2 / b_adapt=2 / b_bias=0 / direct=3 / weightb=1 / open_gop=0 / weightp=0 / keyint=250 / keyint_min=25 / scenecut=40 / intra_refresh=0 / rc_lookahead=60 / rc=2pass / mbtree=0 / bitrate=1079 / ratetol=1.0 / qcomp=0.60 / qpmin=0 / qpmax=69 / qpstep=4 / cplxblur=20.0 / qblur=0.5 / vbv_maxrate=62500 / vbv_bufsize=78125 / nal_hrd=none / filler=0 / ip_ratio=1.35 / pb_ratio=1.25 / aq=1:1.00Язык : RussianDefault : ДаForced : НетЦветовой диапазон : LimitedОсновные цвета : BT.601 PALХарактеристики трансфера : BT.470 System B, BT.470 System GКоэффициенты матрицы : BT.601

АудиоИдентификатор : 2Формат : AACФормат/Информация : Advanced Audio CodecПрофиль формата : LCИдентификатор кодека : A_AACПродолжительность : 1 ч. 35 м.Битрейт : 128 Кбит/секКаналы : 2 каналаРасположение каналов : Front: L RЧастота : 48,0 КГцЧастота кадров : 46,875 кадров/сек (1024 spf)Метод сжатия : С потерямиРазмер потока : 87,7 Мбайт (11%)Язык : RussianDefault : ДаForced : Нет

Меню00:00:00.000 : :Chapter 0100:03:49.320 : :Chapter 0200:08:51.840 : :Chapter 0300:13:43.560 : :Chapter 0400:16:15.840 : :Chapter 0500:19:22.680 : :Chapter 0600:25:25.320 : :Chapter 0700:27:53.520 : :Chapter 0800:32:49.560 : :Chapter 0900:36:28.800 : :Chapter 1000:40:41.520 : :Chapter 1100:44:50.640 : :Chapter 1200:49:09.240 : :Chapter 1300:52:13.800 : :Chapter 1400:55:31.440 : :Chapter 1501:01:18.720 : :Chapter 1601:04:12.120 : :Chapter 1701:07:04.800 : :Chapter 1801:10:45.960 : :Chapter 1901:13:57.360 : :Chapter 2001:18:15.360 : :Chapter 2101:20:52.440 : :Chapter 2201:27:34.320 : :Chapter 2301:30:48.840 : :Chapter 2401:35:41.520 : :Chapter 25


Трекер:  [ 26-Апр-2016 19:30 ]

  

Скачать .torrent

Размер .torrent файла 16 KB


Размер: 828 MB
Хэш (hash) релиза: dc66bb056faa5c035b6ad198a318152c26517ffe

Еще никто не оставлял запись к записи скачать торрент [VIDEO] Анкор, еще анкор! . Будь первым!

!Обратная связь