Loulou Graffiti.1992.vff.webdl.720p.x264.aac.-syntax- | Sabagebu! | Watch Movie

Скачать через торрент [SERIAL] Следователь Тихонов Серии: 1-20 из 20 бесплатно русская версия torrent активатор

Статистика раздачи
Размер:  12.07 GB   |    Зарегистрирован:  2 года 2 месяца   |    .torrent скачан:  29 раз   |   
Раздают:  1  
   
загрузка...
 
Автор Сообщение

Galfimbul

avatar Galfimbul


Следователь Тихонов
Год выпуска: 2016
Страна: Россия
Жанр: детектив, криминал
Продолжительность: 20 x ~ 00:45:00
Перевод: Не требуется

Режиссер: Сергей Снежкин, Эдуард Оганесян

В ролях: Михаил Ефремов, Светлана Иванова, Сергей Шакуров, Виктория Толстоганова, Сергей Гармаш, Фёдор Бондарчук, Максим Матвеев, Мария Миронова, Алексей Гуськов, Игорь Скляр, Аглая Тарасова, Юрий Ицков, Евгений Харланов, Илья Носков, Михаил Сафронов, Артур Ваха, Сергей Перегудов, Светлана Немоляева, Анатолий Лобоцкий, Юлия Ауг, Мария Луговая, Александра Мареева, Игорь Черневич, Александр Пашутин, Юлия Яковлева, Александр Тютин, Наталья Ткаченко

Описание: Станислав Тихонов следователь по особо важным делам московского уголовного розыска. Вместе со своей оперативной группой Тихонов расследует самые громкие преступления, совершенные в 1970-х годах. Среди них похищение бесценной скрипки Страдивари, исчезновение метапроптизола — уникального «лекарства против страха», вывоз контрабандой ордена Святого Александра Невского. Сложные, запутанные расследования, дерзкие решения, опасные погони — следователь Тихонов не зря считается лучшим специалистом в раскрытии самых запутанных дел. Но и его личная жизнь полна самых неожиданных событий — в него влюбляются самые красивые женщины столицы, а самому Тихонову для счастья нужна только одна-единственная, но кто она — он и сам определиться не может.

Качество: WEB-DLRip | WEB-DL 1080p
Формат: MP4
Видео: 960x540, [email protected], AR:1.77, 1740 kbps, 25.000 fps
Аудио: 2ch, 48 kHz, 128 kbps

[b]Релиз:

</a></span></span>
ОбщееУникальный идентификатор : 210037757834591542855822337894629889062 (0x9E03CCFC6A71EB87BD54AB2A737DD426)Полное имя : E:\Rutracker\Следователь Тихонов 2016\[email protected]Формат : MatroskaВерсия формата : Version 4 / Version 2Размер файла : 595 МбайтПродолжительность : 44 м.Общий поток : 1869 Кбит/секНазвание фильма : Следователь Тихонов / 2016 [email protected]=-Дата кодирования : UTC 2016-04-16 06:27:35Программа кодирования : mkvmerge v9.0.1 ('Obstacles') 64bitБиблиотека кодирования : libebml v1.3.3 + libmatroska v1.4.4

ВидеоИдентификатор : 1Формат : AVCФормат/Информация : Advanced Video CodecПрофиль формата : [email protected]Параметр CABAC формата : ДаПараметр ReFrames формата : 8 кадровИдентификатор кодека : V_MPEG4/ISO/AVCПродолжительность : 44 м.Битрейт : 1739 Кбит/секШирина : 960 пикселейВысота : 540 пикселейСоотношение сторон : 16:9Режим частоты кадров : ПостоянныйЧастота кадров : 25,000 кадров/секЦветовое пространство : YUVСубдискретизация насыщенности : 4:2:0Битовая глубина : 8 битТип развёртки : ПрогрессивнаяБит/(Пиксели*Кадры) : 0.134Размер потока : 553 Мбайт (93%)Заголовок : Rip by nnlabetikБиблиотека кодирования : x264 core 148 r2665 a01e339Настройки программы : cabac=1 / ref=8 / deblock=1:-2:-1 / analyse=0x3:0x113 / me=umh / subme=11 / psy=1 / psy_rd=1.00:0.00 / mixed_ref=1 / me_range=32 / chroma_me=1 / trellis=2 / 8x8dct=1 / cqm=0 / deadzone=21,11 / fast_pskip=0 / chroma_qp_offset=-2 / threads=4 / lookahead_threads=1 / sliced_threads=0 / nr=0 / decimate=1 / interlaced=0 / bluray_compat=0 / constrained_intra=0 / bframes=10 / b_pyramid=2 / b_adapt=2 / b_bias=0 / direct=3 / weightb=1 / open_gop=0 / weightp=0 / keyint=250 / keyint_min=25 / scenecut=40 / intra_refresh=0 / rc_lookahead=60 / rc=2pass / mbtree=0 / bitrate=1739 / ratetol=1.0 / qcomp=0.60 / qpmin=0 / qpmax=69 / qpstep=4 / cplxblur=20.0 / qblur=0.5 / vbv_maxrate=25000 / vbv_bufsize=31250 / nal_hrd=none / filler=0 / ip_ratio=1.35 / pb_ratio=1.25 / aq=1:1.00Язык : RussianDefault : ДаForced : НетЦветовой диапазон : LimitedОсновные цвета : BT.709Характеристики трансфера : BT.709Коэффициенты матрицы : BT.709

АудиоИдентификатор : 2Формат : AACФормат/Информация : Advanced Audio CodecПрофиль формата : LCИдентификатор кодека : A_AACПродолжительность : 44 м.Битрейт : 132 Кбит/секКаналы : 2 каналаРасположение каналов : Front: L RЧастота : 48,0 КГцЧастота кадров : 46,875 кадров/сек (1024 spf)Метод сжатия : С потерямиРазмер потока : 41,4 Мбайт (7%)Язык : RussianDefault : ДаForced : Нет


Трекер:  [ 23-Апр-2016 21:30 ]

  

Скачать .torrent

Размер .torrent файла 32 KB


Размер: 12.07 GB
Хэш (hash) релиза: cb7119e5e450c3b8f4298d2cbea79913badcf042

Еще никто не оставлял запись к записи скачать торрент [SERIAL] Следователь Тихонов Серии: 1-20 из 20 . Будь первым!

!Обратная связь