Watch Movie | Had Done Meaning | David Alford

Скачать через торрент [VIDEO] Туз Asso бесплатно русская версия torrent активатор

Статистика раздачи
Размер:  898 MB   |    Зарегистрирован:  2 года 2 месяца   |    .torrent скачан:  20 раз   |   
Раздают:  1  
   
загрузка...
 
Автор Сообщение

Galfimbul

avatar Galfimbul


Туз / Asso

Год выпуска: 1981
Страна: Италия
Жанр: комедия
Продолжительность: 01:30:51
Перевод №1: [Русский] Профессиональный (многоголосый, закадровый) РТР (Россия 1)
Перевод №2: [Русский] Профессиональный (двухголосый, закадровый) «Мастер Тэйп Интернейшнл»
Перевод №3: [Русский] Авторский (одноголосый, закадровый) Андрей Мудров
Cубтитры: нет
Режиссер: Франко Кастеллано / Franco Castellano, Джузеппе Моччиа / Giuseppe Moccia
В ролях: Адриано Челентано / Adriano Celentano, Эдвиж Фенек / Edwige Fenech, Ренато Сальватори / Renato Salvatori, Сильва Кошина / Sylva Koscina, Пиппо Сантонастасо / Pippo Santonastaso, Джанни Маньи / Gianni Magni и другие .
Описание: Профессиональный карточный шулер по кличке Туз накануне свадьбы объявляет о своем решении завязать. Но неожиданно оказывается втянутым в крупную игру с Марсельцем. Молодая жена отпускает его на эту игру. Отчаянно блефуя, он срывает банк, но игра продолжается.

[i]В начале фильма герой Челентано разъезжает на мотоцикле «Днепр».
В сцене карточной игры Адриано Челентано, по собственному замыслу, намеренно копирует знаменитого в Италии героя Раджа Капура из фильма «Господин 420» (1955). Радж Капур, по признанию Челентано, с детства является его любимым актёром, и именно эту сцену он мечтал включить в фильм.

Релиз группы
Качество:DVDRip / <a href="viewtopic.php?t=2900593" class="postLink">рип с DVD5 (Custom)</a>
Формат: MP4
Видео кодек: H.264
Аудио кодек: AAC
Видео: 604x360 AR:1.678 983 kbps 25 fps
Аудио №1: [Русский] 2ch 48 kHz 128 kbps [MVO] РТР (Россия 1)
Аудио №2: [Русский] 2ch 48 kHz 128 kbps [DVO] «Мастер Тэйп Интернейшнл»
Аудио №3: [Русский] 2ch 48 kHz 128 kbps [VO] Андрей Мудров
avs [info]: 604x360p 1:1 @ 25/1 fps (cfr)
x264 [info]: using SAR=1/1
x264 [info]: using cpu capabilities: MMX2 SSE2Fast SSSE3 SSE4.2 LZCNT
x264 [info]: profile High, level 4.1

x264 [info]: frame I:874 Avg QP:20.35 size: 36852
x264 [info]: frame P:25614 Avg QP:23.60 size: 13255
x264 [info]: frame B:109788 Avg QP:27.02 size: 2715
x264 [info]: consecutive B-frames: 0.8% 0.6% 3.1% 14.8% 14.6% 55.3% 5.9% 3.1% 1.3% 0.5%
x264 [info]: mb I I16..4: 6.1% 77.0% 16.9%
x264 [info]: mb P I16..4: 0.6% 5.4% 0.8% P16..4: 32.5% 38.5% 15.9% 2.1% 0.2% skip: 4.1%
x264 [info]: mb B I16..4: 0.0% 0.6% 0.1% B16..8: 38.7% 15.3% 2.4% direct: 3.9% skip:39.0% L0:36.3% L1:48.7% BI:15.0%
x264 [info]: 8x8 transform intra:80.0% inter:59.5%
x264 [info]: direct mvs spatial:97.1% temporal:2.9%
x264 [info]: coded y,uvDC,uvAC intra: 90.0% 70.4% 37.6% inter: 22.2% 12.7% 3.3%
x264 [info]: i16 v,h,dc,p: 60% 20% 8% 12%
x264 [info]: i8 v,h,dc,ddl,ddr,vr,hd,vl,hu: 12% 7% 6% 11% 15% 14% 13% 12% 11%
x264 [info]: i4 v,h,dc,ddl,ddr,vr,hd,vl,hu: 16% 9% 5% 9% 13% 14% 12% 12% 12%
x264 [info]: i8c dc,h,v,p: 33% 27% 22% 18%
x264 [info]: Weighted P-Frames: Y:11.2% UV:2.0%
x264 [info]: ref P L0: 39.9% 12.7% 20.9% 6.3% 6.3% 4.1% 4.6% 2.1% 2.7% 0.4% 0.0%
x264 [info]: ref B L0: 81.7% 10.3% 3.2% 1.7% 1.2% 1.1% 0.6% 0.3%
x264 [info]: ref B L1: 95.3% 4.7%
x264 [info]: kb/s:983.09

x264 [total]: encoded 136276 frames, 10.67 fps, 983.09 kb/s

ОбщееПолное имя : D:\Torrents\Asso.1981.DVDRip.x264.640x.rip by Frost O.S.mp4Формат : MPEG-4Профиль формата : Base MediaИдентификатор кодека : isomРазмер файла : 898 МбайтПродолжительность : 1 ч. 30 м.Режим общего битрейта : ПеременныйОбщий поток : 1382 Кбит/секНазвание фильма : Asso 1981 DVDRip x264 640x rip by Frost O SЖанр : ComedyТип содержимого : Short FilmДата кодирования : UTC 2016-04-21 14:50:55Дата пометки : UTC 2016-04-21 14:51:37Программа кодирования : MkvToMp4 version: 0.224 (x64)Обложка : YesПримечание : rip by Frost O.SLongDescription : Профессиональный карточный шулер по кличке Туз накануне свадьбы объявляет о своем решении завязать. Но неожиданно оказывается втянутым в крупную игру с Марсельцем. Молодая жена отпускает его на эту игру. Отчаянно блефуя, он срывает банк, но игра продолжается. На него начинается охота и его убивает наемный убийца, после чего Туз превращается в… привидение, которое не может видеть никто, кроме его жены. Обретя таким трагическим образом новые возможности, он старается пристроить свою вдову и отомстить…

ВидеоИдентификатор : 1Формат : AVCФормат/Информация : Advanced Video CodecПрофиль формата : [email protected]Параметр CABAC формата : ДаПараметр ReFrames формата : 9 кадровИдентификатор кодека : avc1Идентификатор кодека/Информация : Advanced Video CodingПродолжительность : 1 ч. 30 м.Битрейт : 983 Кбит/секМаксимальный битрейт : 4055 Кбит/секШирина : 604 пикселяВысота : 360 пикселейСоотношение сторон : 1,678Режим частоты кадров : ПостоянныйЧастота кадров : 25,000 кадров/секЦветовое пространство : YUVСубдискретизация насыщенности : 4:2:0Битовая глубина : 8 битТип развёртки : ПрогрессивнаяБит/(Пиксели*Кадры) : 0.181Размер потока : 639 Мбайт (71%)Библиотека кодирования : x264 core 130 r2273 b3065e6Настройки программы : cabac=1 / ref=9 / deblock=1:-1:-1 / analyse=0x3:0x133 / me=umh / subme=11 / psy=1 / psy_rd=1.20:0.05 / mixed_ref=1 / me_range=48 / chroma_me=1 / trellis=2 / 8x8dct=1 / cqm=0 / deadzone=21,11 / fast_pskip=0 / chroma_qp_offset=-3 / threads=3 / lookahead_threads=1 / sliced_threads=0 / nr=0 / decimate=0 / interlaced=0 / bluray_compat=0 / constrained_intra=0 / bframes=9 / b_pyramid=2 / b_adapt=2 / b_bias=0 / direct=3 / weightb=1 / open_gop=0 / weightp=2 / keyint=250 / keyint_min=25 / scenecut=40 / intra_refresh=0 / rc_lookahead=60 / rc=2pass / mbtree=1 / bitrate=983 / ratetol=1.0 / qcomp=0.65 / qpmin=0 / qpmax=69 / qpstep=4 / cplxblur=20.0 / qblur=0.5 / ip_ratio=1.40 / aq=1:0.90Язык : EnglishДата кодирования : UTC 2016-04-21 14:50:55Дата пометки : UTC 2016-04-21 14:51:11Основные цвета : BT.601 PALХарактеристики трансфера : BT.470 System B, BT.470 System GКоэффициенты матрицы : BT.601

Аудио #1Идентификатор : 2Формат : AACФормат/Информация : Advanced Audio CodecПрофиль формата : LCИдентификатор кодека : 40Продолжительность : 1 ч. 30 м.Вид битрейта : ПеременныйБитрейт : 128 Кбит/секМаксимальный битрейт : 135 Кбит/секКаналы : 2 каналаРасположение каналов : Front: L RЧастота : 48,0 КГцМетод сжатия : С потерямиРазмер потока : 83,2 Мбайт (9%)Заголовок : [MVO] PTPЯзык : RussianДата кодирования : UTC 2016-04-21 14:51:04Дата пометки : UTC 2016-04-21 14:51:11

Аудио #2Идентификатор : 3Формат : AACФормат/Информация : Advanced Audio CodecПрофиль формата : LCИдентификатор кодека : 40Продолжительность : 1 ч. 30 м.Вид битрейта : ПеременныйБитрейт : 128 Кбит/секМаксимальный битрейт : 135 Кбит/секКаналы : 2 каналаРасположение каналов : Front: L RЧастота : 48,0 КГцМетод сжатия : С потерямиРазмер потока : 83,2 Мбайт (9%)Заголовок : [DVO] Master TeipЯзык : RussianДата кодирования : UTC 2016-04-21 14:51:07Дата пометки : UTC 2016-04-21 14:51:11

Аудио #3Идентификатор : 4Формат : AACФормат/Информация : Advanced Audio CodecПрофиль формата : LCИдентификатор кодека : 40Продолжительность : 1 ч. 30 м.Вид битрейта : ПеременныйБитрейт : 128 Кбит/секМаксимальный битрейт : 135 Кбит/секКаналы : 2 каналаРасположение каналов : Front: L RЧастота : 48,0 КГцМетод сжатия : С потерямиРазмер потока : 83,2 Мбайт (9%)Заголовок : [VO] Andrey MydrovЯзык : RussianДата кодирования : UTC 2016-04-21 14:51:09Дата пометки : UTC 2016-04-21 14:51:11


Трекер:  [ 21-Апр-2016 17:30 ]

  

Скачать .torrent

Размер .torrent файла 18 KB


Размер: 898 MB
Хэш (hash) релиза: a3104c5478da782d470e765a1b89a55cb8737a4d

Еще никто не оставлял запись к записи скачать торрент [VIDEO] Туз Asso . Будь первым!

!Обратная связь