Tangga Lagu | Me Before You | Télécharger Part 4

Скачать через торрент [MULT] Драконы: Гонки бесстрашных. Начало Dragons: Dawn of the Dragon Racers бесплатно русская версия torrent активатор

Статистика раздачи
Размер:  280 MB   |    Зарегистрирован:  2 года 3 месяца   |    .torrent скачан:  26 раз   |   
Раздают:  1  
   
загрузка...
 
Автор Сообщение

Galfimbul

avatar Galfimbul


Драконы: Гонки бесстрашных. Начало / Dragons: Dawn of the Dragon Racers

Год выпуска: 2014
Страна: США
Жанр: мультфильм, короткометражка
Продолжительность: 00:26:37
Перевод: [Русский] Профессиональный (полное дублирование) Невафильм
Cубтитры: нет
Режиссеры: Илэйн Боган / Elaine Bogan, Джон Санфорд / John Sanford
Роли озвучивали: Джей Барушель (Иккинг / Hiccup), Америка Феррера (Астрид / Astrid), Кристофер Минц-Плассе (Рыбьеног / Fishlegs), ТиДжей Миллер (Задирака / Tuffnut), Нолан Норт (Стоик / Stoick), Крис Эджерли (Плевака / Gobber), Зак Перлман (Сморкала / Snotlout), Эндри Вермелен (Забияка / Ruffnut), Тим Конуэй (Шлак / Mulch), Том Кенни (Молчун Свен / Silent Sven) .
Роли дублировали: Андрей Лёвин (Иккинг), Борис Хасанов (Стоик), Алексей Макрецкий (Плевака), Софья Ануфриева (Астрид), Михаил Хрусталёв (Сморкала), Игорь Виноградов (Рыбьеног), Александр Разбаш (Задирака), Марианна Талалакина (Семенова) (Забияка), Артём Веселов, Александр Хомик, Владимир Черных, Гульназ Насырова .
Описание: Поиски пропавшей овцы превращаются в соревнование между Иккингом и его друзьями за титул первого чемпиона драконьих гонок Олуха. Это история о расцвете драконьих гонок, и о том, как они стали самым популярным видом спорта на Олухе.
Релиз группы
Качество:HDRip / <a href="viewtopic.php?t=5102575" class="postLink">рип с BDRip 720p</a> Формат: MP4 Видео кодек: H.264 Аудио кодек: AAC
Видео: 960x540 AR:16/9 1332 kbps 23.976 fps Аудио: [Русский] 2ch 48 kHz 128 kbps [Dub]
avs [info]: 960x540p 1:1 @ 2997/125 fps (cfr)
x264 [info]: using SAR=1/1
x264 [info]: using cpu capabilities: MMX2 SSE2Fast SSSE3 SSE4.2 LZCNT
x264 [info]: profile High, level 4.1

x264 [info]: frame I:422 Avg QP:15.46 size: 97175
x264 [info]: frame P:11252 Avg QP:21.84 size: 12483
x264 [info]: frame B:26630 Avg QP:25.99 size: 3172
x264 [info]: consecutive B-frames: 5.6% 7.4% 10.0% 59.2% 6.2% 8.2% 0.6% 1.6% 1.2%
x264 [info]: mb I I16..4: 5.0% 66.5% 28.5%
x264 [info]: mb P I16..4: 1.8% 7.7% 1.5% P16..4: 23.3% 21.6% 7.9% 0.0% 0.0% skip:36.2%
x264 [info]: mb B I16..4: 0.3% 1.0% 0.2% B16..8: 20.3% 9.1% 1.8% direct: 1.7% skip:65.6% L0:36.7% L1:49.2% BI:14.1%
x264 [info]: 8x8 transform intra:69.7% inter:58.6%
x264 [info]: direct mvs spatial:92.4% temporal:7.6%
x264 [info]: coded y,uvDC,uvAC intra: 73.3% 62.9% 32.2% inter: 10.6% 5.5% 2.0%
x264 [info]: i16 v,h,dc,p: 16% 20% 7% 56%
x264 [info]: i8 v,h,dc,ddl,ddr,vr,hd,vl,hu: 6% 9% 6% 10% 14% 12% 15% 12% 17%
x264 [info]: i4 v,h,dc,ddl,ddr,vr,hd,vl,hu: 9% 11% 6% 8% 14% 12% 14% 10% 14%
x264 [info]: i8c dc,h,v,p: 29% 36% 17% 19%
x264 [info]: Weighted P-Frames: Y:0.8% UV:0.4%
x264 [info]: ref P L0: 60.0% 11.6% 12.3% 4.7% 3.4% 3.1% 2.6% 2.0% 0.4% 0.0%
x264 [info]: ref B L0: 88.1% 5.3% 3.0% 1.3% 1.1% 0.7% 0.5%
x264 [info]: ref B L1: 96.2% 3.8%
x264 [info]: kb/s:1331.71

x264 [total]: encoded 38304 frames, 7.67 fps, 1331.72 kb/s

ОбщееПолное имя : D:\Torrents\Dragons Dawn of the Dragon Racers.2014.HDRip.x264.960x.rip by Frost O.S.mp4Формат : MPEG-4Профиль формата : Base MediaИдентификатор кодека : isomРазмер файла : 280 МбайтПродолжительность : 26 м.Режим общего битрейта : ПеременныйОбщий поток : 1470 Кбит/секНазвание фильма : Dragons Dawn of the Dragon Racers 2014 HDRip x264 960x rip by Frost O SТип содержимого : Short FilmДата кодирования : UTC 2016-04-20 14:41:08Дата пометки : UTC 2016-04-20 14:41:15Программа кодирования : MkvToMp4 version: 0.224 (x64)Обложка : YesПримечание : rip by Frost O.SLongDescription : Поиски пропавшей овцы превращаются в соревнование между Иккингом и его друзьями за титул первого чемпиона драконьих гонок Олуха. Это история о расцвете драконьих гонок, и о том, как они стали самым популярным видом спорта на Олухе.

ВидеоИдентификатор : 1Формат : AVCФормат/Информация : Advanced Video CodecПрофиль формата : [email protected]Параметр CABAC формата : ДаПараметр ReFrames формата : 8 кадровИдентификатор кодека : avc1Идентификатор кодека/Информация : Advanced Video CodingПродолжительность : 26 м.Битрейт : 1332 Кбит/секМаксимальный битрейт : 5431 Кбит/секШирина : 960 пикселейВысота : 540 пикселейСоотношение сторон : 16:9Режим частоты кадров : ПостоянныйЧастота кадров : 23,976 кадра/секЦветовое пространство : YUVСубдискретизация насыщенности : 4:2:0Битовая глубина : 8 битТип развёртки : ПрогрессивнаяБит/(Пиксели*Кадры) : 0.107Размер потока : 254 Мбайт (91%)Библиотека кодирования : x264 core 130 r2273 b3065e6Настройки программы : cabac=1 / ref=8 / deblock=1:-2:-2 / analyse=0x3:0x113 / me=umh / subme=11 / psy=1 / psy_rd=1.00:0.00 / mixed_ref=1 / me_range=32 / chroma_me=1 / trellis=2 / 8x8dct=1 / cqm=0 / deadzone=21,11 / fast_pskip=0 / chroma_qp_offset=-2 / threads=3 / lookahead_threads=1 / sliced_threads=0 / nr=0 / decimate=0 / interlaced=0 / bluray_compat=0 / constrained_intra=0 / bframes=8 / b_pyramid=2 / b_adapt=2 / b_bias=0 / direct=3 / weightb=1 / open_gop=0 / weightp=2 / keyint=250 / keyint_min=23 / scenecut=40 / intra_refresh=0 / rc_lookahead=60 / rc=2pass / mbtree=1 / bitrate=1332 / ratetol=1.0 / qcomp=0.60 / qpmin=0 / qpmax=69 / qpstep=4 / cplxblur=20.0 / qblur=0.5 / ip_ratio=1.40 / aq=1:0.70Язык : EnglishДата кодирования : UTC 2016-04-20 14:41:08Дата пометки : UTC 2016-04-20 14:41:11Основные цвета : BT.709Характеристики трансфера : BT.709Коэффициенты матрицы : BT.709

АудиоИдентификатор : 2Формат : AACФормат/Информация : Advanced Audio CodecПрофиль формата : LCИдентификатор кодека : 40Продолжительность : 26 м.Вид битрейта : ПеременныйБитрейт : 128 Кбит/секМаксимальный битрейт : 135 Кбит/секКаналы : 2 каналаРасположение каналов : Front: L RЧастота : 48,0 КГцМетод сжатия : С потерямиРазмер потока : 24,4 Мбайт (9%)Язык : RussianДата кодирования : UTC 2016-04-20 14:41:10Дата пометки : UTC 2016-04-20 14:41:11


Трекер:  [ 20-Апр-2016 17:30 ]

  

Скачать .torrent

Размер .torrent файла 11 KB


Размер: 280 MB
Хэш (hash) релиза: 47f861be642effc6ab8e08d9d20511c9a068b18f

Еще никто не оставлял запись к записи скачать торрент [MULT] Драконы: Гонки бесстрашных. Начало Dragons: Dawn of the Dragon Racers . Будь первым!

!Обратная связь