Cats, Dogs & Animals | Três Homens em Conflito | Jurassic Park III 2001 UHD 2160p Bluray HDR Multi DTS-X 7 1 DTOn 26 minutes

Скачать через торрент [VIDEO] Невезучий папарацци Ecco noi per esempio... бесплатно русская версия torrent активатор

Статистика раздачи
Размер:  954 MB   |    Зарегистрирован:  2 года 2 месяца   |    .torrent скачан:  36 раз   |   
Раздают:  1  
   
загрузка...
 
Автор Сообщение

Galfimbul

avatar Galfimbul


Невезучий папарацци / Ecco noi per esempio...

Год выпуска: 1977
Страна: Италия
Жанр: комедия
Продолжительность: 01:49:40
Перевод: [Русский] Авторский (одноголосый, закадровый) Н. Живаго
Cубтитры: нет
Режиссер: Серджо Корбуччи / Sergio Corbucci
В ролях: Адриано Челентано / Adriano Celentano, Ренато Поццетто / Renato Pozzetto, Феличе Андреази / Felice Andreasi, Барбара Бах / Barbara Bach, Джулиана Каландра / Giuliana Calandra, Антонио Касагранде / Antonio Casagrande и другие .
Описание: Клик — бульварный фотограф, за которым гоняются то бандиты, попавшие в объектив на месте преступления, то разъяренные женщины, также оказавшееся в поле зрения журналиста. Однажды во время столкновения с полицией Клик познакомился с начинающим писателем Гуанзироле Пальмамброджо…
Релиз группы
Качество:DVDRip / <a href="viewtopic.php?t=2894119" class="postLink">рип с DVD5 (Custom)</a>
Формат: MP4
Видео кодек: H.264
Аудио кодек: AAC
Видео: 640x356 AR:16/9 1080 kbps 25 fps
Аудио: [Русский] 2ch 48 kHz 128 kbps [VO] Н. Живаго
avs [info]: 640x356p 1:1 @ 25/1 fps (cfr)
x264 [info]: using SAR=1/1
x264 [info]: using cpu capabilities: MMX2 SSE2Fast SSSE3 SSE4.2 LZCNT
x264 [info]: profile High, level 4.1

x264 [info]: frame I:997 Avg QP:19.13 size: 34710
x264 [info]: frame P:33077 Avg QP:22.31 size: 13068
x264 [info]: frame B:130437 Avg QP:24.97 size: 3233
x264 [info]: consecutive B-frames: 1.0% 1.5% 4.8% 18.6% 23.7% 38.1% 8.2% 2.1% 1.6% 0.5%
x264 [info]: mb I I16..4: 2.6% 80.0% 17.4%
x264 [info]: mb P I16..4: 0.4% 7.8% 1.7% P16..4: 34.8% 38.7% 14.4% 1.5% 0.1% skip: 0.5%
x264 [info]: mb B I16..4: 0.0% 0.9% 0.2% B16..8: 37.4% 19.1% 2.4% direct: 4.8% skip:35.0% L0:40.7% L1:42.9% BI:16.3%
x264 [info]: 8x8 transform intra:78.7% inter:64.6%
x264 [info]: direct mvs spatial:96.8% temporal:3.2%
x264 [info]: coded y,uvDC,uvAC intra: 89.5% 83.2% 35.0% inter: 25.8% 26.8% 5.0%
x264 [info]: i16 v,h,dc,p: 28% 18% 1% 53%
x264 [info]: i8 v,h,dc,ddl,ddr,vr,hd,vl,hu: 15% 7% 3% 9% 14% 14% 13% 12% 12%
x264 [info]: i4 v,h,dc,ddl,ddr,vr,hd,vl,hu: 38% 7% 3% 6% 10% 10% 10% 8% 8%
x264 [info]: i8c dc,h,v,p: 28% 28% 21% 23%
x264 [info]: Weighted P-Frames: Y:3.6% UV:0.6%
x264 [info]: ref P L0: 37.3% 12.9% 23.2% 5.4% 7.0% 3.6% 5.0% 2.0% 3.3% 0.3% 0.0%
x264 [info]: ref B L0: 78.1% 12.3% 3.7% 2.1% 1.4% 1.4% 0.7% 0.3%
x264 [info]: ref B L1: 95.2% 4.8%
x264 [info]: kb/s:1080.26

x264 [total]: encoded 164511 frames, 10.50 fps, 1080.26 kb/s

ОбщееПолное имя : D:\Torrents\Ecco noi per esempio...1977.DVDRip.x264.640x.rip by Frost O.S.mp4Формат : MPEG-4Профиль формата : Base MediaИдентификатор кодека : isomРазмер файла : 954 МбайтПродолжительность : 1 ч. 49 м.Режим общего битрейта : ПеременныйОбщий поток : 1216 Кбит/секНазвание фильма : Ecco noi per esempio 1977 DVDRip x264 640x rip by Frost O SЖанр : ComedyТип содержимого : Short FilmДата кодирования : UTC 2016-04-20 12:28:46Дата пометки : UTC 2016-04-20 12:29:28Программа кодирования : MkvToMp4 version: 0.224 (x64)Обложка : YesПримечание : rip by Frost O.SLongDescription : Клик — бульварный фотограф, за которым гоняются то бандиты, попавшие в объектив на месте преступления, то разъяренные женщины, также оказавшееся в поле зрения журналиста. Однажды во время столкновения с полицией Клик познакомился с начинающим писателем Гуанзироле Пальмамброджо…

ВидеоИдентификатор : 1Формат : AVCФормат/Информация : Advanced Video CodecПрофиль формата : [email protected]Параметр CABAC формата : ДаПараметр ReFrames формата : 9 кадровИдентификатор кодека : avc1Идентификатор кодека/Информация : Advanced Video CodingПродолжительность : 1 ч. 49 м.Битрейт : 1080 Кбит/секМаксимальный битрейт : 4542 Кбит/секШирина : 640 пикселейВысота : 356 пикселейСоотношение сторон : 16:9Режим частоты кадров : ПостоянныйЧастота кадров : 25,000 кадров/секЦветовое пространство : YUVСубдискретизация насыщенности : 4:2:0Битовая глубина : 8 битТип развёртки : ПрогрессивнаяБит/(Пиксели*Кадры) : 0.190Размер потока : 847 Мбайт (89%)Библиотека кодирования : x264 core 130 r2273 b3065e6Настройки программы : cabac=1 / ref=9 / deblock=1:-2:-2 / analyse=0x3:0x133 / me=umh / subme=11 / psy=1 / psy_rd=1.00:0.00 / mixed_ref=1 / me_range=48 / chroma_me=1 / trellis=2 / 8x8dct=1 / cqm=0 / deadzone=21,11 / fast_pskip=0 / chroma_qp_offset=-2 / threads=3 / lookahead_threads=1 / sliced_threads=0 / nr=0 / decimate=0 / interlaced=0 / bluray_compat=0 / constrained_intra=0 / bframes=9 / b_pyramid=2 / b_adapt=2 / b_bias=0 / direct=3 / weightb=1 / open_gop=0 / weightp=2 / keyint=250 / keyint_min=25 / scenecut=40 / intra_refresh=0 / rc_lookahead=60 / rc=2pass / mbtree=1 / bitrate=1080 / ratetol=1.0 / qcomp=0.70 / qpmin=0 / qpmax=69 / qpstep=4 / cplxblur=20.0 / qblur=0.5 / ip_ratio=1.40 / aq=1:0.90Язык : EnglishДата кодирования : UTC 2016-04-20 12:28:46Дата пометки : UTC 2016-04-20 12:29:02Основные цвета : BT.601 PALХарактеристики трансфера : BT.470 System B, BT.470 System GКоэффициенты матрицы : BT.601

АудиоИдентификатор : 2Формат : AACФормат/Информация : Advanced Audio CodecПрофиль формата : LCИдентификатор кодека : 40Продолжительность : 1 ч. 49 м.Вид битрейта : ПеременныйБитрейт : 128 Кбит/секМаксимальный битрейт : 132 Кбит/секКаналы : 2 каналаРасположение каналов : Front: L RЧастота : 48,0 КГцМетод сжатия : С потерямиРазмер потока : 100 Мбайт (11%)Язык : RussianДата кодирования : UTC 2016-04-20 12:29:00Дата пометки : UTC 2016-04-20 12:29:02


Трекер:  [ 20-Апр-2016 17:30 ]

  

Скачать .torrent

Размер .torrent файла 19 KB


Размер: 954 MB
Хэш (hash) релиза: 6148e1529aa4d691a337cc25b24ef16b45208534

Еще никто не оставлял запись к записи скачать торрент [VIDEO] Невезучий папарацци Ecco noi per esempio... . Будь первым!

!Обратная связь