Biograficzne | Season 8 Episode 12 Friends in Deed | The Other Kingdom

Скачать через торрент [SERIAL] Почти человек Almost Human бесплатно русская версия torrent активатор

Статистика раздачи
Размер:  2.16 GB   |    Зарегистрирован:  2 года 3 месяца   |    .torrent скачан:  30 раз   |   
Раздают:  1  
   
загрузка...
 
Автор Сообщение

Galfimbul

avatar Galfimbul


Почти человек / Almost Human

Год выпуска: 2013

Страна: США
Жанр: фантастика, боевик, драма, криминал

Продолжительность: ~ 00:43:00
Перевод: Профессиональный (многоголосый закадровый) LostFilm
Cубтитры: нет

Режиссер: Брэд Андерсон, Сэм Хилл, Кеннет Финк
В ролях: Карл Урбан, Майкл Или, Минка Келли, Майкл Ирби, Макензи Крук, Лили Тейлор, Даррен Э. Скотт, Гарфилд Уилсон, Джо Смит, Энтони Конечни

Описание: Действие происходит в будущем, когда порядок на улицах городов обеспечивают не только «живые» полицейские, но и высокотехнологичные андроиды.
Джон Кеннекс попал с отрядом полиции в западню и был серьёзно ранен. Очнувшись после 17 месяцев пребывания в коме, он не может вспомнить много, но точно помнит, что его напарника убили. Его девушка ушла от него сразу после нападения. Джон потерял ногу и теперь ее заменяет сложная синтетическая конструкция…

Качество: WEB-DLRip
Формат: MP4
Видео: AVC, 480x272, 420 kbps, 23.976 fps
Аудио: Русский, AAC, 2 ch, 48,0 khz, 128 kbps
GeneralНазвание : E:\Видео\mp4 480\Almost.Human.s01\Almost.Human.s01e01.mp4Формат : MPEG-4Формат profile : Base MediaКодек ID : isom (isom/avc1)Размер файла : 180 MiBДлительность : 45mn 37sОбщий Битрейт mode : VariableОбщий Битрейт : 552 KbpsEncoded date : UTC 2016-04-17 20:43:57Tagged date : UTC 2016-04-17 20:43:57

VideoID : 1Формат : AVCФормат/Info : Advanced Video КодекФормат profile : [email protected]Формат настройки, CABAC : YesФормат настройки, ReFrames : 7 framesКодек ID : avc1Кодек ID/Info : Advanced Video CodingДлительность : 45mn 37sБитрейт : 420 KbpsMaximum Битрейт : 2 948 KbpsWidth : 480 пикселейВысота : 272 пикселейСоотношение кадра : 16:9Частота кадров mode : ConstantЧастота кадров : 23.976 (24000/1001) fpsЦветопередача : YUVChroma subsampling : 4:2:0Разрядность : 8 bitsТип сканирования : ProgressiveBits/(Pixel*Frame) : 0.134Размер потока : 137 MiB (76%)Writing library : x264 core 130 r2273 b3065e6Encoding настройки : cabac=1 / ref=7 / deblock=1:-1:-1 / analyse=0x3:0x133 / me=umh / subme=8 / psy=1 / psy_rd=1.00:0.10 / mixed_ref=1 / me_range=24 / chroma_me=1 / trellis=2 / 8x8dct=1 / cqm=0 / deadzone=21,11 / fast_pskip=0 / chroma_qp_offset=-3 / threads=3 / lookahead_threads=1 / sliced_threads=0 / nr=0 / decimate=1 / interlaced=0 / bluray_compat=0 / constrained_intra=0 / bframes=7 / b_pyramid=2 / b_adapt=2 / b_bias=0 / direct=3 / weightb=1 / open_gop=0 / weightp=2 / keyint=250 / keyint_min=23 / scenecut=40 / intra_refresh=0 / rc_lookahead=50 / rc=2pass / mbtree=1 / bitrate=420 / ratetol=1.0 / qcomp=0.60 / qpmin=0 / qpmax=69 / qpstep=4 / cplxblur=20.0 / qblur=0.5 / ip_ratio=1.40 / aq=1:1.00Encoded date : UTC 2016-04-17 20:43:57Tagged date : UTC 2016-04-17 20:44:07

AudioID : 2Формат : AACФормат/Info : Advanced Audio КодекФормат profile : LCКодек ID : 40Длительность : 45mn 37sБитрейт mode : VariableБитрейт : 128 KbpsMaximum Битрейт : 134 KbpsChannel(s) : 2 каналаChannel positions : Front: L RЧастота : 48.0 KHzЧастота кадров : 46.875 fps (1024 spf)Режим сжатия : LossyРазмер потока : 41.8 MiB (23%)Encoded date : UTC 2016-04-17 20:44:05Tagged date : UTC 2016-04-17 20:44:07


Трекер:  [ 19-Апр-2016 20:00 ]

  

Скачать .torrent

Размер .torrent файла 12 KB


Размер: 2.16 GB
Хэш (hash) релиза: 360c551ed8512ddf8e6225ff2226ac7516f35051

Еще никто не оставлял запись к записи скачать торрент [SERIAL] Почти человек Almost Human . Будь первым!

!Обратная связь