Read More | Последние темы | Веб / программирование

Скачать через торрент [MULT] Миньоны: Мини-фильмы бесплатно русская версия torrent активатор

Статистика раздачи
Размер:  124 MB   |    Зарегистрирован:  2 года 3 месяца   |    .torrent скачан:  41 раз   |   
Раздают:  1  
   
загрузка...
 
Автор Сообщение

Galfimbul

avatar Galfimbul



Миньоны: Мини-фильмы / Minions: Mini-Movies


Неугомонный Бинки Нельсон / Binky Nelson unpacified

Год выпуска: 2015
Страна: США
Жанр: мультфильм, комедия, семейный
Продолжительность: 00:04:34
Перевод: Профессиональный (полное дублирование)
Cубтитры: нет
Режиссер: Фабрис Жубер / Fabrice Joubert, Брайан Линч / Brian Lynch
Роли озвучивали: Пьер Коффан / Pierre Coffin, Крис Рено / Chris Renaud, Тара Стронг / Tara Strong .
Описание: Миньоны хотя и понимают человеческую речь, говорить по-человечески не умеют, но могут произносить отдельные слова, но чаще они общаются на своём языке между собой. Глуповатые, но очень полезные. Интересно, что у некоторых миньонов только один глаз.
Ссылка на КиноПоиск "Неугомонный Бинки Нельсон" Релиз группы
Качество:HDRip / <a href="viewtopic.php?t=5153388" class="postLink">рип с BDRip 720p</a> Формат: MP4
Видео кодек: H.264 Аудио кодек: AAC
Видео: 960x518 AR:1.85 1043 kbps 23.976 fps
Аудио: 2ch 48 kHz 128 kbps
avs [info]: 960x518p 1:1 @ 2997/125 fps (cfr)
x264 [info]: using SAR=1/1
x264 [info]: using cpu capabilities: MMX2 SSE2Fast SSSE3 SSE4.2 LZCNT
x264 [info]: profile High, level 4.1

x264 [info]: frame I:88 Avg QP:14.67 size: 57818
x264 [info]: frame P:1378 Avg QP:19.27 size: 12593
x264 [info]: frame B:5116 Avg QP:20.41 size: 2563
x264 [info]: consecutive B-frames: 3.6% 2.3% 7.4% 14.3% 14.7% 35.0% 5.3% 5.2% 4.1% 7.9%
x264 [info]: mb I I16..4: 19.2% 60.8% 20.1%
x264 [info]: mb P I16..4: 3.1% 8.4% 1.3% P16..4: 33.7% 31.7% 7.2% 0.0% 0.0% skip:14.7%
x264 [info]: mb B I16..4: 0.2% 0.6% 0.1% B16..8: 27.5% 9.5% 0.9% direct: 1.3% skip:59.8% L0:42.7% L1:49.5% BI: 7.8%
x264 [info]: 8x8 transform intra:64.9% inter:69.9%
x264 [info]: direct mvs spatial:94.4% temporal:5.6%
x264 [info]: coded y,uvDC,uvAC intra: 69.6% 73.1% 43.2% inter: 8.3% 9.1% 3.0%
x264 [info]: i16 v,h,dc,p: 23% 11% 5% 61%
x264 [info]: i8 v,h,dc,ddl,ddr,vr,hd,vl,hu: 13% 10% 4% 10% 14% 12% 13% 11% 13%
x264 [info]: i4 v,h,dc,ddl,ddr,vr,hd,vl,hu: 17% 12% 6% 9% 14% 11% 12% 9% 11%
x264 [info]: i8c dc,h,v,p: 26% 33% 21% 21%
x264 [info]: Weighted P-Frames: Y:4.0% UV:2.0%
x264 [info]: ref P L0: 54.9% 8.2% 18.8% 6.2% 4.8% 3.5% 3.1% 0.4% 0.0%
x264 [info]: ref B L0: 74.9% 13.2% 6.8% 2.9% 1.5% 0.7%
x264 [info]: ref B L1: 91.4% 8.6%
x264 [info]: kb/s:1036.01
encoded 6582 frames, 7.95 fps, 1036.03 kb/s

ОбщееПолное имя : D:\New video\Minions Mini-Movies.2015.HDRip.x264.960x\Binky Nelson unpacified.2015.HDRip.x264.960x.rip by Frost O.S.mp4Формат : MPEG-4Профиль формата : Base MediaИдентификатор кодека : isomРазмер файла : 38,5 МбайтПродолжительность : 4 м. 34 с.Режим общего битрейта : ПеременныйОбщий поток : 1176 Кбит/секНазвание фильма : Binky Nelson unpacified 2015 HDRip x264 960x rip by Frost O SЖанр : AnimationТип содержимого : Short FilmДата кодирования : UTC 2016-04-19 14:30:05Дата пометки : UTC 2016-04-19 14:30:05Программа кодирования : MkvToMp4 version: 0.224 (x64)Обложка : YesПримечание : rip by Frost O.S

ВидеоИдентификатор : 1Формат : AVCФормат/Информация : Advanced Video CodecПрофиль формата : [email protected]Параметр CABAC формата : ДаПараметр ReFrames формата : 7 кадровИдентификатор кодека : avc1Идентификатор кодека/Информация : Advanced Video CodingПродолжительность : 4 м. 34 с.Битрейт : 1043 Кбит/секМаксимальный битрейт : 2726 Кбит/секШирина : 960 пикселейВысота : 518 пикселейСоотношение сторон : 1,85:1Режим частоты кадров : ПостоянныйЧастота кадров : 23,976 кадра/секЦветовое пространство : YUVСубдискретизация насыщенности : 4:2:0Битовая глубина : 8 битТип развёртки : ПрогрессивнаяБит/(Пиксели*Кадры) : 0.087Размер потока : 33,9 Мбайт (88%)Библиотека кодирования : x264 core 130 r2273 b3065e6Настройки программы : cabac=1 / ref=7 / deblock=1:-2:-2 / analyse=0x3:0x113 / me=umh / subme=11 / psy=1 / psy_rd=0.60:0.00 / mixed_ref=1 / me_range=32 / chroma_me=1 / trellis=2 / 8x8dct=1 / cqm=0 / deadzone=21,11 / fast_pskip=0 / chroma_qp_offset=-2 / threads=3 / lookahead_threads=1 / sliced_threads=0 / nr=0 / decimate=0 / interlaced=0 / bluray_compat=0 / constrained_intra=0 / bframes=9 / b_pyramid=2 / b_adapt=2 / b_bias=0 / direct=3 / weightb=1 / open_gop=0 / weightp=2 / keyint=250 / keyint_min=23 / scenecut=40 / intra_refresh=0 / rc_lookahead=60 / rc=2pass / mbtree=1 / bitrate=1043 / ratetol=1.0 / qcomp=0.60 / qpmin=0 / qpmax=69 / qpstep=4 / cplxblur=20.0 / qblur=0.5 / ip_ratio=1.40 / aq=1:1.00Язык : EnglishДата кодирования : UTC 2016-04-19 14:30:05Дата пометки : UTC 2016-04-19 14:30:05Основные цвета : BT.709Характеристики трансфера : BT.709Коэффициенты матрицы : BT.709

АудиоИдентификатор : 2Формат : AACФормат/Информация : Advanced Audio CodecПрофиль формата : LCИдентификатор кодека : 40Продолжительность : 4 м. 34 с.Вид битрейта : ПеременныйБитрейт : 128 Кбит/секМаксимальный битрейт : 131 Кбит/секКаналы : 2 каналаРасположение каналов : Front: L RЧастота : 48,0 КГцМетод сжатия : С потерямиРазмер потока : 4,19 Мбайт (11%)Язык : RussianДата кодирования : UTC 2016-04-19 14:30:05Дата пометки : UTC 2016-04-19 14:30:05

Соревнование / Competition

Год выпуска: 2015
Страна: США
Жанр: мультфильм, комедия, семейный
Продолжительность: 00:03:47
Перевод: не требуется
Cубтитры: нет
Режиссер: Кайл Балда / Kyle Balda, Julien Soret
Роли озвучивали: Пьер Коффан / Pierre Coffin, Крис Рено / Chris Renaud .
Описание: Миньоны хотя и понимают человеческую речь, говорить по-человечески не умеют, но могут произносить отдельные слова, но чаще они общаются на своём языке между собой. Глуповатые, но очень полезные. Интересно, что у некоторых миньонов только один глаз.
Релиз группы
Качество:HDRip / <a href="viewtopic.php?t=5153388" class="postLink">рип с BDRip 720p</a> Формат: MP4
Видео кодек: H.264 Аудио кодек: AAC
Видео: 960x518 AR:1.85 1148 kbps 23.976 fps
Аудио: 2ch 48 kHz 128 kbps
avs [info]: 960x518p 1:1 @ 2997/125 fps (cfr)
x264 [info]: using SAR=1/1
x264 [info]: using cpu capabilities: MMX2 SSE2Fast SSSE3 SSE4.2 LZCNT
x264 [info]: profile High, level 4.1

x264 [info]: frame I:48 Avg QP:13.50 size: 55018
x264 [info]: frame P:1474 Avg QP:19.08 size: 11848
x264 [info]: frame B:3927 Avg QP:21.00 size: 3223
x264 [info]: consecutive B-frames: 5.0% 7.6% 14.0% 34.9% 8.7% 12.8% 2.3% 4.0% 1.3% 3.5% 5.9%
x264 [info]: mb I I16..4: 26.3% 47.1% 26.6%
x264 [info]: mb P I16..4: 8.2% 13.2% 2.4% P16..4: 28.0% 22.5% 4.6% 0.0% 0.0% skip:21.1%
x264 [info]: mb B I16..4: 1.5% 2.1% 0.3% B16..8: 21.3% 7.4% 1.0% direct: 1.9% skip:64.4% L0:41.1% L1:49.1% BI: 9.8%
x264 [info]: 8x8 transform intra:54.0% inter:70.8%
x264 [info]: direct mvs spatial:94.9% temporal:5.1%
x264 [info]: coded y,uvDC,uvAC intra: 44.8% 51.6% 27.0% inter: 8.8% 10.5% 3.5%
x264 [info]: i16 v,h,dc,p: 22% 16% 4% 58%
x264 [info]: i8 v,h,dc,ddl,ddr,vr,hd,vl,hu: 9% 12% 8% 9% 12% 12% 14% 11% 13%
x264 [info]: i4 v,h,dc,ddl,ddr,vr,hd,vl,hu: 13% 13% 15% 7% 13% 10% 11% 7% 9%
x264 [info]: i8c dc,h,v,p: 21% 45% 17% 17%
x264 [info]: Weighted P-Frames: Y:8.8% UV:5.9%
x264 [info]: ref P L0: 54.2% 7.5% 15.5% 6.4% 4.4% 3.9% 2.9% 1.7% 1.5% 1.5% 0.6% 0.0%
x264 [info]: ref B L0: 78.1% 8.7% 4.9% 2.3% 2.0% 1.8% 1.2% 0.6% 0.4%
x264 [info]: ref B L1: 94.0% 6.0%
x264 [info]: kb/s:1153.28
encoded 5449 frames, 6.48 fps, 1153.31 kb/s

ОбщееПолное имя : D:\Torrents\Minions Mini-Movies.2015.HDRip.x264.960x\Competition.2015.HDRip.x264.960x.rip by Frost O.S.mp4Формат : MPEG-4Профиль формата : Base MediaИдентификатор кодека : isomРазмер файла : 35,0 МбайтПродолжительность : 3 м. 47 с.Режим общего битрейта : ПеременныйОбщий поток : 1292 Кбит/секНазвание фильма : Competition 2015 HDRip x264 960x rip by Frost O SТип содержимого : Short FilmДата кодирования : UTC 2016-04-19 15:10:29Дата пометки : UTC 2016-04-19 15:10:29Программа кодирования : MkvToMp4 version: 0.224 (x64)Обложка : YesПримечание : rip by Frost O.S

ВидеоИдентификатор : 1Формат : AVCФормат/Информация : Advanced Video CodecПрофиль формата : [email protected]Параметр CABAC формата : ДаПараметр ReFrames формата : 10 кадровИдентификатор кодека : avc1Идентификатор кодека/Информация : Advanced Video CodingПродолжительность : 3 м. 47 с.Битрейт : 1148 Кбит/секМаксимальный битрейт : 4183 Кбит/секШирина : 960 пикселейВысота : 518 пикселейСоотношение сторон : 1,85:1Режим частоты кадров : ПостоянныйЧастота кадров : 23,976 кадра/секЦветовое пространство : YUVСубдискретизация насыщенности : 4:2:0Битовая глубина : 8 битТип развёртки : ПрогрессивнаяБит/(Пиксели*Кадры) : 0.096Размер потока : 31,2 Мбайт (89%)Библиотека кодирования : x264 core 130 r2273 b3065e6Настройки программы : cabac=1 / ref=10 / deblock=1:-3:-3 / analyse=0x3:0x113 / me=umh / subme=11 / psy=1 / psy_rd=0.60:0.00 / mixed_ref=1 / me_range=32 / chroma_me=1 / trellis=2 / 8x8dct=1 / cqm=0 / deadzone=21,11 / fast_pskip=0 / chroma_qp_offset=-2 / threads=3 / lookahead_threads=1 / sliced_threads=0 / nr=0 / decimate=0 / interlaced=0 / bluray_compat=0 / constrained_intra=0 / bframes=10 / b_pyramid=2 / b_adapt=2 / b_bias=0 / direct=3 / weightb=1 / open_gop=0 / weightp=2 / keyint=250 / keyint_min=23 / scenecut=40 / intra_refresh=0 / rc_lookahead=60 / rc=2pass / mbtree=1 / bitrate=1148 / ratetol=1.0 / qcomp=0.60 / qpmin=0 / qpmax=69 / qpstep=4 / cplxblur=20.0 / qblur=0.5 / ip_ratio=1.40 / aq=1:1.00Язык : EnglishДата кодирования : UTC 2016-04-19 15:10:29Дата пометки : UTC 2016-04-19 15:10:29Основные цвета : BT.709Характеристики трансфера : BT.709Коэффициенты матрицы : BT.709

АудиоИдентификатор : 2Формат : AACФормат/Информация : Advanced Audio CodecПрофиль формата : LCИдентификатор кодека : 40Продолжительность : 3 м. 47 с.Вид битрейта : ПеременныйБитрейт : 128 Кбит/секМаксимальный битрейт : 135 Кбит/секКаналы : 2 каналаРасположение каналов : Front: L RЧастота : 48,0 КГцМетод сжатия : С потерямиРазмер потока : 3,47 Мбайт (10%)Язык : RussianДата кодирования : UTC 2016-04-19 15:10:29Дата пометки : UTC 2016-04-19 15:10:29

Кроминьонцы / CroMinions

Год выпуска: 2015
Страна: США
Жанр: мультфильм, комедия, семейный
Продолжительность: 00:04:25
Перевод: не требуется
Cубтитры: нет
Режиссер: Didier Ah-Koon, Régis Schuller
Роли озвучивали: Пьер Коффан / Pierre Coffin, Крис Рено / Chris Renaud, Тара Стронг / Tara Strong .
Описание: Миньоны хотя и понимают человеческую речь, говорить по-человечески не умеют, но могут произносить отдельные слова, но чаще они общаются на своём языке между собой. Глуповатые, но очень полезные. Интересно, что у некоторых миньонов только один глаз.
Ссылка на КиноПоиск "Кроминьонцы" Релиз группы
Качество:HDRip / <a href="viewtopic.php?t=5153388" class="postLink">рип с BDRip 720p</a> Формат: MP4
Видео кодек: H.264 Аудио кодек: AAC
Видео: 960x518 AR:1.85 1467 kbps 23.976 fps
Аудио: 2ch 48 kHz 128 kbps
avs [info]: 960x518p 1:1 @ 2997/125 fps (cfr)
x264 [info]: using SAR=1/1
x264 [info]: using cpu capabilities: MMX2 SSE2Fast SSSE3 SSE4.2 LZCNT
x264 [info]: profile High, level 4.1

x264 [info]: frame I:67 Avg QP:15.45 size: 83502
x264 [info]: frame P:1661 Avg QP:20.95 size: 16502
x264 [info]: frame B:4627 Avg QP:22.54 size: 3370
x264 [info]: consecutive B-frames: 6.7% 5.5% 10.7% 21.1% 12.6% 23.6% 3.6% 6.4% 9.6%
x264 [info]: mb I I16..4: 22.8% 56.0% 21.2%
x264 [info]: mb P I16..4: 3.7% 14.3% 1.5% P16..4: 32.0% 27.4% 8.1% 0.0% 0.0% skip:12.9%
x264 [info]: mb B I16..4: 0.2% 1.5% 0.2% B16..8: 25.1% 8.8% 1.3% direct: 1.6% skip:61.3% L0:40.6% L1:46.9% BI:12.4%
x264 [info]: 8x8 transform intra:71.9% inter:69.7%
x264 [info]: direct mvs spatial:94.5% temporal:5.5%
x264 [info]: coded y,uvDC,uvAC intra: 70.0% 71.2% 39.2% inter: 11.2% 10.3% 4.0%
x264 [info]: i16 v,h,dc,p: 12% 15% 3% 71%
x264 [info]: i8 v,h,dc,ddl,ddr,vr,hd,vl,hu: 8% 10% 3% 10% 14% 12% 15% 12% 16%
x264 [info]: i4 v,h,dc,ddl,ddr,vr,hd,vl,hu: 13% 10% 5% 9% 15% 12% 14% 9% 13%
x264 [info]: i8c dc,h,v,p: 27% 34% 16% 23%
x264 [info]: Weighted P-Frames: Y:1.4% UV:0.9%
x264 [info]: ref P L0: 54.0% 12.1% 14.2% 6.1% 3.8% 3.6% 2.6% 1.7% 1.6% 0.5% 0.0%
x264 [info]: ref B L0: 78.7% 9.1% 5.5% 2.3% 1.9% 1.3% 0.9% 0.3%
x264 [info]: ref B L1: 92.7% 7.3%
x264 [info]: kb/s:1466.81
encoded 6355 frames, 6.20 fps, 1466.84 kb/s

ОбщееПолное имя : D:\Torrents\Minions Mini-Movies.2015.HDRip.x264.960x\CroMinions.2015.HDRip.x264.960x.rip by Frost O.S.mp4Формат : MPEG-4Профиль формата : Base MediaИдентификатор кодека : isomРазмер файла : 50,8 МбайтПродолжительность : 4 м. 25 с.Режим общего битрейта : ПеременныйОбщий поток : 1606 Кбит/секНазвание фильма : CroMinions 2015 HDRip x264 960x rip by Frost O SТип содержимого : Short FilmДата кодирования : UTC 2016-04-19 15:57:39Дата пометки : UTC 2016-04-19 15:57:39Программа кодирования : MkvToMp4 version: 0.224 (x64)Обложка : YesПримечание : rip by Frost O.S

ВидеоИдентификатор : 1Формат : AVCФормат/Информация : Advanced Video CodecПрофиль формата : [email protected]Параметр CABAC формата : ДаПараметр ReFrames формата : 9 кадровИдентификатор кодека : avc1Идентификатор кодека/Информация : Advanced Video CodingПродолжительность : 4 м. 25 с.Битрейт : 1467 Кбит/секМаксимальный битрейт : 3886 Кбит/секШирина : 960 пикселейВысота : 518 пикселейСоотношение сторон : 1,85:1Режим частоты кадров : ПостоянныйЧастота кадров : 23,976 кадра/секЦветовое пространство : YUVСубдискретизация насыщенности : 4:2:0Битовая глубина : 8 битТип развёртки : ПрогрессивнаяБит/(Пиксели*Кадры) : 0.123Размер потока : 46,3 Мбайт (91%)Библиотека кодирования : x264 core 130 r2273 b3065e6Настройки программы : cabac=1 / ref=9 / deblock=1:-3:-3 / analyse=0x3:0x113 / me=umh / subme=11 / psy=1 / psy_rd=0.60:0.00 / mixed_ref=1 / me_range=32 / chroma_me=1 / trellis=2 / 8x8dct=1 / cqm=0 / deadzone=21,11 / fast_pskip=0 / chroma_qp_offset=-2 / threads=3 / lookahead_threads=1 / sliced_threads=0 / nr=0 / decimate=0 / interlaced=0 / bluray_compat=0 / constrained_intra=0 / bframes=8 / b_pyramid=2 / b_adapt=2 / b_bias=0 / direct=3 / weightb=1 / open_gop=0 / weightp=2 / keyint=250 / keyint_min=23 / scenecut=40 / intra_refresh=0 / rc_lookahead=60 / rc=2pass / mbtree=1 / bitrate=1467 / ratetol=1.0 / qcomp=0.60 / qpmin=0 / qpmax=69 / qpstep=4 / cplxblur=20.0 / qblur=0.5 / ip_ratio=1.40 / aq=1:1.00Язык : EnglishДата кодирования : UTC 2016-04-19 15:57:39Дата пометки : UTC 2016-04-19 15:57:39Основные цвета : BT.709Характеристики трансфера : BT.709Коэффициенты матрицы : BT.709

АудиоИдентификатор : 2Формат : AACФормат/Информация : Advanced Audio CodecПрофиль формата : LCИдентификатор кодека : 40Продолжительность : 4 м. 25 с.Вид битрейта : ПеременныйБитрейт : 128 Кбит/секМаксимальный битрейт : 134 Кбит/секКаналы : 2 каналаРасположение каналов : Front: L RЧастота : 48,0 КГцМетод сжатия : С потерямиРазмер потока : 4,05 Мбайт (8%)Язык : RussianДата кодирования : UTC 2016-04-19 15:57:39Дата пометки : UTC 2016-04-19 15:57:39


Трекер:  [ 19-Апр-2016 18:00 ]

  

Скачать .torrent

Размер .torrent файла 20 KB


Размер: 124 MB
Хэш (hash) релиза: d823f036b83152bde63baa2d59faebd45a28216b

Торренты, похожие на [MULT] Миньоны: Мини-фильмы скачать торрент

Форум Название Автор Размер S L Добавлен
Видео (Фильмы/Клипы) ·· [MULT] Миньоны: Мини-фильмы (Преображение дома, Ознакомительный день, Банан) / Minions: Mini-Movies (Home makeover, Orientation Day, Banana) (Кайл Балда / Kyle Balda) [2010, короткометражка, мультфильм, HDRip] [3GP, 320x] Dub Galfimbul 3926600237 MB 0 0 1527167200

16:06

24-Май-18

Видео (Фильмы/Клипы) ·· [MULT] Миньоны: Мини-фильмы (Паника в почтовом отделении, Щенок, Страховочные колеса) / Minions: Mini-Movies (Panic in the Mailroom, Puppy, Training Wheels) (Фабрис Жубер / Fabrice Joubert [2013, мультфильм, HDRip] [3GP, 320x] Sub (rus) Galfimbul 4209712840 MB 0 0 1527167192

16:06

24-Май-18

Видео (Фильмы/Клипы) ·· [MULT] Миньоны: Мини-фильмы (Неугомонный Бинки Нельсон, Соревнование, Кроминьонцы) / Minions: Mini-Movies (Binky Nelson unpacified, Competition, Кроминьонцы) (Фабрис Жубер / Fabrice Joubert) [2015, короткометражка, мультфильм, HDRip] [3GP, 320x] Dub Galfimbul 4134877139 MB 0 0 1527167184

16:06

24-Май-18

Видео (Фильмы/Клипы) ·· [MULT] Миньоны: Мини-фильмы (Преображение дома, Ознакомительный день, Банан) / Minions: Mini-Movies (Home makeover, Orientation Day, Banana) (Кайл Балда / Kyle Balda) [2010, короткометражка, мультфильм, HDRip] [MP4, 480x] Dub Galfimbul 5325859751 MB 0 0 1527161803

14:36

24-Май-18

Видео (Фильмы/Клипы) ·· [MULT] Миньоны: Мини-фильмы (Паника в почтовом отделении, Щенок, Страховочные колеса) / Minions: Mini-Movies (Panic in the Mailroom, Puppy, Training Wheels) (Фабрис Жубер / Fabrice Joubert [2013, мультфильм, HDRip] [MP4, 480x] Sub (rus, eng) Galfimbul 5767905055 MB 0 0 1527161795

14:36

24-Май-18

Видео (Фильмы/Клипы) ·· [MULT] Миньоны: Мини-фильмы (Неугомонный Бинки Нельсон, Соревнование, Кроминьонцы) / Minions: Mini-Movies (Binky Nelson unpacified, Competition, Кроминьонцы) (Фабрис Жубер / Fabrice Joubert) [2015, короткометражка, мультфильм, HDRip] [MP4, 480x] Dub Galfimbul 5828283856 MB 0 0 1527161787

14:36

24-Май-18

Видео (Фильмы/Клипы) ·· [MULT] Миньоны: Мини-фильмы (Преображение дома, Ознакомительный день, Банан) / Minions: Mini-Movies (Home makeover, Orientation Day, Banana) (Кайл Балда / Kyle Balda) [2010, мультфильм, HDRip] [MP4, 960x] Galfimbul 135349057129 MB 0 0 1527150990

11:36

24-Май-18

Видео (Фильмы/Клипы) ·· [MULT] Миньоны: Мини-фильмы (Паника в почтовом отделении, Щенок, Страховочные колеса) / Minions: Mini-Movies (Panic in the Mailroom, Puppy, Training Wheels) (Фабрис Жубер / Fabrice Joubert [2013, мультфильм, HDRip] [MP4, 960x] Sub (rus) Galfimbul 154200141147 MB 0 0 1527150981

11:36

24-Май-18

Еще никто не оставлял запись к записи скачать торрент [MULT] Миньоны: Мини-фильмы . Будь первым!

!Обратная связь