Beyonc: Lemonade (2016) | The Handmaid’s Tale : la servante écarlate | Ihr Auftrag, Pater Castell

Скачать через торрент [VIDEO] Бинго Бонго Bingo Bongo бесплатно русская версия torrent активатор

Статистика раздачи
Размер:  824 MB   |    Зарегистрирован:  2 года 2 месяца   |    .torrent скачан:  24 раза   |   
Раздают:  1  
   
загрузка...
 
Автор Сообщение

Galfimbul

avatar Galfimbul


Бинго Бонго / Bingo Bongo

Год выпуска: 1982
Страна: Италия, Германия (ФРГ)
Жанр: комедия
Продолжительность: 01:42:01
Перевод: Профессиональный (двухголосый, закадровый)
Cубтитры: нет
Режиссёры: Паскуале Феста Кампаниле / Pasquale Festa Campanile
В ролях: Адриано Челентано / Adriano Celentano, Кароль Буке / Carole Bouquet, Феличе Андреази / Felice Andreasi, Энцо Робутти / Enzo Robutti, Вальтер Д’Аморе / Walter D'Amore и другие .
Описание: Человек-обезьяна, найденный где-то в джунглях Конго, перевезен в Милан и назван Бинго-Бонго. Одна лишь Лаура, женщина-антрополог, верит в человеческие качества этого необузданного полуживотного, и их привязанность друг к другу даже перерастает в любовь.
Релиз группы

Произведение, которое исполняет Бинго-Бонго на музыкальном инструменте, чем поражает учёных, — это фрагмент первой части Концерта № 2 для фортепиано с оркестром С. В. Рахманинова.
Книга, которую читает Ренато, когда Лаура учит Бинго говорить, называется «Il viaggio di Darwin» («Путешествие Дарвина»).
Музыкальные композиции из фильма входят в альбом Адриано Челентано «Uh… uh…".

Качество: DVDRip / <a href="viewtopic.php?t=346369" class="postLink">рип с DVD5</a> Формат: MP4 Видео кодек: H.264 Аудио кодек: AAC
Видео: 624x360 AR:1.733 994 kbps 25 fps
Аудио: 2ch 48 kHz 128 kbps [DVO]
avs [info]: 624x360p 1:1 @ 25/1 fps (cfr)
x264 [info]: using SAR=1/1
x264 [info]: using cpu capabilities: MMX2 SSE2Fast SSSE3 SSE4.2 LZCNT
x264 [info]: profile High, level 4.1

x264 [info]: frame I:1139 Avg QP:20.93 size: 34770
x264 [info]: frame P:30905 Avg QP:24.21 size: 12775
x264 [info]: frame B:121003 Avg QP:28.30 size: 2696
x264 [info]: consecutive B-frames: 1.2% 1.4% 5.1% 19.8% 13.5% 52.8% 3.8% 1.4% 0.9%
x264 [info]: mb I I16..4: 5.8% 76.0% 18.1%
x264 [info]: mb P I16..4: 0.6% 8.2% 1.3% P16..4: 35.8% 37.6% 12.7% 1.7% 0.2% skip: 2.0%
x264 [info]: mb B I16..4: 0.0% 0.9% 0.1% B16..8: 39.1% 16.1% 2.2% direct: 3.4% skip:38.1% L0:37.1% L1:46.9% BI:16.0%
x264 [info]: 8x8 transform intra:80.8% inter:62.7%
x264 [info]: direct mvs spatial:97.5% temporal:2.5%
x264 [info]: coded y,uvDC,uvAC intra: 93.8% 79.9% 41.2% inter: 21.2% 17.2% 4.6%
x264 [info]: i16 v,h,dc,p: 50% 25% 2% 22%
x264 [info]: i8 v,h,dc,ddl,ddr,vr,hd,vl,hu: 14% 9% 4% 9% 14% 13% 13% 12% 13%
x264 [info]: i4 v,h,dc,ddl,ddr,vr,hd,vl,hu: 21% 10% 3% 8% 12% 13% 12% 11% 11%
x264 [info]: i8c dc,h,v,p: 34% 25% 22% 19%
x264 [info]: Weighted P-Frames: Y:12.7% UV:2.8%
x264 [info]: ref P L0: 40.2% 12.7% 21.8% 6.2% 6.2% 3.8% 4.3% 1.8% 2.4% 0.5% 0.0%
x264 [info]: ref B L0: 81.3% 10.3% 3.2% 1.8% 1.2% 1.2% 0.6% 0.3%
x264 [info]: ref B L1: 95.9% 4.1%
x264 [info]: kb/s:993.97

x264 [total]: encoded 153047 frames, 10.87 fps, 993.98 kb/s
щееПолное имя : D:\Torrents\Bingo Bongo.1982.DVDRip.x264.640x.rip by Frost O.S.mp4Формат : MPEG-4Профиль формата : Base MediaИдентификатор кодека : isomРазмер файла : 824 МбайтПродолжительность : 1 ч. 42 м.Режим общего битрейта : ПеременныйОбщий поток : 1130 Кбит/секНазвание фильма : Bingo Bongo 1982 DVDRip x264 640x rip by Frost O SЖанр : ComedyТип содержимого : Short FilmДата кодирования : UTC 2016-04-19 13:11:32Дата пометки : UTC 2016-04-19 13:12:08Программа кодирования : MkvToMp4 version: 0.224 (x64)Обложка : YesПримечание : rip by Frost O.SLongDescription : Человек-обезьяна, найденный где-то в джунглях Конго, перевезен в Милан и назван Бинго-Бонго. Одна лишь Лаура, женщина-антрополог, верит в человеческие качества этого необузданного полуживотного, и их привязанность друг к другу даже перерастает в любовь.

ВидеоИдентификатор : 1Формат : AVCФормат/Информация : Advanced Video CodecПрофиль формата : [email protected]Параметр CABAC формата : ДаПараметр ReFrames формата : 9 кадровИдентификатор кодека : avc1Идентификатор кодека/Информация : Advanced Video CodingПродолжительность : 1 ч. 42 м.Битрейт : 994 Кбит/секМаксимальный битрейт : 4137 Кбит/секШирина : 624 пикселяВысота : 360 пикселейСоотношение сторон : 1,733Режим частоты кадров : ПостоянныйЧастота кадров : 25,000 кадров/секЦветовое пространство : YUVСубдискретизация насыщенности : 4:2:0Битовая глубина : 8 битТип развёртки : ПрогрессивнаяБит/(Пиксели*Кадры) : 0.177Размер потока : 725 Мбайт (88%)Библиотека кодирования : x264 core 130 r2273 b3065e6Настройки программы : cabac=1 / ref=9 / deblock=1:-1:-1 / analyse=0x3:0x133 / me=umh / subme=11 / psy=1 / psy_rd=1.00:0.15 / mixed_ref=1 / me_range=48 / chroma_me=1 / trellis=2 / 8x8dct=1 / cqm=0 / deadzone=21,11 / fast_pskip=0 / chroma_qp_offset=-3 / threads=3 / lookahead_threads=1 / sliced_threads=0 / nr=0 / decimate=0 / interlaced=0 / bluray_compat=0 / constrained_intra=0 / bframes=8 / b_pyramid=2 / b_adapt=2 / b_bias=0 / direct=3 / weightb=1 / open_gop=0 / weightp=2 / keyint=250 / keyint_min=25 / scenecut=40 / intra_refresh=0 / rc_lookahead=60 / rc=2pass / mbtree=1 / bitrate=994 / ratetol=1.0 / qcomp=0.60 / qpmin=0 / qpmax=69 / qpstep=4 / cplxblur=20.0 / qblur=0.5 / ip_ratio=1.40 / aq=1:0.80Язык : EnglishДата кодирования : UTC 2016-04-19 13:11:32Дата пометки : UTC 2016-04-19 13:11:45Основные цвета : BT.601 PALХарактеристики трансфера : BT.470 System B, BT.470 System GКоэффициенты матрицы : BT.601

АудиоИдентификатор : 2Формат : AACФормат/Информация : Advanced Audio CodecПрофиль формата : LCИдентификатор кодека : 40Продолжительность : 1 ч. 41 м.Вид битрейта : ПеременныйБитрейт : 128 Кбит/секМаксимальный битрейт : 132 Кбит/секКаналы : 2 каналаРасположение каналов : Front: L RЧастота : 48,0 КГцМетод сжатия : С потерямиРазмер потока : 93,3 Мбайт (11%)Заголовок : [DVO]Язык : RussianДата кодирования : UTC 2016-04-19 13:11:42Дата пометки : UTC 2016-04-19 13:11:45


Трекер:  [ 19-Апр-2016 15:30 ]

  

Скачать .torrent

Размер .torrent файла 16 KB


Размер: 824 MB
Хэш (hash) релиза: a1c09e79e2c9fca4fb31b5a9ec0a66619ec24022

Еще никто не оставлял запись к записи скачать торрент [VIDEO] Бинго Бонго Bingo Bongo . Будь первым!

!Обратная связь