Gifted Students | More popular christian books... | Ver catalogo completo

Скачать через торрент [MULT] Ледниковый Период: Погоня за яйцами Ice Age: The Great Egg-Scapade бесплатно русская версия torrent активатор

Статистика раздачи
Размер:  264 MB   |    Зарегистрирован:  2 года 3 месяца   |    .torrent скачан:  38 раз   |   
Раздают:  1  
   
загрузка...
 
Автор Сообщение

Galfimbul

avatar Galfimbul


Ледниковый Период: Погоня за яйцами / Ice Age: The Great Egg-Scapade

Год выпуска: 2016
Страна: США
Жанр: мультфильм, короткометражка
Продолжительность: 00:24:28
Перевод №1: [Русский] Профессиональный (полное дублирование)
Перевод №2: [Украинский] Профессиональный (полное дублирование)
Cубтитры: нет
Режиссер: Рикардо Кертис / Ricardo Curtis
Роли озвучивали: Блейк Андерсон, Лили Эстефан, Сет Грин, Габриэль Иглесиас, Дэнис Лири, Джон Легуизамо, Джош Пек, Куин Латифа, Рэй Романо, Шонн Уильям Скотт .
Описание: Новый бизнес Сида по высиживанию яиц успешно развивается, но когда подлый кролик-пират Сквинт крадет яйца, Мэнни, Диего и остальные отправляются в бесстрашную спасательную операцию, которой суждено стать первой в истории погоней за яйцами.
Релиз группы
Качество:WEB-DLRip / <a href="viewtopic.php?t=5193783" class="postLink">рип с WEB-DL 1080p</a> Формат: MP4 Видео кодек: H.264 Аудио кодек: AAC
Видео: 960x538 AR:16/9 1246 kbps 23.976 fps
Аудио №1: [Русский] 2ch 48 kHz 128 kbps [Dub]
Аудио №2: [Украинский] 2ch 48 kHz 128 kbps [Dub]
avs [info]: 960x538p 1:1 @ 2997/125 fps (cfr)
x264 [info]: using SAR=1/1
x264 [info]: using cpu capabilities: MMX2 SSE2Fast SSSE3 SSE4.2 LZCNT
x264 [info]: profile High, level 4.1

x264 [info]: frame I:371 Avg QP:16.54 size: 74485
x264 [info]: frame P:10405 Avg QP:21.89 size: 12310
x264 [info]: frame B:24422 Avg QP:25.46 size: 2969
x264 [info]: consecutive B-frames: 4.9% 8.2% 7.5% 69.6% 4.1% 4.5% 1.2%
x264 [info]: mb I I16..4: 9.5% 61.7% 28.8%
x264 [info]: mb P I16..4: 2.3% 10.8% 1.4% P16..4: 26.0% 21.0% 6.9% 0.0% 0.0% skip:31.5%
x264 [info]: mb B I16..4: 0.3% 1.7% 0.2% B16..8: 19.4% 7.8% 1.6% direct: 1.5% skip:67.5% L0:39.2% L1:48.5% BI:12.2%
x264 [info]: 8x8 transform intra:72.9% inter:61.7%
x264 [info]: direct mvs spatial:91.8% temporal:8.2%
x264 [info]: coded y,uvDC,uvAC intra: 70.6% 69.8% 30.7% inter: 9.4% 6.2% 2.5%
x264 [info]: i16 v,h,dc,p: 14% 17% 6% 62%
x264 [info]: i8 v,h,dc,ddl,ddr,vr,hd,vl,hu: 9% 11% 6% 8% 12% 12% 13% 12% 16%
x264 [info]: i4 v,h,dc,ddl,ddr,vr,hd,vl,hu: 11% 14% 11% 7% 13% 11% 12% 8% 12%
x264 [info]: i8c dc,h,v,p: 28% 33% 17% 22%
x264 [info]: Weighted P-Frames: Y:2.3% UV:1.3%
x264 [info]: ref P L0: 60.9% 9.8% 12.3% 5.4% 3.4% 4.1% 3.9% 0.3% 0.0%
x264 [info]: ref B L0: 82.6% 6.1% 4.2% 4.1% 2.4% 0.6%
x264 [info]: ref B L1: 96.1% 3.9%
x264 [info]: kb/s:1243.76
encoded 35198 frames, 8.29 fps, 1243.76 kb/s

ОбщееПолное имя : D:\Torrents\Ice Age. The Great Egg-Scapade.2016.WEB-DLRip.x264.960x.rip by Frost O.S.mp4Формат : MPEG-4Профиль формата : Base MediaИдентификатор кодека : isomРазмер файла : 264 МбайтПродолжительность : 24 м.Режим общего битрейта : ПеременныйОбщий поток : 1510 Кбит/секНазвание фильма : Ice Age The Great Egg-Scapade 2016 WEB-DLRip x264 960x rip by Frost O SЖанр : ComedyТип содержимого : Short FilmДата кодирования : UTC 2016-04-19 07:53:44Дата пометки : UTC 2016-04-19 07:53:53Программа кодирования : MkvToMp4 version: 0.224 (x64)Обложка : YesПримечание : rip by Frost O.SLongDescription : Новый бизнес Сида по высиживанию яиц успешно развивается, но когда подлый кролик-пират Сквинт крадет яйца, Мэнни, Диего и остальные отправляются в бесстрашную спасательную операцию, которой суждено стать первой в истории погоней за яйцами.

ВидеоИдентификатор : 1Формат : AVCФормат/Информация : Advanced Video CodecПрофиль формата : [email protected]Параметр CABAC формата : ДаПараметр ReFrames формата : 7 кадровИдентификатор кодека : avc1Идентификатор кодека/Информация : Advanced Video CodingПродолжительность : 24 м.Битрейт : 1246 Кбит/секМаксимальный битрейт : 5604 Кбит/секШирина : 960 пикселейВысота : 538 пикселейСоотношение сторон : 16:9Режим частоты кадров : ПостоянныйЧастота кадров : 23,976 кадра/секЦветовое пространство : YUVСубдискретизация насыщенности : 4:2:0Битовая глубина : 8 битТип развёртки : ПрогрессивнаяБит/(Пиксели*Кадры) : 0.101Размер потока : 218 Мбайт (82%)Библиотека кодирования : x264 core 130 r2273 b3065e6Настройки программы : cabac=1 / ref=7 / deblock=1:-1:-1 / analyse=0x3:0x113 / me=umh / subme=11 / psy=1 / psy_rd=0.50:0.00 / mixed_ref=1 / me_range=32 / chroma_me=1 / trellis=2 / 8x8dct=1 / cqm=0 / deadzone=21,11 / fast_pskip=0 / chroma_qp_offset=-2 / threads=3 / lookahead_threads=1 / sliced_threads=0 / nr=0 / decimate=0 / interlaced=0 / bluray_compat=0 / constrained_intra=0 / bframes=6 / b_pyramid=2 / b_adapt=2 / b_bias=0 / direct=3 / weightb=1 / open_gop=0 / weightp=2 / keyint=250 / keyint_min=23 / scenecut=40 / intra_refresh=0 / rc_lookahead=60 / rc=2pass / mbtree=1 / bitrate=1246 / ratetol=1.0 / qcomp=0.60 / qpmin=0 / qpmax=69 / qpstep=4 / cplxblur=20.0 / qblur=0.5 / ip_ratio=1.40 / aq=1:1.00Язык : EnglishДата кодирования : UTC 2016-04-19 07:53:44Дата пометки : UTC 2016-04-19 07:53:46Основные цвета : BT.709Характеристики трансфера : BT.709Коэффициенты матрицы : BT.709

Аудио #1Идентификатор : 2Формат : AACФормат/Информация : Advanced Audio CodecПрофиль формата : HE-AAC / LCИдентификатор кодека : 40Продолжительность : 24 м.Вид битрейта : ПеременныйБитрейт : 128 Кбит/секМаксимальный битрейт : 147 Кбит/секКаналы : 2 каналаChannel(s)_Original : 6 каналовРасположение каналов : Front: L C R, Side: L R, LFEЧастота : 48,0 КГц / 24,0 КГцМетод сжатия : С потерямиРазмер потока : 22,4 Мбайт (8%)Заголовок : [Dub]Язык : RussianДата кодирования : UTC 2016-04-19 07:53:45Дата пометки : UTC 2016-04-19 07:53:46

Аудио #2Идентификатор : 3Формат : AACФормат/Информация : Advanced Audio CodecПрофиль формата : LCИдентификатор кодека : 40Продолжительность : 24 м.Вид битрейта : ПеременныйБитрейт : 128 Кбит/секМаксимальный битрейт : 135 Кбит/секКаналы : 2 каналаРасположение каналов : Front: L RЧастота : 48,0 КГцМетод сжатия : С потерямиРазмер потока : 22,4 Мбайт (8%)Заголовок : [Dub]Язык : UkrainianДата кодирования : UTC 2016-04-19 07:53:46Дата пометки : UTC 2016-04-19 07:53:46


Трекер:  [ 19-Апр-2016 10:00 ]

  

Скачать .torrent

Размер .torrent файла 11 KB


Размер: 264 MB
Хэш (hash) релиза: f33fde5ca49da57e40a85bcce761cd8449ca5ac7

Еще никто не оставлял запись к записи скачать торрент [MULT] Ледниковый Период: Погоня за яйцами Ice Age: The Great Egg-Scapade . Будь первым!

!Обратная связь