Corel Painter 2019 | Street Food Fighter Ep.4 | Magic Kaito

Скачать через торрент [MULT] Кунг-Фу Панда: Тайны свитка Kung Fu Panda. Secrets of the Scroll бесплатно русская версия torrent активатор

Статистика раздачи
Размер:  233 MB   |    Зарегистрирован:  2 года 2 месяца   |    .torrent скачан:  17 раз   |   
Раздают:  1  
   
загрузка...
 
Автор Сообщение

Galfimbul

avatar Galfimbul


Кунг-Фу Панда: Тайны свитка / Kung Fu Panda. Secrets of the Scroll

Год выпуска: 2016
Страна: США
Жанр: мультфильм, короткометражка
Продолжительность: 00:23:27
Перевод: [Русский] Профессиональный (полное дублирование)
Cубтитры: нет
Режиссер: Родольф Геноден / Rodolphe Guenoden
Роли дублировали: Джек Блэк, Eliott Guenoden, Джеймс Хонг, Дастин Хоффман, Тара Макри, Рэндолл Дак Ким, Стивен Кеарин, Джейден Ланд, Джозеф Иззо, Сет Роген .
Роли дублировали: Сергей Бурунов, Александр Хотченков, Олег Форостенко, Борис Быстров, Александр Гаврилин, Марианна Шульц, Денис Беспалый, Ольга Зубкова, Диомид Виноградов .
Описание: Тигрица, Змея, Обезьяна, Журавль и Богомол из обычных незнакомцев превращаются в легендарную Неистовую Пятерку Кунг-Фу.
Релиз группы
Качество:WEB-DLRip / <a href="viewtopic.php?t=5193933" class="postLink">рип с WEB-DL 720p</a> Формат: MP4 Видео кодек: H.264 Аудио кодек: AAC
Видео: 960x538 AR:16/9 1253 kbps 23.976 fps Аудио: [Русский] 2ch 48 kHz 128 kbps [Dub]
avs [info]: 960x538p 1:1 @ 2997/125 fps (cfr)
x264 [info]: using SAR=1/1
x264 [info]: using cpu capabilities: MMX2 SSE2Fast SSSE3 SSE4.2 LZCNT
x264 [info]: profile High, level 4.1

x264 [info]: frame I:443 Avg QP:16.70 size: 80140
x264 [info]: frame P:10128 Avg QP:22.06 size: 12699
x264 [info]: frame B:23179 Avg QP:25.37 size: 2430
x264 [info]: consecutive B-frames: 5.7% 7.9% 7.2% 72.2% 3.4% 2.6% 1.1%
x264 [info]: mb I I16..4: 6.4% 45.0% 48.6%
x264 [info]: mb P I16..4: 2.3% 7.6% 2.9% P16..4: 27.3% 21.9% 7.5% 0.0% 0.0% skip:30.5%
x264 [info]: mb B I16..4: 0.3% 0.8% 0.3% B16..8: 20.2% 6.0% 1.3% direct: 1.1% skip:70.0% L0:38.1% L1:54.2% BI: 7.8%
x264 [info]: 8x8 transform intra:56.2% inter:51.8%
x264 [info]: direct mvs spatial:90.4% temporal:9.6%
x264 [info]: coded y,uvDC,uvAC intra: 65.6% 74.3% 45.0% inter: 8.3% 9.1% 4.8%
x264 [info]: i16 v,h,dc,p: 21% 21% 7% 52%
x264 [info]: i8 v,h,dc,ddl,ddr,vr,hd,vl,hu: 10% 11% 8% 8% 12% 11% 13% 10% 16%
x264 [info]: i4 v,h,dc,ddl,ddr,vr,hd,vl,hu: 16% 15% 11% 8% 11% 9% 10% 8% 12%
x264 [info]: i8c dc,h,v,p: 30% 33% 18% 18%
x264 [info]: Weighted P-Frames: Y:1.7% UV:1.4%
x264 [info]: ref P L0: 61.4% 8.3% 14.3% 5.1% 3.5% 3.1% 2.4% 1.6% 0.3% 0.0%
x264 [info]: ref B L0: 84.5% 7.0% 4.0% 1.6% 1.4% 0.9% 0.5%
x264 [info]: ref B L1: 94.8% 5.2%
x264 [info]: kb/s:1252.84
encoded 33750 frames, 7.63 fps, 1252.84 kb/s

ОбщееПолное имя : D:\Torrents\Kung Fu Panda. Secrets of the Scroll.2016.WEB-DLRip.x264.960x.rip by Frost O.S.mp4Формат : MPEG-4Профиль формата : Base MediaИдентификатор кодека : isomРазмер файла : 233 МбайтПродолжительность : 23 м.Режим общего битрейта : ПеременныйОбщий поток : 1388 Кбит/секНазвание фильма : Kung Fu Panda Secrets of the Scroll 2016 WEB-DLRip x264 960x rip by Frost O SЖанр : AnimationТип содержимого : Short FilmДата кодирования : UTC 2016-04-18 14:14:03Дата пометки : UTC 2016-04-18 14:14:11Программа кодирования : MkvToMp4 version: 0.224 (x64)Обложка : YesПримечание : rip by Frost O.SLongDescription : Тигрица, Змея, Обезьяна, Журавль и Богомол из обычных незнакомцев превращаются в легендарную Неистовую Пятерку Кунг-Фу.

ВидеоИдентификатор : 1Формат : AVCФормат/Информация : Advanced Video CodecПрофиль формата : [email protected]Параметр CABAC формата : ДаПараметр ReFrames формата : 8 кадровИдентификатор кодека : avc1Идентификатор кодека/Информация : Advanced Video CodingПродолжительность : 23 м.Битрейт : 1253 Кбит/секМаксимальный битрейт : 7230 Кбит/секШирина : 960 пикселейВысота : 538 пикселейСоотношение сторон : 16:9Режим частоты кадров : ПостоянныйЧастота кадров : 23,976 кадра/секЦветовое пространство : YUVСубдискретизация насыщенности : 4:2:0Битовая глубина : 8 битТип развёртки : ПрогрессивнаяБит/(Пиксели*Кадры) : 0.101Размер потока : 210 Мбайт (90%)Библиотека кодирования : x264 core 130 r2273 b3065e6Настройки программы : cabac=1 / ref=8 / deblock=1:-1:-1 / analyse=0x3:0x113 / me=umh / subme=11 / psy=1 / psy_rd=0.50:0.00 / mixed_ref=1 / me_range=32 / chroma_me=1 / trellis=2 / 8x8dct=1 / cqm=0 / deadzone=21,11 / fast_pskip=0 / chroma_qp_offset=-2 / threads=3 / lookahead_threads=1 / sliced_threads=0 / nr=0 / decimate=0 / interlaced=0 / bluray_compat=0 / constrained_intra=0 / bframes=6 / b_pyramid=2 / b_adapt=2 / b_bias=0 / direct=3 / weightb=1 / open_gop=0 / weightp=2 / keyint=250 / keyint_min=23 / scenecut=40 / intra_refresh=0 / rc_lookahead=60 / rc=2pass / mbtree=1 / bitrate=1253 / ratetol=1.0 / qcomp=0.60 / qpmin=0 / qpmax=69 / qpstep=4 / cplxblur=20.0 / qblur=0.5 / ip_ratio=1.40 / aq=1:1.00Язык : EnglishДата кодирования : UTC 2016-04-18 14:14:03Дата пометки : UTC 2016-04-18 14:14:05Основные цвета : BT.709Характеристики трансфера : BT.709Коэффициенты матрицы : BT.709

АудиоИдентификатор : 2Формат : AACФормат/Информация : Advanced Audio CodecПрофиль формата : LCИдентификатор кодека : 40Продолжительность : 23 м.Вид битрейта : ПеременныйБитрейт : 128 Кбит/секМаксимальный битрейт : 135 Кбит/секКаналы : 2 каналаРасположение каналов : Front: L RЧастота : 48,0 КГцМетод сжатия : С потерямиРазмер потока : 21,3 Мбайт (9%)Заголовок : [Dub]Язык : RussianДата кодирования : UTC 2016-04-18 14:14:04Дата пометки : UTC 2016-04-18 14:14:05


Трекер:  [ 18-Апр-2016 18:30 ]

  

Скачать .torrent

Размер .torrent файла 18 KB


Размер: 233 MB
Хэш (hash) релиза: 92ac95720b4566f071c8b0fa528f3564dffd5775

Еще никто не оставлял запись к записи скачать торрент [MULT] Кунг-Фу Панда: Тайны свитка Kung Fu Panda. Secrets of the Scroll . Будь первым!

!Обратная связь