Infinity Challenge Ep.557 | Pixels Official Trailer #1 (2015) - Movie HD | Privacy Policy

Скачать через торрент [VIDEO] Евдокия бесплатно русская версия torrent активатор

Статистика раздачи
Размер:  871 MB   |    Зарегистрирован:  2 года 4 месяца   |    .torrent скачан:  17 раз   |   
Раздают:  1  
   
загрузка...
 
Автор Сообщение

Galfimbul

avatar Galfimbul


Евдокия
Год выпуска: 1961
Страна: СССР, киностудия им. М. Горького
Жанр: киноповесть
Продолжительность: 01:40:31
Перевод: Не требуется

Режиссер: Татьяна Лиознова

В ролях: Людмила Хитяева, Николай Лебедев, Люба Басова, Ольга Наровчатова, Алевтина Румянцева, Юра Ахмадулин, Евгений Ануфриев, Александр Барсов, Владимир Ивашов, Лена Павленко, Наталья Защипина, Миша Дьяков, Саша Галченков, Пётр Константинов, Вера Алтайская, Валентин Зубков, Иван Рыжов, Елена Максимова, М. Львова, Айрат Арсланов, Анатолий Дудоров, Пётр Савин, Леонид Давыдов-Субоч, Георгий Шаповалов, Клавдия Хабарова, Ксения Козьмина, Валентина Беляева, Лидия Королёва, Виктор Колпаков, Елизавета Кузюрина, Инна Фёдорова, Анастасия Филиппова (Горина), Григорий Михайлов

Описание: В небольшом провинциальном городке живут рабочий по имени Евдоким и его жена — Евдокия. Своих детей у них нет, они воспитывают приемных. Их жизнь может показаться на первый взгляд незамысловатой, обыденной — однако на самом деле она полна сильных страстей, ярких и важных событий, заставляющих глубоко сопереживать героям.

Качество: DVDRip | Благодарю oleg-k за исходный |<a href="viewtopic.php?t=1079309" class="postLink">DVD9</a>|
Формат: MP4

Видео: 480x360, [email protected], AR:1.33, 1080 kbps, 25.000 fps, 0.250 bpp
Аудио: 2ch, 48 kHz, 128 kbps
Cубтитры: русские, английские

[b]Релиз:

</a></span></span>
ОбщееУникальный идентификатор : 227506735788385344095903386655448966087 (0xAB2834189B40699BADAEC549BAF923C7)Полное имя : C:\EVDOKIA\[email protected]Формат : MatroskaВерсия формата : Version 4 / Version 2Размер файла : 871 МбайтПродолжительность : 1 ч. 40 м.Общий поток : 1211 Кбит/секНазвание фильма : Евдокия / 1961 [email protected]=-Дата кодирования : UTC 2016-04-17 17:24:48Программа кодирования : mkvmerge v9.0.1 ('Obstacles') 64bitБиблиотека кодирования : libebml v1.3.3 + libmatroska v1.4.4Attachments : 001.jpg

ВидеоИдентификатор : 1Формат : AVCФормат/Информация : Advanced Video CodecПрофиль формата : [email protected]Параметр CABAC формата : ДаПараметр ReFrames формата : 8 кадровИдентификатор кодека : V_MPEG4/ISO/AVCПродолжительность : 1 ч. 40 м.Битрейт : 1080 Кбит/секШирина : 480 пикселейВысота : 360 пикселейСоотношение сторон : 4:3Режим частоты кадров : ПостоянныйЧастота кадров : 25,000 кадров/секЦветовое пространство : YUVСубдискретизация насыщенности : 4:2:0Битовая глубина : 8 битТип развёртки : ПрогрессивнаяБит/(Пиксели*Кадры) : 0.250Размер потока : 776 Мбайт (89%)Заголовок : Rip by nnlabetikБиблиотека кодирования : x264 core 146 r2538 121396cНастройки программы : cabac=1 / ref=8 / deblock=1:-2:-1 / analyse=0x3:0x113 / me=umh / subme=11 / psy=1 / psy_rd=1.00:0.00 / mixed_ref=1 / me_range=32 / chroma_me=1 / trellis=2 / 8x8dct=1 / cqm=0 / deadzone=21,11 / fast_pskip=0 / chroma_qp_offset=-2 / threads=4 / lookahead_threads=1 / sliced_threads=0 / nr=0 / decimate=1 / interlaced=0 / bluray_compat=0 / constrained_intra=0 / bframes=10 / b_pyramid=2 / b_adapt=2 / b_bias=0 / direct=3 / weightb=1 / open_gop=0 / weightp=0 / keyint=250 / keyint_min=25 / scenecut=40 / intra_refresh=0 / rc_lookahead=60 / rc=2pass / mbtree=1 / bitrate=1080 / ratetol=1.0 / qcomp=0.60 / qpmin=0 / qpmax=69 / qpstep=4 / cplxblur=20.0 / qblur=0.5 / vbv_maxrate=14000 / vbv_bufsize=14000 / nal_hrd=none / filler=0 / ip_ratio=1.35 / aq=1:1.00Язык : RussianDefault : ДаForced : НетЦветовой диапазон : LimitedОсновные цвета : BT.601 PALХарактеристики трансфера : BT.470 System B, BT.470 System GКоэффициенты матрицы : BT.601

АудиоИдентификатор : 2Формат : AACФормат/Информация : Advanced Audio CodecПрофиль формата : LCИдентификатор кодека : A_AACПродолжительность : 1 ч. 40 м.Битрейт : 128 Кбит/секКаналы : 2 каналаРасположение каналов : Front: L RЧастота : 48,0 КГцЧастота кадров : 46,875 кадров/сек (1024 spf)Метод сжатия : С потерямиРазмер потока : 92,1 Мбайт (11%)Язык : RussianDefault : ДаForced : Нет

Текст #1Идентификатор : 3Формат : UTF-8Идентификатор кодека : S_TEXT/UTF8Идентификатор кодека/Информация : UTF-8 Plain TextПродолжительность : 1 ч. 38 м.Битрейт : 73 бит/секCount of elements : 1059Размер потока : 53,0 Кбайт (0%)Язык : RussianDefault : НетForced : Нет

Текст #2Идентификатор : 4Формат : UTF-8Идентификатор кодека : S_TEXT/UTF8Идентификатор кодека/Информация : UTF-8 Plain TextПродолжительность : 1 ч. 40 м.Битрейт : 49 бит/секCount of elements : 1081Размер потока : 36,1 Кбайт (0%)Язык : EnglishDefault : НетForced : Нет

Меню00:00:00.000 : :Chapter 0100:04:43.400 : :Chapter 0200:12:24.840 : :Chapter 0300:16:17.560 : :Chapter 0400:24:14.720 : :Chapter 0500:29:02.720 : :Chapter 0600:34:12.120 : :Chapter 0700:40:58.720 : :Chapter 0800:45:34.360 : :Chapter 0900:50:31.200 : :Chapter 1000:54:08.800 : :Chapter 1101:03:51.760 : :Chapter 1201:09:37.240 : :Chapter 1301:17:55.000 : :Chapter 1401:27:36.160 : :Chapter 1501:37:54.160 : :Chapter 16


Трекер:  [ 18-Апр-2016 18:30 ]

  

Скачать .torrent

Размер .torrent файла 17 KB


Размер: 871 MB
Хэш (hash) релиза: e2e2bed1b18cbf8234d759307af0aa419537c5fa

Еще никто не оставлял запись к записи скачать торрент [VIDEO] Евдокия . Будь первым!

!Обратная связь