The Big Bear P season 09 episode 20 | American Horror Story 3. Sezon | Sci-Fi and Fantasy

Скачать через торрент [VIDEO] Безумно влюбленный Innamorato pazzo бесплатно русская версия torrent активатор

Статистика раздачи
Размер:  770 MB   |    Зарегистрирован:  2 года 3 месяца   |    .torrent скачан:  41 раз   |   
Раздают:  1  
   
загрузка...
 
Автор Сообщение

Galfimbul

avatar Galfimbul


Безумно влюбленный / Innamorato pazzo

Год выпуска: 1981
Страна: Италия
Жанр: комедия
Продолжительность: 01:36:59
Перевод №1: Профессиональный (многоголосый, закадровый)
Перевод №2: Профессиональный (многоголосый, закадровый) РТР
Cубтитры: нет
Режиссёры: Франко Кастеллано / Franco Castellano, Джузеппе Моччиа / Giuseppe Moccia
В ролях: Адриано Челентано / Adriano Celentano (Barnaba Cecchini), Орнелла Мути / Ornella Muti (Principessa Cristina), Адольфо Чели / Adolfo Celi Gustavo VI di San Tulipe), Милла Саннонер / Milla Sannoner (Betsy, la consorte di Gustavo VI), Энцо Гаринеи / Enzo Garinei (console, segretario di Gustavo), и другие .
Описание: Челентано — невозмутимый и грубоватый малый Барнаба Чиккини — избалованный женским вниманием водитель автобуса в Риме. Однажды он случайно встречает принцессу небольшого княжества Сан-Тулип — красавицу Кристину. Но к чему приведет эта встреча — не знают ни он, ни она…
Релиз группы
Качество: DVDRip / <a href="viewtopic.php?t=3682734" class="postLink">рип с DVD5 (Custom)</a> Формат: MP4 Видео кодек: H.264 Аудио кодек: AAC
Видео: 640x356 AR:16/9 842 kbps 25 fps
Аудио №1: 2ch 48 kHz 128 kbps [MVO]
Аудио №2: 2ch 48 kHz 128 kbps [MVO] РТР
avs [info]: 640x356p 1:1 @ 25/1 fps (cfr)
x264 [info]: using SAR=1/1
x264 [info]: using cpu capabilities: MMX2 SSE2Fast SSSE3 SSE4.2 LZCNT
x264 [info]: profile High, level 4.1

x264 [info]: frame I:972 Avg QP:20.12 size: 30565
x264 [info]: frame P:29037 Avg QP:23.67 size: 11388
x264 [info]: frame B:115466 Avg QP:27.70 size: 2184
x264 [info]: consecutive B-frames: 1.0% 1.6% 4.6% 28.4% 15.7% 20.1% 11.7% 11.2% 5.0% 0.7%
x264 [info]: mb I I16..4: 6.6% 70.2% 23.2%
x264 [info]: mb P I16..4: 0.7% 6.7% 1.9% P16..4: 37.0% 37.1% 12.6% 1.5% 0.2% skip: 2.2%
x264 [info]: mb B I16..4: 0.1% 0.7% 0.2% B16..8: 38.1% 14.6% 2.0% direct: 2.7% skip:41.6% L0:42.2% L1:46.2% BI:11.6%
x264 [info]: 8x8 transform intra:71.8% inter:60.9%
x264 [info]: direct mvs spatial:96.6% temporal:3.4%
x264 [info]: coded y,uvDC,uvAC intra: 83.3% 73.4% 37.7% inter: 17.5% 15.2% 5.2%
x264 [info]: i16 v,h,dc,p: 38% 20% 4% 39%
x264 [info]: i8 v,h,dc,ddl,ddr,vr,hd,vl,hu: 13% 7% 4% 9% 14% 14% 14% 12% 13%
x264 [info]: i4 v,h,dc,ddl,ddr,vr,hd,vl,hu: 32% 6% 4% 7% 10% 12% 10% 9% 9%
x264 [info]: i8c dc,h,v,p: 30% 27% 25% 18%
x264 [info]: Weighted P-Frames: Y:11.9% UV:3.3%
x264 [info]: ref P L0: 41.0% 13.0% 19.2% 6.3% 6.3% 4.2% 4.6% 2.2% 2.7% 0.5% 0.0%
x264 [info]: ref B L0: 79.6% 10.4% 3.9% 2.1% 1.4% 1.4% 0.7% 0.4%
x264 [info]: ref B L1: 95.1% 4.9%
x264 [info]: kb/s:842.13

x264 [total]: encoded 145475 frames, 10.97 fps, 842.13 kb/s
ОбщееПолное имя : D:\Torrents\Innamorato pazzo.1981.DVDRip.x264.640x.rip by Frost O.S.mp4Формат : MPEG-4Профиль формата : Base MediaИдентификатор кодека : isomРазмер файла : 770 МбайтПродолжительность : 1 ч. 36 м.Режим общего битрейта : ПеременныйОбщий поток : 1110 Кбит/секНазвание фильма : Innamorato pazzo 1981 DVDRip x264 640x rip by Frost O SЖанр : ComedyТип содержимого : Short FilmДата кодирования : UTC 2016-04-18 11:26:20Дата пометки : UTC 2016-04-18 11:27:04Программа кодирования : MkvToMp4 version: 0.224 (x64)Обложка : YesПримечание : rip by Frost O.SLongDescription : Челентано — невозмутимый и грубоватый малый Барнаба Чиккини — избалованный женским вниманием водитель автобуса в Риме. Однажды он случайно встречает принцессу небольшого княжества Сан-Тулип — красавицу Кристину. Но к чему приведет эта встреча — не знают ни он, ни она…

ВидеоИдентификатор : 1Формат : AVCФормат/Информация : Advanced Video CodecПрофиль формата : [email protected]Параметр CABAC формата : ДаПараметр ReFrames формата : 9 кадровИдентификатор кодека : avc1Идентификатор кодека/Информация : Advanced Video CodingПродолжительность : 1 ч. 36 м.Битрейт : 842 Кбит/секМаксимальный битрейт : 3718 Кбит/секШирина : 640 пикселейВысота : 356 пикселейСоотношение сторон : 16:9Режим частоты кадров : ПостоянныйЧастота кадров : 25,000 кадров/секЦветовое пространство : YUVСубдискретизация насыщенности : 4:2:0Битовая глубина : 8 битТип развёртки : ПрогрессивнаяБит/(Пиксели*Кадры) : 0.148Размер потока : 584 Мбайт (76%)Библиотека кодирования : x264 core 130 r2273 b3065e6Настройки программы : cabac=1 / ref=9 / deblock=1:-1:-1 / analyse=0x3:0x133 / me=umh / subme=11 / psy=1 / psy_rd=1.00:0.00 / mixed_ref=1 / me_range=48 / chroma_me=1 / trellis=2 / 8x8dct=1 / cqm=0 / deadzone=21,11 / fast_pskip=0 / chroma_qp_offset=-2 / threads=3 / lookahead_threads=1 / sliced_threads=0 / nr=0 / decimate=0 / interlaced=0 / bluray_compat=0 / constrained_intra=0 / bframes=9 / b_pyramid=2 / b_adapt=2 / b_bias=0 / direct=3 / weightb=1 / open_gop=0 / weightp=2 / keyint=250 / keyint_min=25 / scenecut=40 / intra_refresh=0 / rc_lookahead=60 / rc=2pass / mbtree=1 / bitrate=842 / ratetol=1.0 / qcomp=0.60 / qpmin=0 / qpmax=69 / qpstep=4 / cplxblur=20.0 / qblur=0.5 / ip_ratio=1.40 / aq=1:0.90Язык : EnglishДата кодирования : UTC 2016-04-18 11:26:20Дата пометки : UTC 2016-04-18 11:26:33Основные цвета : BT.601 PALХарактеристики трансфера : BT.470 System B, BT.470 System GКоэффициенты матрицы : BT.601

Аудио #1Идентификатор : 2Формат : AACФормат/Информация : Advanced Audio CodecПрофиль формата : LCИдентификатор кодека : 40Продолжительность : 1 ч. 36 м.Вид битрейта : ПеременныйБитрейт : 128 Кбит/секМаксимальный битрейт : 133 Кбит/секКаналы : 2 каналаРасположение каналов : Front: L RЧастота : 48,0 КГцМетод сжатия : С потерямиРазмер потока : 88,8 Мбайт (12%)Заголовок : [MVO]Язык : RussianДата кодирования : UTC 2016-04-18 11:26:28Дата пометки : UTC 2016-04-18 11:26:33

Аудио #2Идентификатор : 3Формат : AACФормат/Информация : Advanced Audio CodecПрофиль формата : LCИдентификатор кодека : 40Продолжительность : 1 ч. 36 м.Вид битрейта : ПеременныйБитрейт : 128 Кбит/секМаксимальный битрейт : 132 Кбит/секКаналы : 2 каналаРасположение каналов : Front: L RЧастота : 48,0 КГцМетод сжатия : С потерямиРазмер потока : 88,8 Мбайт (12%)Заголовок : [MVO] PTPЯзык : RussianДата кодирования : UTC 2016-04-18 11:26:31Дата пометки : UTC 2016-04-18 11:26:33


Трекер:  [ 18-Апр-2016 13:30 ]

  

Скачать .torrent

Размер .torrent файла 15 KB


Размер: 770 MB
Хэш (hash) релиза: 3363e624697d2283805223a2e2b132da6344df3e

Еще никто не оставлял запись к записи скачать торрент [VIDEO] Безумно влюбленный Innamorato pazzo . Будь первым!

!Обратная связь