Microsoft | Supermaderos 2 | PES 2018 : comment patcher votre jeu pour avoir les vrais noms et logos (mod PS4)

Скачать через торрент [VIDEO] Фантоцци: Коллеция Fantozzi: Collection бесплатно русская версия torrent активатор

Статистика раздачи
Размер:  8.15 GB   |    Зарегистрирован:  2 года 3 месяца   |    .torrent скачан:  90 раз   |   
Раздают:  1  
   
загрузка...
 
Автор Сообщение

Galfimbul

avatar Galfimbul


Фантоцци: Коллеция / Fantozzi: Collection

Фантоцци / Fantozzi

Год выпуска: 1975
Страна: Италия
Жанр: комедия
Продолжительность: 01:37:12
Перевод: Профессиональный (многоголосый, закадровый)
Cубтитры: нет
Режиссер: Лучано Сальче / Luciano Salce
В ролях: Паоло Вилладжо / Paolo Villaggio, Анна Маццамауро / Anna Mazzamauro, Жижи Редер / Gigi Reder, Джузеппе Анатрелли / Giuseppe Anatrelli, Умберто Д’Орси / Umberto D'Orsi, Лью Босисио / Liu Bosisio и другие .
Описание: Уго Фантоцци всю жизнь работает младшим бухгалтером, ездит на работу в автобусе, никогда не изменял жене. Начальство ни разу не повысило ему зарплату, женщины его не замечают, а коллеги не помнят, как его зовут. В самом начале первого фильма о недотепе жена звонит ему на работу, так как его нет дома уже 17-ый день, но никто даже не заметил его отсутствия.

Оказывается, его случайно замуровали в отсеке старых лифтов. Зритель узнает Уго, его семью, коллег по работе, о его любви к синьорине Сильвани. Настоящий цирк устраивает он в японском ресторане, а Новый Год, проведенный с Уго, не забудется никогда…
Релиз группы

Хотя фамилия Фантоцци считается североитальянской, на самом деле она сицилийского происхождения. Фильм же был основан на североитальянской семье и снят в Северной Италии, тем самым подкрепляя общее убеждение о том, что эта фамилия имеет североитальянские корни. Оригинальный вариант этой фамилии звучит как Фантоццино, и все пошло от того, что ее один единственный раз использовали в сокращенном варианте.
Геометр Филлини в исполнении Жижи Редера является пародией на итальянского кинорежиссера Федерико Феллини. Об этом говорят и сходство фамилий, и внешний вид героя.
Создатели фильма долго искали способ, как передать внешность Марианджелы такой же уродливой, какой она была в книге. По этой причине дочку Фантоцци на самом деле играл коротышка с искусственным носом.
Персонаж Фантоцци так популярен в Италии, что даже вошло в обиход слово «фантоцциано», означающее что-то или кого-то столь же невезучего, как Фантоцци.

Качество: DVDRip / <a href="viewtopic.php?t=348196" class="postLink">DVD9</a>
Формат: MP4
Видео кодек: H.264
Аудио кодек: AAC
Видео: 640x352 AR:16/9 1080 kbps 25 fps
Аудио: [Russian] 2ch 48 kHz 128 kbps - [MVO]
avs [info]: 640x352p 1:1 @ 25/1 fps (cfr)
x264 [info]: using SAR=1/1
x264 [info]: using cpu capabilities: MMX2 SSE2Fast SSSE3 SSE4.2 LZCNT
x264 [info]: profile High, level 4.1

x264 [info]: frame I:1007 Avg QP:18.35 size: 35760
x264 [info]: frame P:33050 Avg QP:21.51 size: 11961
x264 [info]: frame B:111754 Avg QP:24.63 size: 3187
x264 [info]: consecutive B-frames: 1.6% 2.7% 8.7% 30.6% 21.7% 26.7% 5.8% 1.2% 0.6% 0.4%
x264 [info]: mb I I16..4: 3.2% 79.8% 17.1%
x264 [info]: mb P I16..4: 0.3% 8.2% 1.2% P16..4: 34.8% 37.3% 14.9% 1.7% 0.2% skip: 1.4%
x264 [info]: mb B I16..4: 0.0% 1.1% 0.1% B16..8: 37.6% 19.5% 3.1% direct: 3.9% skip:34.6% L0:39.2% L1:46.3% BI:14.5%
x264 [info]: 8x8 transform intra:85.0% inter:68.4%
x264 [info]: direct mvs spatial:96.6% temporal:3.4%
x264 [info]: coded y,uvDC,uvAC intra: 95.1% 79.6% 49.7% inter: 26.5% 20.3% 8.1%
x264 [info]: i16 v,h,dc,p: 33% 22% 4% 42%
x264 [info]: i8 v,h,dc,ddl,ddr,vr,hd,vl,hu: 10% 8% 3% 10% 15% 15% 13% 13% 13%
x264 [info]: i4 v,h,dc,ddl,ddr,vr,hd,vl,hu: 15% 8% 3% 8% 14% 16% 13% 12% 11%
x264 [info]: i8c dc,h,v,p: 34% 27% 21% 18%
x264 [info]: Weighted P-Frames: Y:12.5% UV:3.0%
x264 [info]: ref P L0: 45.8% 15.3% 16.3% 5.6% 4.7% 3.5% 3.2% 1.7% 1.7% 1.7% 0.4% 0.0%
x264 [info]: ref B L0: 82.7% 8.4% 3.4% 1.7% 1.2% 1.0% 0.9% 0.4% 0.2%
x264 [info]: ref B L1: 94.3% 5.7%
x264 [info]: kb/s:1080.12

x264 [total]: encoded 145811 frames, 8.92 fps, 1080.12 kb/s
GeneralComplete name : D:\Torrents\Fantozzi.Collection.DVDRip.x264.640x\Fantozzi.1975.DVDRip.x264.640x.rip by Frost O.S.mp4Format : MPEG-4Format profile : Base MediaCodec ID : isomFile size : 846 MiBDuration : 1h 37mnOverall bit rate mode : VariableOverall bit rate : 1 216 KbpsMovie name : Fantozzi 1975 DVDRip x264 640x rip by Frost O SGenre : ComedyContentType : Short FilmEncoded date : UTC 2016-04-09 12:10:58Tagged date : UTC 2016-04-09 12:11:39Writing application : MkvToMp4 version: 0.224 (x64)Cover : YesComment : rip by Frost O.SLongDescription : Уго Фантоцци всю жизнь работает младшим бухгалтером, ездит на работу в автобусе, никогда не изменял жене. Начальство ни разу не повысило ему зарплату, женщины его не замечают, а коллеги не помнят, как его зовут. В самом начале первого фильма о недотепе жена звонит ему на работу, так как его нет дома уже 17-ый день, но никто даже не заметил его отсутствия. Оказывается, его случайно замуровали в отсеке старых лифтов. Зритель узнает Уго, его семью, коллег по работе, о его любви к синьорине Сильвани. Настоящий цирк устраивает он в японском ресторане, а Новый Год, проведенный с Уго, не забудется никогда…

VideoID : 1Format : AVCFormat/Info : Advanced Video CodecFormat profile : [email protected] settings, CABAC : YesFormat settings, ReFrames : 10 framesCodec ID : avc1Codec ID/Info : Advanced Video CodingDuration : 1h 37mnBit rate : 1 080 KbpsMaximum bit rate : 7 180 KbpsWidth : 640 pixelsHeight : 352 pixelsDisplay aspect ratio : 16:9Frame rate mode : ConstantFrame rate : 25.000 fpsColor space : YUVChroma subsampling : 4:2:0Bit depth : 8 bitsScan type : ProgressiveBits/(Pixel*Frame) : 0.192Stream size : 751 MiB (89%)Writing library : x264 core 130 r2273 b3065e6Encoding settings : cabac=1 / ref=10 / deblock=1:0:1 / analyse=0x3:0x133 / me=umh / subme=11 / psy=1 / psy_rd=1.00:0.00 / mixed_ref=1 / me_range=48 / chroma_me=1 / trellis=2 / 8x8dct=1 / cqm=0 / deadzone=21,11 / fast_pskip=0 / chroma_qp_offset=-2 / threads=3 / lookahead_threads=1 / sliced_threads=0 / nr=0 / decimate=0 / interlaced=0 / bluray_compat=0 / constrained_intra=0 / bframes=9 / b_pyramid=2 / b_adapt=2 / b_bias=0 / direct=3 / weightb=1 / open_gop=0 / weightp=2 / keyint=250 / keyint_min=25 / scenecut=40 / intra_refresh=0 / rc_lookahead=40 / rc=2pass / mbtree=1 / bitrate=1080 / ratetol=1.0 / qcomp=0.65 / qpmin=0 / qpmax=69 / qpstep=4 / cplxblur=20.0 / qblur=0.5 / ip_ratio=1.40 / aq=1:0.90Language : EnglishEncoded date : UTC 2016-04-09 12:10:58Tagged date : UTC 2016-04-09 12:11:14Color primaries : BT.601 PALTransfer characteristics : BT.470 System B, BT.470 System GMatrix coefficients : BT.601Color range : Limited

AudioID : 2Format : AACFormat/Info : Advanced Audio CodecFormat profile : LCCodec ID : 40Duration : 1h 37mnBit rate mode : VariableBit rate : 128 KbpsMaximum bit rate : 132 KbpsChannel(s) : 2 channelsChannel positions : Front: L RSampling rate : 48.0 KHzCompression mode : LossyStream size : 89.0 MiB (11%)Title : [MVO] / [MVO]Language : RussianEncoded date : UTC 2016-04-09 12:11:11Tagged date : UTC 2016-04-09 12:11:14
Второй трагический Фантоцци / Il secondo tragico Fantozzi

Год выпуска: 1976
Страна: Италия
Жанр: комедия
Продолжительность: 01:44:59
Перевод: Профессиональный (многоголосый, закадровый)
Cубтитры: нет
Режиссер: Лучано Сальче / Luciano Salce
В ролях: Паоло Вилладжо / Paolo Villaggio, Анна Маццамауро / Anna Mazzamauro, Жижи Редер / Gigi Reder, Уго Болонья / Ugo Bologna, Мауро Вестри / Mauro Vestri, Плинио Фернандо / Plinio Fernando и другие .
Описание: Его жена уехала к маме. А он решил устроить мальчишник: друзья, пиво, девушки, танцы. Через три часа пиво кончилось, девушки разделись. А жена вернулась за любимым зонтиком…
Релиз группы

Дочку Фантоцци Марианджеллу на самом деле играл коротышка с искусственным носом.

Качество: DVDRip / <a href="viewtopic.php?t=348214" class="postLink">DVD9</a>
Формат: MP4
Видео кодек: H.264
Аудио кодек: AAC
Видео: 640x350 AR:1.85 1080 kbps 25 fps
Аудио №1: [Russian] 2ch 48 kHz 128 kbps - [MVO]
avs [info]: 640x350p 1:1 @ 25/1 fps (cfr)
x264 [info]: using SAR=1/1
x264 [info]: using cpu capabilities: MMX2 SSE2Fast SSSE3 SSE4.2 LZCNT
x264 [info]: profile High, level 4.1

x264 [info]: frame I:1200 Avg QP:20.32 size: 34290
x264 [info]: frame P:36621 Avg QP:23.56 size: 10720
x264 [info]: frame B:119659 Avg QP:25.82 size: 3482
x264 [info]: consecutive B-frames: 2.0% 2.7% 10.2% 31.6% 19.9% 26.9% 5.4% 1.3%
x264 [info]: mb I I16..4: 4.7% 74.8% 20.5%
x264 [info]: mb P I16..4: 0.4% 6.7% 1.3% P16..4: 34.5% 36.6% 14.9% 2.3% 0.3% skip: 2.9%
x264 [info]: mb B I16..4: 0.0% 0.9% 0.2% B16..8: 36.2% 19.1% 3.4% direct: 4.4% skip:35.7% L0:36.8% L1:45.7% BI:17.5%
x264 [info]: 8x8 transform intra:79.5% inter:60.3%
x264 [info]: direct mvs spatial:96.1% temporal:3.9%
x264 [info]: coded y,uvDC,uvAC intra: 94.6% 78.2% 47.1% inter: 25.2% 16.9% 5.2%
x264 [info]: i16 v,h,dc,p: 40% 21% 3% 36%
x264 [info]: i8 v,h,dc,ddl,ddr,vr,hd,vl,hu: 9% 7% 3% 10% 15% 16% 13% 13% 13%
x264 [info]: i4 v,h,dc,ddl,ddr,vr,hd,vl,hu: 16% 6% 2% 8% 15% 17% 12% 13% 11%
x264 [info]: i8c dc,h,v,p: 32% 28% 22% 18%
x264 [info]: Weighted P-Frames: Y:7.9% UV:3.7%
x264 [info]: ref P L0: 49.2% 15.3% 16.1% 4.9% 4.2% 3.2% 3.0% 1.7% 1.9% 0.4% 0.0%
x264 [info]: ref B L0: 83.5% 8.1% 3.4% 1.7% 1.3% 1.1% 0.7% 0.3%
x264 [info]: ref B L1: 94.5% 5.5%
x264 [info]: kb/s:1079.95

x264 [total]: encoded 157480 frames, 9.92 fps, 1079.95 kb/s
ОбщееПолное имя : D:\Torrents\Fantozzi.Collection.DVDRip.x264.640x\Il secondo tragico Fantozzi.1976.DVDRip.x264.640x.rip by Frost O.S.mp4Формат : MPEG-4Профиль формата : Base MediaИдентификатор кодека : isomРазмер файла : 913 МбайтПродолжительность : 1 ч. 44 м.Режим общего битрейта : ПеременныйОбщий поток : 1216 Кбит/секНазвание фильма : Il secondo tragico Fantozzi 1976 DVDRip x264 640x rip by Frost O SЖанр : ComedyТип содержимого : Short FilmДата кодирования : UTC 2016-04-10 09:26:34Дата пометки : UTC 2016-04-10 09:27:32Программа кодирования : MkvToMp4 version: 0.224 (x64)Обложка : YesПримечание : rip by Frost O.SLongDescription : Его жена уехала к маме. А он решил устроить мальчишник: друзья, пиво, девушки, танцы. Через три часа пиво кончилось, девушки разделись. А жена вернулась за любимым зонтиком…

ВидеоИдентификатор : 1Формат : AVCФормат/Информация : Advanced Video CodecПрофиль формата : [email protected]Параметр CABAC формата : ДаПараметр ReFrames формата : 9 кадровИдентификатор кодека : avc1Идентификатор кодека/Информация : Advanced Video CodingПродолжительность : 1 ч. 44 м.Битрейт : 1080 Кбит/секМаксимальный битрейт : 4825 Кбит/секШирина : 640 пикселейВысота : 350 пикселейСоотношение сторон : 1,85:1Режим частоты кадров : ПостоянныйЧастота кадров : 25,000 кадров/секЦветовое пространство : YUVСубдискретизация насыщенности : 4:2:0Битовая глубина : 8 битТип развёртки : ПрогрессивнаяБит/(Пиксели*Кадры) : 0.193Размер потока : 811 Мбайт (89%)Библиотека кодирования : x264 core 130 r2273 b3065e6Настройки программы : cabac=1 / ref=9 / deblock=1:-1:-1 / analyse=0x3:0x133 / me=umh / subme=11 / psy=1 / psy_rd=1.10:0.00 / mixed_ref=1 / me_range=48 / chroma_me=1 / trellis=2 / 8x8dct=1 / cqm=0 / deadzone=21,11 / fast_pskip=0 / chroma_qp_offset=-2 / threads=3 / lookahead_threads=1 / sliced_threads=0 / nr=0 / decimate=0 / interlaced=0 / bluray_compat=0 / constrained_intra=0 / bframes=7 / b_pyramid=2 / b_adapt=2 / b_bias=0 / direct=3 / weightb=1 / open_gop=0 / weightp=2 / keyint=250 / keyint_min=25 / scenecut=40 / intra_refresh=0 / rc_lookahead=60 / rc=2pass / mbtree=1 / bitrate=1080 / ratetol=1.0 / qcomp=0.80 / qpmin=0 / qpmax=69 / qpstep=4 / cplxblur=20.0 / qblur=0.5 / ip_ratio=1.40 / aq=1:0.70Язык : EnglishДата кодирования : UTC 2016-04-10 09:26:34Дата пометки : UTC 2016-04-10 09:26:47Основные цвета : BT.601 PALХарактеристики трансфера : BT.470 System B, BT.470 System GКоэффициенты матрицы : BT.601

АудиоИдентификатор : 2Формат : AACФормат/Информация : Advanced Audio CodecПрофиль формата : LCИдентификатор кодека : 40Продолжительность : 1 ч. 44 м.Вид битрейта : ПеременныйБитрейт : 128 Кбит/секМаксимальный битрейт : 132 Кбит/секКаналы : 2 каналаРасположение каналов : Front: L RЧастота : 48,0 КГцМетод сжатия : С потерямиРазмер потока : 96,1 Мбайт (11%)Заголовок : [MVO]Язык : RussianДата кодирования : UTC 2016-04-10 09:26:44Дата пометки : UTC 2016-04-10 09:26:47
Фантоцци против всех / Fantozzi contro tutti

Год выпуска: 1980
Страна: Италия
Жанр: комедия
Продолжительность: 01:33:34
Перевод: Профессиональный (многоголосый, закадровый)
Cубтитры: нет
Режиссеры: Нери Паренти / Neri Parenti, Паоло Вилладжо / Paolo Villaggio
В ролях: Паоло Вилладжо / Paolo Villaggio, Жижи Редер / Gigi Reder, Камилло Милли / Camillo Milli, Пауль Мюллер / Paul Muller, Плинио Фернандо / Plinio Fernando и другие .
Описание: Третий фильм о злоключениях бухгалтера Уго Фантоцци. К унижениям на работе, опять добавляются личные проблемы. Ночи, проведенные перед телевизором в поисках какого-нибудь эротического фильма… Забавная слежка за женой, увлеченной брутальным булочником. Существование туповатого Фантоцци — настоящая одиссея грустных, и в тоже время, необычайно смешных событий.
Релиз группы
Качество: DVDRip / <a href="viewtopic.php?t=348160" class="postLink">DVD5</a>
Формат: MP4
Видео кодек: H.264
Аудио кодек: AAC
Видео: 640x346 AR:1.85 1080 kbps 25 fps
Аудио: [Russian] 2ch 48 kHz 128 kbps - [MVO]
avs [info]: 640x346p 1:1 @ 25/1 fps (cfr)
x264 [info]: using SAR=1/1
x264 [info]: using cpu capabilities: MMX2 SSE2Fast SSSE3 SSE4.2 LZCNT
x264 [info]: profile High, level 4.1

x264 [info]: frame I:972 Avg QP:17.80 size: 36344
x264 [info]: frame P:28572 Avg QP:20.99 size: 12341
x264 [info]: frame B:110811 Avg QP:23.67 size: 3338
x264 [info]: consecutive B-frames: 1.2% 1.3% 6.0% 20.2% 19.7% 39.2% 10.0% 1.4% 1.1%
x264 [info]: mb I I16..4: 5.2% 67.8% 26.9%
x264 [info]: mb P I16..4: 0.6% 5.1% 1.5% P16..4: 33.7% 38.5% 15.3% 2.8% 0.4% skip: 2.1%
x264 [info]: mb B I16..4: 0.0% 0.5% 0.1% B16..8: 36.9% 19.3% 3.3% direct: 4.7% skip:35.2% L0:38.2% L1:47.1% BI:14.7%
x264 [info]: 8x8 transform intra:71.2% inter:53.8%
x264 [info]: direct mvs spatial:97.2% temporal:2.8%
x264 [info]: coded y,uvDC,uvAC intra: 91.7% 82.4% 53.9% inter: 23.2% 18.1% 6.5%
x264 [info]: i16 v,h,dc,p: 23% 24% 3% 49%
x264 [info]: i8 v,h,dc,ddl,ddr,vr,hd,vl,hu: 9% 8% 4% 10% 14% 14% 14% 12% 14%
x264 [info]: i4 v,h,dc,ddl,ddr,vr,hd,vl,hu: 14% 9% 3% 9% 14% 14% 13% 12% 13%
x264 [info]: i8c dc,h,v,p: 34% 27% 22% 17%
x264 [info]: Weighted P-Frames: Y:6.3% UV:2.0%
x264 [info]: ref P L0: 46.7% 12.5% 18.4% 5.7% 5.5% 4.0% 4.2% 2.6% 0.4% 0.0%
x264 [info]: ref B L0: 82.2% 9.7% 3.6% 1.8% 1.4% 0.8% 0.4%
x264 [info]: ref B L1: 93.5% 6.5%
x264 [info]: kb/s:1079.93
encoded 140355 frames, 11.00 fps, 1079.93 kb/s
ОбщееПолное имя : D:\Torrents\Fantozzi.Collection.DVDRip.x264.640x\Fantozzi contro tutti.1980.DVDRip.x264.640x.rip by Frost O.S.mp4Формат : MPEG-4Профиль формата : Base MediaИдентификатор кодека : isomРазмер файла : 814 МбайтПродолжительность : 1 ч. 33 м.Режим общего битрейта : ПеременныйОбщий поток : 1216 Кбит/секНазвание фильма : Fantozzi contro tutti 1980 DVDRip x264 640x rip by Frost O SЖанр : ComedyТип содержимого : Short FilmДата кодирования : UTC 2016-04-10 13:52:14Дата пометки : UTC 2016-04-10 13:52:49Программа кодирования : MkvToMp4 version: 0.224 (x64)Обложка : YesПримечание : rip by Frost O.SLongDescription : Третий фильм о злоключениях бухгалтера Уго Фантоцци. К унижениям на работе, опять добавляются личные проблемы. Ночи, проведенные перед телевизором в поисках какого-нибудь эротического фильма… Забавная слежка за женой, увлеченной брутальным булочником. Существование туповатого Фантоцци — настоящая одиссея грустных, и в тоже время, необычайно смешных событий.

ВидеоИдентификатор : 1Формат : AVCФормат/Информация : Advanced Video CodecПрофиль формата : [email protected]Параметр CABAC формата : ДаПараметр ReFrames формата : 8 кадровИдентификатор кодека : avc1Идентификатор кодека/Информация : Advanced Video CodingПродолжительность : 1 ч. 33 м.Битрейт : 1080 Кбит/секМаксимальный битрейт : 4311 Кбит/секШирина : 640 пикселейВысота : 346 пикселейСоотношение сторон : 1,85:1Режим частоты кадров : ПостоянныйЧастота кадров : 25,000 кадров/секЦветовое пространство : YUVСубдискретизация насыщенности : 4:2:0Битовая глубина : 8 битТип развёртки : ПрогрессивнаяБит/(Пиксели*Кадры) : 0.195Размер потока : 723 Мбайт (89%)Библиотека кодирования : x264 core 130 r2273 b3065e6Настройки программы : cabac=1 / ref=8 / deblock=1:-1:-1 / analyse=0x3:0x133 / me=umh / subme=11 / psy=1 / psy_rd=1.10:0.00 / mixed_ref=1 / me_range=48 / chroma_me=1 / trellis=2 / 8x8dct=1 / cqm=0 / deadzone=21,11 / fast_pskip=0 / chroma_qp_offset=-2 / threads=3 / lookahead_threads=1 / sliced_threads=0 / nr=0 / decimate=0 / interlaced=0 / bluray_compat=0 / constrained_intra=0 / bframes=8 / b_pyramid=2 / b_adapt=2 / b_bias=0 / direct=3 / weightb=1 / open_gop=0 / weightp=2 / keyint=250 / keyint_min=25 / scenecut=40 / intra_refresh=0 / rc_lookahead=60 / rc=2pass / mbtree=1 / bitrate=1080 / ratetol=1.0 / qcomp=0.75 / qpmin=0 / qpmax=69 / qpstep=4 / cplxblur=20.0 / qblur=0.5 / ip_ratio=1.40 / aq=1:0.70Язык : EnglishДата кодирования : UTC 2016-04-10 13:52:14Дата пометки : UTC 2016-04-10 13:52:26Основные цвета : BT.601 PALХарактеристики трансфера : BT.470 System B, BT.470 System GКоэффициенты матрицы : BT.601

АудиоИдентификатор : 2Формат : AACФормат/Информация : Advanced Audio CodecПрофиль формата : LCИдентификатор кодека : 40Продолжительность : 1 ч. 33 м.Вид битрейта : ПеременныйБитрейт : 128 Кбит/секМаксимальный битрейт : 132 Кбит/секКаналы : 2 каналаРасположение каналов : Front: L RЧастота : 48,0 КГцМетод сжатия : С потерямиРазмер потока : 85,7 Мбайт (11%)Заголовок : [MVO]Язык : RussianДата кодирования : UTC 2016-04-10 13:52:24Дата пометки : UTC 2016-04-10 13:52:26
У Фантоцци опять неприятности / Fantozzi subisce ancora

Год выпуска: 1983
Страна: Италия
Жанр: комедия
Продолжительность: 01:23:47
Перевод: Профессиональный (многоголосый, закадровый)
Cубтитры: нет
Режиссер: Нери Паренти / Neri Parenti
В ролях: Паоло Вилладжо / Paolo Villaggio, Анна Маццамауро / Anna Mazzamauro, Милена Вукотич / Milena Vukotic, Риккардо Гарроне / Riccardo Garrone, Джулио Фарнезе / Giulio Farnese, Карло Коломбо / Carlo Colombo и другие .
Описание: Четвертый эпизод саги о бухгалтере Фантоцци. Вновь у Фантоцци возникает масса проблем на рабочем месте и в семье. Вместо того, чтобы решить хотя бы некоторые из них, Фантоцци наживает себе новые проблемы, втянувшись в одну мафиозную авантюру.

А тут еще дочка, мартышкообразная, Марианджела со своим сексуальным маньяком. И если Фантоцци отправляется купаться, то именно его зачерпнет вместес водой пожарный вертолет, чтобы вылить в пылающий огненный очаг…
Релиз группы
Качество: DVDRip / <a href="viewtopic.php?t=348246" class="postLink">DVD5</a>
Формат: MP4
Видео кодек: H.264
Аудио кодек: AAC
Видео: 640x348 AR:1.85 1080 kbps 25 fps
Аудио: [Russian] 2ch 48 kHz 128 kbps - [MVO]
avs [info]: 640x348p 1:1 @ 25/1 fps (cfr)
x264 [info]: using SAR=1/1
x264 [info]: using cpu capabilities: MMX2 SSE2Fast SSSE3 SSE4.2 LZCNT
x264 [info]: profile High, level 4.1

x264 [info]: frame I:878 Avg QP:20.01 size: 35866
x264 [info]: frame P:26782 Avg QP:23.29 size: 12405
x264 [info]: frame B:98015 Avg QP:26.59 size: 3211
x264 [info]: consecutive B-frames: 1.3% 1.6% 7.4% 25.5% 18.2% 37.0% 7.7% 0.8% 0.4%
x264 [info]: mb I I16..4: 8.5% 64.4% 27.1%
x264 [info]: mb P I16..4: 0.8% 5.8% 1.8% P16..4: 33.7% 35.7% 14.3% 2.8% 0.4% skip: 4.8%
x264 [info]: mb B I16..4: 0.1% 0.6% 0.2% B16..8: 37.4% 17.4% 3.3% direct: 4.0% skip:37.2% L0:38.6% L1:46.8% BI:14.5%
x264 [info]: 8x8 transform intra:69.3% inter:53.3%
x264 [info]: direct mvs spatial:96.6% temporal:3.4%
x264 [info]: coded y,uvDC,uvAC intra: 88.1% 79.1% 48.8% inter: 21.7% 16.4% 5.1%
x264 [info]: i16 v,h,dc,p: 33% 22% 6% 39%
x264 [info]: i8 v,h,dc,ddl,ddr,vr,hd,vl,hu: 8% 7% 4% 11% 15% 14% 15% 12% 13%
x264 [info]: i4 v,h,dc,ddl,ddr,vr,hd,vl,hu: 12% 8% 4% 9% 14% 14% 13% 12% 13%
x264 [info]: i8c dc,h,v,p: 32% 27% 22% 19%
x264 [info]: Weighted P-Frames: Y:6.2% UV:2.7%
x264 [info]: ref P L0: 46.6% 13.2% 17.8% 5.3% 5.1% 3.6% 3.7% 1.9% 2.3% 0.4% 0.0%
x264 [info]: ref B L0: 83.0% 8.7% 3.3% 1.7% 1.3% 1.1% 0.6% 0.3%
x264 [info]: ref B L1: 94.4% 5.6%
x264 [info]: kb/s:1079.76

x264 [total]: encoded 125675 frames, 10.36 fps, 1079.76 kb/s
ОбщееПолное имя : D:\Torrents\Fantozzi.Collection.DVDRip.x264.640x\Fantozzi subisce ancora.1983.DVDRip.x264.640x.rip by Frost O.S.mp4Формат : MPEG-4Профиль формата : Base MediaИдентификатор кодека : isomРазмер файла : 729 МбайтПродолжительность : 1 ч. 23 м.Режим общего битрейта : ПеременныйОбщий поток : 1216 Кбит/секНазвание фильма : Fantozzi subisce ancora 1983 DVDRip x264 640x rip by Frost O SЖанр : ComedyТип содержимого : Short FilmДата кодирования : UTC 2016-04-11 11:18:49Дата пометки : UTC 2016-04-11 11:19:20Программа кодирования : MkvToMp4 version: 0.224 (x64)Обложка : YesПримечание : rip by Frost O.SLongDescription : Четвертый эпизод саги о бухгалтере Фантоцци. Вновь у Фантоцци возникает масса проблем на рабочем месте и в семье. Вместо того, чтобы решить хотя бы некоторые из них, Фантоцци наживает себе новые проблемы, втянувшись в одну мафиозную авантюру. А тут еще дочка, мартышкообразная, Марианджела со своим сексуальным маньяком. И если Фантоцци отправляется купаться, то именно его зачерпнет вместес водой пожарный вертолет, чтобы вылить в пылающий огненный очаг…

ВидеоИдентификатор : 1Формат : AVCФормат/Информация : Advanced Video CodecПрофиль формата : [email protected]Параметр CABAC формата : ДаПараметр ReFrames формата : 9 кадровИдентификатор кодека : avc1Идентификатор кодека/Информация : Advanced Video CodingПродолжительность : 1 ч. 23 м.Битрейт : 1080 Кбит/секМаксимальный битрейт : 3789 Кбит/секШирина : 640 пикселейВысота : 348 пикселейСоотношение сторон : 1,85:1Режим частоты кадров : ПостоянныйЧастота кадров : 25,000 кадров/секЦветовое пространство : YUVСубдискретизация насыщенности : 4:2:0Битовая глубина : 8 битТип развёртки : ПрогрессивнаяБит/(Пиксели*Кадры) : 0.194Размер потока : 647 Мбайт (89%)Библиотека кодирования : x264 core 130 r2273 b3065e6Настройки программы : cabac=1 / ref=9 / deblock=1:-1:-1 / analyse=0x3:0x133 / me=umh / subme=11 / psy=1 / psy_rd=1.10:0.00 / mixed_ref=1 / me_range=48 / chroma_me=1 / trellis=2 / 8x8dct=1 / cqm=0 / deadzone=21,11 / fast_pskip=0 / chroma_qp_offset=-2 / threads=3 / lookahead_threads=1 / sliced_threads=0 / nr=0 / decimate=0 / interlaced=0 / bluray_compat=0 / constrained_intra=0 / bframes=8 / b_pyramid=2 / b_adapt=2 / b_bias=0 / direct=3 / weightb=1 / open_gop=0 / weightp=2 / keyint=250 / keyint_min=25 / scenecut=40 / intra_refresh=0 / rc_lookahead=60 / rc=2pass / mbtree=1 / bitrate=1080 / ratetol=1.0 / qcomp=0.70 / qpmin=0 / qpmax=69 / qpstep=4 / cplxblur=20.0 / qblur=0.5 / ip_ratio=1.40 / aq=1:0.70Язык : EnglishДата кодирования : UTC 2016-04-11 11:18:49Дата пометки : UTC 2016-04-11 11:18:59Основные цвета : BT.601 PALХарактеристики трансфера : BT.470 System B, BT.470 System GКоэффициенты матрицы : BT.601

АудиоИдентификатор : 2Формат : AACФормат/Информация : Advanced Audio CodecПрофиль формата : LCИдентификатор кодека : 40Продолжительность : 1 ч. 23 м.Вид битрейта : ПеременныйБитрейт : 128 Кбит/секМаксимальный битрейт : 132 Кбит/секКаналы : 2 каналаРасположение каналов : Front: L RЧастота : 48,0 КГцМетод сжатия : С потерямиРазмер потока : 76,7 Мбайт (11%)Заголовок : [MVO]Язык : RussianДата кодирования : UTC 2016-04-11 11:18:57Дата пометки : UTC 2016-04-11 11:18:59
Супер Фантоцци / Superfantozzi

Год выпуска: 1986
Страна: Италия
Жанр: комедия
Продолжительность: 01:29:48
Перевод №1: Одноголосый (закадровый)
Перевод №2: Авторский (одноголосый, закадровый)
Cубтитры: нет
Режиссер: Нери Паренти / Neri Parenti
В ролях: Паоло Вилладжо / Paolo Villaggio, Лью Босисио / Liu Bosisio, Жижи Редер / Gigi Reder, Плинио Фернандо / Plinio Fernando, Ева Лена / Eva Lena, Люк Меренда / Luc Merenda и другие .
Описание: Фильм начинается с того, что Господь, устав, создал Фантоцци. Через день он создал Адама, Еву и женщину для Фантоцци (полная противоположность красавице Еве). Потом Господь изгоняет супругов Фантоцци из Рая за то что Фантоцци по просьбе Евы сорвал запретный плод. Но Господь не знал о злой шутке Евы. Далее идут небольшие сюжеты, в которых показывается злоключения Фантоцци в разных исторических эпохах. Сначала злоключения Фантоцци в доисторические времена, затем в Древнем Риме, затем время Иисуса Христа, далее — Средневековье, время Робин Гуда, французской революции, 19 век, 30-е годы в США, Вторая Мировая война, современность (т. е. 1986) и будущее.
Дочку Фантоцци Марианджеллу на самом деле играл коротышка с искусственным носом.

Релиз группы
Качество: DVDRip / <a href="viewtopic.php?t=2723651" class="postLink">DVD5 (Custom)</a>
Формат: MP4
Видео кодек: H.264
Аудио кодек: AAC
Видео: 464x360 AR:1.289 1080 kbps 25 fps
Аудио №1: [Russian] 2ch 48 kHz 128 kbps - [VO]
Аудио №2: [Russian] 2ch 48 kHz 128 kbps - [VO]
avs [info]: 464x360p 1:1 @ 25/1 fps (cfr)
x264 [info]: using SAR=1/1
x264 [info]: using cpu capabilities: MMX2 SSE2Fast SSSE3 SSE4.2 LZCNT
x264 [info]: profile High, level 4.1

x264 [info]: frame I:869 Avg QP:17.53 size: 28343
x264 [info]: frame P:26869 Avg QP:20.47 size: 11049
x264 [info]: frame B:106977 Avg QP:22.38 size: 3796
x264 [info]: consecutive B-frames: 1.0% 1.2% 5.6% 20.6% 16.0% 38.3% 13.7% 2.1% 1.4%
x264 [info]: mb I I16..4: 1.2% 80.3% 18.6%
x264 [info]: mb P I16..4: 0.1% 8.0% 1.4% P16..4: 28.8% 38.3% 19.2% 3.4% 0.4% skip: 0.4%
x264 [info]: mb B I16..4: 0.0% 0.7% 0.1% B16..8: 38.8% 25.6% 5.7% direct: 6.8% skip:22.3% L0:39.4% L1:45.5% BI:15.1%
x264 [info]: 8x8 transform intra:82.9% inter:54.9%
x264 [info]: direct mvs spatial:96.5% temporal:3.5%
x264 [info]: coded y,uvDC,uvAC intra: 97.1% 86.1% 52.7% inter: 34.6% 22.7% 5.9%
x264 [info]: i16 v,h,dc,p: 16% 29% 2% 53%
x264 [info]: i8 v,h,dc,ddl,ddr,vr,hd,vl,hu: 13% 8% 7% 10% 14% 13% 13% 11% 13%
x264 [info]: i4 v,h,dc,ddl,ddr,vr,hd,vl,hu: 14% 7% 3% 9% 14% 14% 13% 12% 13%
x264 [info]: i8c dc,h,v,p: 37% 25% 20% 18%
x264 [info]: Weighted P-Frames: Y:14.4% UV:4.1%
x264 [info]: ref P L0: 41.9% 12.4% 18.1% 6.7% 6.1% 4.4% 4.4% 2.5% 2.8% 0.6% 0.0%
x264 [info]: ref B L0: 76.0% 11.7% 4.8% 2.6% 1.9% 1.7% 0.9% 0.4%
x264 [info]: ref B L1: 92.3% 7.7%
x264 [info]: kb/s:1080.13
encoded 134715 frames, 11.62 fps, 1080.13 kb/s
ОбщееПолное имя : D:\Torrents\Fantozzi.Collection.DVDRip.x264.640x\Superfantozziю.1986.DVDRip.x264.640x.rip by Frost O.S.mp4Формат : MPEG-4Профиль формата : Base MediaИдентификатор кодека : isomРазмер файла : 866 МбайтПродолжительность : 1 ч. 29 м.Режим общего битрейта : ПеременныйОбщий поток : 1348 Кбит/секНазвание фильма : Superfantozziю 1986 DVDRip x264 640x rip by Frost O SЖанр : ComedyТип содержимого : Short FilmДата кодирования : UTC 2016-04-11 16:19:06Дата пометки : UTC 2016-04-11 16:19:59Программа кодирования : MkvToMp4 version: 0.224 (x64)Обложка : YesПримечание : rip by Frost O.SLongDescription : Фильм начинается с того, что Господь, устав, создал Фантоцци. Через день он создал Адама, Еву и женщину для Фантоцци (полная противоположность красавице Еве). Потом Господь изгоняет супругов Фантоцци из Рая за то что Фантоцци по просьбе Евы сорвал запретный плод. Но Господь не знал о злой шутке Евы. Далее идут небольшие сюжеты, в которых показывается злоключения Фантоцци в разных исторических эпохах. Сначала злоключения Фантоцци в доисторические времена, затем в Древнем Риме, затем время Иисуса Христа, далее — Средневековье, время Робин Гуда, французской революции, 19 век, 30-е годы в США, Вторая Мировая война, современность (т. е. 1986) и будущее.

ВидеоИдентификатор : 1Формат : AVCФормат/Информация : Advanced Video CodecПрофиль формата : [email protected]Параметр CABAC формата : ДаПараметр ReFrames формата : 9 кадровИдентификатор кодека : avc1Идентификатор кодека/Информация : Advanced Video CodingПродолжительность : 1 ч. 29 м.Битрейт : 1080 Кбит/секМаксимальный битрейт : 3417 Кбит/секШирина : 464 пикселяВысота : 360 пикселейСоотношение сторон : 1,289Режим частоты кадров : ПостоянныйЧастота кадров : 25,000 кадров/секЦветовое пространство : YUVСубдискретизация насыщенности : 4:2:0Битовая глубина : 8 битТип развёртки : ПрогрессивнаяБит/(Пиксели*Кадры) : 0.259Размер потока : 694 Мбайт (80%)Библиотека кодирования : x264 core 130 r2273 b3065e6Настройки программы : cabac=1 / ref=9 / deblock=1:-1:-1 / analyse=0x3:0x133 / me=umh / subme=11 / psy=1 / psy_rd=1.20:0.00 / mixed_ref=1 / me_range=48 / chroma_me=1 / trellis=2 / 8x8dct=1 / cqm=0 / deadzone=21,11 / fast_pskip=0 / chroma_qp_offset=-2 / threads=3 / lookahead_threads=1 / sliced_threads=0 / nr=0 / decimate=0 / interlaced=0 / bluray_compat=0 / constrained_intra=0 / bframes=8 / b_pyramid=2 / b_adapt=2 / b_bias=0 / direct=3 / weightb=1 / open_gop=0 / weightp=2 / keyint=250 / keyint_min=25 / scenecut=40 / intra_refresh=0 / rc=2pass / mbtree=0 / bitrate=1080 / ratetol=1.0 / qcomp=0.65 / qpmin=0 / qpmax=69 / qpstep=4 / cplxblur=20.0 / qblur=0.5 / ip_ratio=1.40 / pb_ratio=1.30 / aq=1:0.90Язык : EnglishДата кодирования : UTC 2016-04-11 16:19:06Дата пометки : UTC 2016-04-11 16:19:26Основные цвета : BT.601 PALХарактеристики трансфера : BT.470 System B, BT.470 System GКоэффициенты матрицы : BT.601

Аудио #1Идентификатор : 2Формат : AACФормат/Информация : Advanced Audio CodecПрофиль формата : LCИдентификатор кодека : 40Продолжительность : 1 ч. 29 м.Вид битрейта : ПеременныйБитрейт : 128 Кбит/секМаксимальный битрейт : 134 Кбит/секКаналы : 2 каналаРасположение каналов : Front: L RЧастота : 48,0 КГцМетод сжатия : С потерямиРазмер потока : 82,2 Мбайт (9%)Заголовок : [VO]Язык : RussianДата кодирования : UTC 2016-04-11 16:19:22Дата пометки : UTC 2016-04-11 16:19:26

Аудио #2Идентификатор : 3Формат : AACФормат/Информация : Advanced Audio CodecПрофиль формата : LCИдентификатор кодека : 40Продолжительность : 1 ч. 29 м.Вид битрейта : ПеременныйБитрейт : 128 Кбит/секМаксимальный битрейт : 135 Кбит/секКаналы : 2 каналаРасположение каналов : Front: L RЧастота : 48,0 КГцМетод сжатия : С потерямиРазмер потока : 82,2 Мбайт (9%)Заголовок : [VO]Язык : RussianДата кодирования : UTC 2016-04-11 16:19:24Дата пометки : UTC 2016-04-11 16:19:26
Фантоцци уходит на пенсию / Fantozzi va in pensione

Год выпуска: 1988
Страна: Италия
Жанр: комедия
Продолжительность: 01:34:36
Перевод: Профессиональный (многоголосый, закадровый)
Cубтитры: нет
Режиссер: Нери Паренти / Neri Parenti
В ролях: Паоло Вилладжо / Paolo Villaggio, Милена Вукотич / Milena Vukotic, Жижи Редер / Gigi Reder, Анна Маццамауро / Anna Mazzamauro, Плинио Фернандо / Plinio Fernando, Антонио Аллочча / Antonio Allocca и другие .
Описание: После 30-ти лет работы в Мегафирме Фантоцци уходит на пенсию. 30 лет рабства! Но оказывается, что пенсия — не освобождение. Она — лишь продолжение хлопот. Точнее — начало новых проблем.
Релиз группы
Качество: DVDRip / <a href="viewtopic.php?t=1229148" class="postLink">DVD5</a>
Формат: MP4
Видео кодек: H.264
Аудио кодек: AAC
Видео: 598x360 AR:1.661 1080 kbps 25 fps
Аудио: [Russian] 2ch 48 kHz 128 kbps - [MVO]
avs [info]: 598x360p 1:1 @ 25/1 fps (cfr)
x264 [info]: using SAR=1/1
x264 [info]: using cpu capabilities: MMX2 SSE2Fast SSSE3 SSE4.2 LZCNT
x264 [info]: profile High, level 4.1

x264 [info]: frame I:827 Avg QP:19.94 size: 35331
x264 [info]: frame P:27687 Avg QP:23.17 size: 12624
x264 [info]: frame B:113391 Avg QP:25.27 size: 3417
x264 [info]: consecutive B-frames: 0.9% 1.5% 3.2% 31.2% 13.1% 15.0% 10.9% 17.4% 6.1% 0.7% 0.1%
x264 [info]: mb I I16..4: 4.4% 72.8% 22.8%
x264 [info]: mb P I16..4: 0.3% 6.1% 1.4% P16..4: 34.2% 38.5% 15.4% 2.5% 0.3% skip: 1.3%
x264 [info]: mb B I16..4: 0.0% 0.9% 0.1% B16..8: 40.3% 20.3% 3.4% direct: 4.7% skip:30.2% L0:40.7% L1:44.4% BI:14.9%
x264 [info]: 8x8 transform intra:78.6% inter:58.6%
x264 [info]: direct mvs spatial:97.1% temporal:2.9%
x264 [info]: coded y,uvDC,uvAC intra: 93.8% 75.3% 41.3% inter: 24.9% 16.8% 4.2%
x264 [info]: i16 v,h,dc,p: 27% 37% 3% 32%
x264 [info]: i8 v,h,dc,ddl,ddr,vr,hd,vl,hu: 10% 9% 5% 10% 15% 14% 14% 11% 12%
x264 [info]: i4 v,h,dc,ddl,ddr,vr,hd,vl,hu: 14% 12% 3% 8% 13% 13% 13% 11% 12%
x264 [info]: i8c dc,h,v,p: 31% 29% 23% 18%
x264 [info]: Weighted P-Frames: Y:8.9% UV:2.3%
x264 [info]: ref P L0: 40.8% 13.0% 20.0% 6.9% 6.9% 4.5% 4.9% 2.7% 0.4% 0.0%
x264 [info]: ref B L0: 77.0% 11.7% 5.1% 2.8% 2.0% 1.1% 0.5%
x264 [info]: ref B L1: 94.3% 5.7%
x264 [info]: kb/s:1079.90
encoded 141905 frames, 10.57 fps, 1079.90 kb/s
ОбщееПолное имя : D:\Torrents\Fantozzi.Collection.DVDRip.x264.640x\Fantozzi va in pensione.1988.DVDRip.x264.640xrip by Frost O.S.mp4Формат : MPEG-4Профиль формата : Base MediaИдентификатор кодека : isomРазмер файла : 823 МбайтПродолжительность : 1 ч. 34 м.Режим общего битрейта : ПеременныйОбщий поток : 1216 Кбит/секНазвание фильма : Fantozzi va in pensione 1988 DVDRip x264 640xrip by Frost O SЖанр : ComedyТип содержимого : Short FilmДата кодирования : UTC 2016-04-12 11:29:07Дата пометки : UTC 2016-04-12 11:29:41Программа кодирования : MkvToMp4 version: 0.224 (x64)Обложка : YesПримечание : rip by Frost O.SLongDescription : После 30-ти лет работы в Мегафирме Фантоцци уходит на пенсию. 30 лет рабства! Но оказывается, что пенсия — не освобождение. Она — лишь продолжение хлопот. Точнее — начало новых проблем.

ВидеоИдентификатор : 1Формат : AVCФормат/Информация : Advanced Video CodecПрофиль формата : [email protected]Параметр CABAC формата : ДаПараметр ReFrames формата : 8 кадровИдентификатор кодека : avc1Идентификатор кодека/Информация : Advanced Video CodingПродолжительность : 1 ч. 34 м.Битрейт : 1080 Кбит/секМаксимальный битрейт : 7276 Кбит/секШирина : 598 пикселейВысота : 360 пикселейСоотношение сторон : 1,661Режим частоты кадров : ПостоянныйЧастота кадров : 25,000 кадров/секЦветовое пространство : YUVСубдискретизация насыщенности : 4:2:0Битовая глубина : 8 битТип развёртки : ПрогрессивнаяБит/(Пиксели*Кадры) : 0.201Размер потока : 731 Мбайт (89%)Библиотека кодирования : x264 core 130 r2273 b3065e6Настройки программы : cabac=1 / ref=8 / deblock=1:-1:-1 / analyse=0x3:0x133 / me=umh / subme=11 / psy=1 / psy_rd=1.10:0.00 / mixed_ref=1 / me_range=48 / chroma_me=1 / trellis=2 / 8x8dct=1 / cqm=0 / deadzone=21,11 / fast_pskip=0 / chroma_qp_offset=-2 / threads=3 / lookahead_threads=1 / sliced_threads=0 / nr=0 / decimate=0 / interlaced=0 / bluray_compat=0 / constrained_intra=0 / bframes=10 / b_pyramid=2 / b_adapt=2 / b_bias=0 / direct=3 / weightb=1 / open_gop=0 / weightp=2 / keyint=250 / keyint_min=25 / scenecut=40 / intra_refresh=0 / rc_lookahead=60 / rc=2pass / mbtree=1 / bitrate=1080 / ratetol=1.0 / qcomp=0.75 / qpmin=0 / qpmax=69 / qpstep=4 / cplxblur=20.0 / qblur=0.5 / ip_ratio=1.40 / aq=1:0.90Язык : EnglishДата кодирования : UTC 2016-04-12 11:29:07Дата пометки : UTC 2016-04-12 11:29:17Основные цвета : BT.601 PALХарактеристики трансфера : BT.470 System B, BT.470 System GКоэффициенты матрицы : BT.601

АудиоИдентификатор : 2Формат : AACФормат/Информация : Advanced Audio CodecПрофиль формата : LCИдентификатор кодека : 40Продолжительность : 1 ч. 34 м.Вид битрейта : ПеременныйБитрейт : 128 Кбит/секМаксимальный битрейт : 131 Кбит/секКаналы : 2 каналаРасположение каналов : Front: L RЧастота : 48,0 КГцМетод сжатия : С потерямиРазмер потока : 86,6 Мбайт (11%)Заголовок : [MVO]Язык : RussianДата кодирования : UTC 2016-04-12 11:29:15Дата пометки : UTC 2016-04-12 11:29:17
Фантоцци берет реванш / Fantozzi alla riscossa

Год выпуска: 1990
Страна: Италия
Жанр: комедия
Продолжительность: 01:22:19
Перевод: Профессиональный (многоголосый, закадровый)
Cубтитры: нет
Режиссер: Нери Паренти / Neri Parenti
В ролях: Паоло Вилладжо / Paolo Villaggio, Милена Вукотич / Milena Vukotic, Жижи Редер / Gigi Reder, Плинио Фернандо / Plinio Fernando, Анна Маццамауро / Anna Mazzamauro и другие .
Описание: Фантоцци, всю жизнь работавшего бухгалтером, избирают мировым судьей. За свою честность он попадает в тюрьму…
Релиз группы
Качество: DVDRip / <a href="viewtopic.php?t=1209985" class="postLink">DVD5</a>
Формат: MP4
Видео кодек: H.264
Аудио кодек: AAC
Видео: 602x360 AR:1.672 1080 kbps 25 fps
Аудио: [Russian] 2ch 48 kHz 128 kbps - [MVO]
avs [info]: 602x360p 1:1 @ 25/1 fps (cfr)
x264 [info]: using SAR=1/1
x264 [info]: using cpu capabilities: MMX2 SSE2Fast SSSE3 SSE4.2 LZCNT
x264 [info]: profile High, level 4.1

x264 [info]: frame I:805 Avg QP:19.37 size: 34179
x264 [info]: frame P:27969 Avg QP:22.85 size: 11729
x264 [info]: frame B:94702 Avg QP:25.91 size: 3287
x264 [info]: consecutive B-frames: 1.5% 2.2% 6.4% 42.7% 16.4% 16.8% 5.7% 6.1% 1.6% 0.5%
x264 [info]: mb I I16..4: 4.2% 70.6% 25.2%
x264 [info]: mb P I16..4: 0.6% 6.7% 1.7% P16..4: 34.0% 37.2% 14.6% 2.2% 0.3% skip: 2.7%
x264 [info]: mb B I16..4: 0.1% 0.7% 0.2% B16..8: 36.5% 19.9% 3.4% direct: 4.6% skip:34.7% L0:36.9% L1:43.8% BI:19.3%
x264 [info]: 8x8 transform intra:73.8% inter:57.2%
x264 [info]: direct mvs spatial:97.8% temporal:2.2%
x264 [info]: coded y,uvDC,uvAC intra: 88.9% 80.1% 46.9% inter: 24.7% 15.2% 4.7%
x264 [info]: i16 v,h,dc,p: 27% 34% 4% 36%
x264 [info]: i8 v,h,dc,ddl,ddr,vr,hd,vl,hu: 13% 8% 4% 9% 14% 13% 13% 12% 13%
x264 [info]: i4 v,h,dc,ddl,ddr,vr,hd,vl,hu: 15% 11% 3% 8% 13% 13% 13% 11% 12%
x264 [info]: i8c dc,h,v,p: 31% 27% 22% 20%
x264 [info]: Weighted P-Frames: Y:10.7% UV:1.8%
x264 [info]: ref P L0: 43.7% 13.9% 18.6% 6.4% 5.8% 4.2% 4.2% 2.6% 0.6% 0.0%
x264 [info]: ref B L0: 81.8% 9.3% 3.9% 2.0% 1.5% 0.9% 0.5%
x264 [info]: ref B L1: 95.2% 4.8%
x264 [info]: kb/s:1080.15

x264 [total]: encoded 123476 frames, 10.75 fps, 1080.15 kb/s
ОбщееПолное имя : D:\Torrents\Fantozzi.Collection.DVDRip.x264.640x\Fantozzi alla riscossa.1990.DVDRip.x264.640x.rip by Frost O.S.mp4Формат : MPEG-4Профиль формата : Base MediaИдентификатор кодека : isomРазмер файла : 716 МбайтПродолжительность : 1 ч. 22 м.Режим общего битрейта : ПеременныйОбщий поток : 1216 Кбит/секНазвание фильма : Fantozzi alla riscossa 1990 DVDRip x264 640x rip by Frost O SЖанр : ComedyТип содержимого : Short FilmДата кодирования : UTC 2016-04-12 15:46:14Дата пометки : UTC 2016-04-12 15:46:53Программа кодирования : MkvToMp4 version: 0.224 (x64)Обложка : YesПримечание : rip by Frost O.SLongDescription : Фантоцци, всю жизнь работавшего бухгалтером, избирают мировым судьей. За свою честность он попадает в тюрьму…

ВидеоИдентификатор : 1Формат : AVCФормат/Информация : Advanced Video CodecПрофиль формата : [email protected]Параметр CABAC формата : ДаПараметр ReFrames формата : 8 кадровИдентификатор кодека : avc1Идентификатор кодека/Информация : Advanced Video CodingПродолжительность : 1 ч. 22 м.Битрейт : 1080 Кбит/секМаксимальный битрейт : 4057 Кбит/секШирина : 602 пикселяВысота : 360 пикселейСоотношение сторон : 1,672Режим частоты кадров : ПостоянныйЧастота кадров : 25,000 кадров/секЦветовое пространство : YUVСубдискретизация насыщенности : 4:2:0Битовая глубина : 8 битТип развёртки : ПрогрессивнаяБит/(Пиксели*Кадры) : 0.199Размер потока : 636 Мбайт (89%)Библиотека кодирования : x264 core 130 r2273 b3065e6Настройки программы : cabac=1 / ref=8 / deblock=1:-1:-1 / analyse=0x3:0x133 / me=umh / subme=11 / psy=1 / psy_rd=1.10:0.00 / mixed_ref=1 / me_range=48 / chroma_me=1 / trellis=2 / 8x8dct=1 / cqm=0 / deadzone=21,11 / fast_pskip=0 / chroma_qp_offset=-2 / threads=3 / lookahead_threads=1 / sliced_threads=0 / nr=0 / decimate=0 / interlaced=0 / bluray_compat=0 / constrained_intra=0 / bframes=9 / b_pyramid=2 / b_adapt=2 / b_bias=0 / direct=3 / weightb=1 / open_gop=0 / weightp=2 / keyint=250 / keyint_min=25 / scenecut=40 / intra_refresh=0 / rc_lookahead=60 / rc=2pass / mbtree=1 / bitrate=1080 / ratetol=1.0 / qcomp=0.75 / qpmin=0 / qpmax=69 / qpstep=4 / cplxblur=20.0 / qblur=0.5 / ip_ratio=1.40 / aq=1:0.90Язык : EnglishДата кодирования : UTC 2016-04-12 15:46:14Дата пометки : UTC 2016-04-12 15:46:30Основные цвета : BT.601 PALХарактеристики трансфера : BT.470 System B, BT.470 System GКоэффициенты матрицы : BT.601

АудиоИдентификатор : 2Формат : AACФормат/Информация : Advanced Audio CodecПрофиль формата : LCИдентификатор кодека : 40Продолжительность : 1 ч. 22 м.Вид битрейта : ПеременныйБитрейт : 128 Кбит/секМаксимальный битрейт : 132 Кбит/секКаналы : 2 каналаРасположение каналов : Front: L RЧастота : 48,0 КГцМетод сжатия : С потерямиРазмер потока : 75,4 Мбайт (11%)Заголовок : [MVO]Язык : RussianДата кодирования : UTC 2016-04-12 15:46:28Дата пометки : UTC 2016-04-12 15:46:30
Фантоцци в раю / Fantozzi in paradiso

Год выпуска: 1993
Страна: Италия
Жанр: комедия
Продолжительность: 01:32:31
Перевод: Профессиональный (многоголосый, закадровый)
Cубтитры: нет
Режиссер: Нери Паренти / Neri Parenti
В ролях: Паоло Вилладжо / Paolo Villaggio, Милена Вукотич / Milena Vukotic, Анна Маццамауро / Anna Mazzamauro, Жижи Редер / Gigi Reder, Плинио Фернандо / Plinio Fernando, Джимми иль Феномено / Jimmy il Fenomeno и другие .
Описание: Один за другим умирают бывшие коллеги Фантоцци. После очередных похорон Уго и сам случайно попадает в больницу, где узнает, что жить ему осталось не более двух недель… Пытаясь насладиться последними днями, Фантоции делает, наконец, все то, о чем когда-то мечтал.
Релиз группы
Качество: DVDRip / <a href="viewtopic.php?t=1215739" class="postLink">DVD5 (Custom)</a>
Формат: MP4
Видео кодек: H.264
Аудио кодек: AAC
Видео: 466x360 AR:1.294 1080 kbps 25 fps
Аудио: [Russian] 2ch 48 kHz 128 kbps - [MVO]
avs [info]: 466x360p 1:1 @ 25/1 fps (cfr)
x264 [info]: using SAR=1/1
x264 [info]: using cpu capabilities: MMX2 SSE2Fast SSSE3 SSE4.2 LZCNT
x264 [info]: profile High, level 4.1

x264 [info]: frame I:874 Avg QP:18.52 size: 33723
x264 [info]: frame P:30751 Avg QP:21.66 size: 12578
x264 [info]: frame B:107151 Avg QP:24.34 size: 3110
x264 [info]: consecutive B-frames: 1.3% 2.0% 5.1% 43.5% 14.8% 15.9% 6.4% 9.5% 1.5%
x264 [info]: mb I I16..4: 2.8% 68.6% 28.7%
x264 [info]: mb P I16..4: 0.4% 6.1% 2.2% P16..4: 31.5% 37.2% 17.8% 3.4% 0.5% skip: 0.8%
x264 [info]: mb B I16..4: 0.0% 0.6% 0.3% B16..8: 35.8% 22.8% 4.2% direct: 5.5% skip:30.7% L0:35.9% L1:41.7% BI:22.4%
x264 [info]: 8x8 transform intra:68.6% inter:56.4%
x264 [info]: direct mvs spatial:96.5% temporal:3.5%
x264 [info]: coded y,uvDC,uvAC intra: 90.9% 87.6% 52.1% inter: 28.9% 22.1% 6.8%
x264 [info]: i16 v,h,dc,p: 56% 12% 1% 30%
x264 [info]: i8 v,h,dc,ddl,ddr,vr,hd,vl,hu: 16% 10% 5% 9% 13% 12% 12% 11% 12%
x264 [info]: i4 v,h,dc,ddl,ddr,vr,hd,vl,hu: 20% 24% 3% 6% 10% 10% 10% 8% 10%
x264 [info]: i8c dc,h,v,p: 29% 26% 25% 20%
x264 [info]: Weighted P-Frames: Y:7.9% UV:1.7%
x264 [info]: ref P L0: 41.3% 14.6% 18.9% 6.6% 6.5% 4.3% 4.6% 2.8% 0.4% 0.0%
x264 [info]: ref B L0: 81.3% 8.9% 4.1% 2.3% 1.7% 1.0% 0.6%
x264 [info]: ref B L1: 95.9% 4.1%
x264 [info]: kb/s:1080.14

x264 [total]: encoded 138776 frames, 11.95 fps, 1080.14 kb/s
ОбщееПолное имя : D:\Torrents\Fantozzi.Collection.DVDRip.x264.640x\Fantozzi in paradiso.1993.DVDRip.x264.640x.rip by Frost O.S.mp4Формат : MPEG-4Профиль формата : Base MediaИдентификатор кодека : isomРазмер файла : 805 МбайтПродолжительность : 1 ч. 32 м.Режим общего битрейта : ПеременныйОбщий поток : 1216 Кбит/секНазвание фильма : Fantozzi in paradiso 1993 DVDRip x264 640x rip by Frost O SЖанр : ComedyТип содержимого : Short FilmДата кодирования : UTC 2016-04-13 10:21:17Дата пометки : UTC 2016-04-13 10:21:50Программа кодирования : MkvToMp4 version: 0.224 (x64)Обложка : YesПримечание : rip by Frost O.SLongDescription : Один за другим умирают бывшие коллеги Фантоцци. После очередных похорон Уго и сам случайно попадает в больницу, где узнает, что жить ему осталось не более двух недель… Пытаясь насладиться последними днями, Фантоции делает, наконец, все то, о чем когда-то мечтал.

ВидеоИдентификатор : 1Формат : AVCФормат/Информация : Advanced Video CodecПрофиль формата : [email protected]Параметр CABAC формата : ДаПараметр ReFrames формата : 8 кадровИдентификатор кодека : avc1Идентификатор кодека/Информация : Advanced Video CodingПродолжительность : 1 ч. 32 м.Битрейт : 1080 Кбит/секМаксимальный битрейт : 3682 Кбит/секШирина : 466 пикселейВысота : 360 пикселейСоотношение сторон : 1,294Режим частоты кадров : ПостоянныйЧастота кадров : 25,000 кадров/секЦветовое пространство : YUVСубдискретизация насыщенности : 4:2:0Битовая глубина : 8 битТип развёртки : ПрогрессивнаяБит/(Пиксели*Кадры) : 0.258Размер потока : 715 Мбайт (89%)Библиотека кодирования : x264 core 130 r2273 b3065e6Настройки программы : cabac=1 / ref=8 / deblock=1:-1:-1 / analyse=0x3:0x133 / me=umh / subme=11 / psy=1 / psy_rd=1.00:0.00 / mixed_ref=1 / me_range=48 / chroma_me=1 / trellis=2 / 8x8dct=1 / cqm=0 / deadzone=21,11 / fast_pskip=0 / chroma_qp_offset=-2 / threads=3 / lookahead_threads=1 / sliced_threads=0 / nr=0 / decimate=0 / interlaced=0 / bluray_compat=0 / constrained_intra=0 / bframes=8 / b_pyramid=2 / b_adapt=2 / b_bias=0 / direct=3 / weightb=1 / open_gop=0 / weightp=2 / keyint=250 / keyint_min=25 / scenecut=40 / intra_refresh=0 / rc_lookahead=60 / rc=2pass / mbtree=1 / bitrate=1080 / ratetol=1.0 / qcomp=0.75 / qpmin=0 / qpmax=69 / qpstep=4 / cplxblur=20.0 / qblur=0.5 / ip_ratio=1.40 / aq=1:0.90Язык : EnglishДата кодирования : UTC 2016-04-13 10:21:17Дата пометки : UTC 2016-04-13 10:21:28Основные цвета : BT.601 PALХарактеристики трансфера : BT.470 System B, BT.470 System GКоэффициенты матрицы : BT.601

АудиоИдентификатор : 2Формат : AACФормат/Информация : Advanced Audio CodecПрофиль формата : LCИдентификатор кодека : 40Продолжительность : 1 ч. 32 м.Вид битрейта : ПеременныйБитрейт : 128 Кбит/секМаксимальный битрейт : 132 Кбит/секКаналы : 2 каналаРасположение каналов : Front: L RЧастота : 48,0 КГцМетод сжатия : С потерямиРазмер потока : 84,7 Мбайт (11%)Заголовок : [MVO]Язык : RussianДата кодирования : UTC 2016-04-13 10:21:26Дата пометки : UTC 2016-04-13 10:21:28
Возвращение Фантоцци / Fantozzi - Il ritorno
«Poor Fantozzi. He cannot even enjoy Heaven!»

Год выпуска: 1996
Страна: Италия
Жанр: комедия
Продолжительность: 01:36:38
Перевод №1: Профессиональный (многоголосый, закадровый)
Перевод №2: Авторский (одноголосый, закадровый)
Cубтитры: нет
Режиссер: Нери Паренти / Neri Parenti
В ролях: Паоло Вилладжо / Paolo Villaggio, Милена Вукотич / Milena Vukotic, Жижи Редер / Gigi Reder, Мария Кристина Макка / Maria Cristina Maccà, Маурицио Маттиоли / Maurizio Mattioli, Антонио Аллочча / Antonio Allocca, Серджо Гибелло / Sergio Gibello и другие .
Описание: Фантоцци не может жить без приключений. В этой серии внучку Фантоцци похищают, требуя выкуп, Фантоцци бросается на ее поиски; наговаривает в сексе по телефону огромные суммы; синьора Сильвани хочет сделать пластическую операцию и под видом беременной от него, Фантоцци требует денег; бухгалтера сажают в тюрьму…
В этом фильме вместо Плинио Фернандо, снимавшегося во всех раннее снятых фильмах о Фантоцци, Угину сыграла Мария Кристина Макка.

Релиз группы
Качество: DVDRip / <a href="viewtopic.php?t=2716341" class="postLink">DVD5 (Custom)</a>
Формат: MP4
Видео кодек: H.264
Аудио кодек: AAC
Видео: 468x360 AR:4/3 1080 kbps 25 fps
Аудио №1: [Russian] 2ch 48 kHz 128 kbps - [MVO]
Аудио №2: [Russian] 2ch 48 kHz 128 kbps - [VO]
avs [info]: 468x360p 1:1 @ 25/1 fps (cfr)
x264 [info]: using SAR=1/1
x264 [info]: using cpu capabilities: MMX2 SSE2Fast SSSE3 SSE4.2 LZCNT
x264 [info]: profile High, level 4.1

x264 [info]: frame I:903 Avg QP:18.75 size: 31881
x264 [info]: frame P:29773 Avg QP:22.05 size: 12177
x264 [info]: frame B:114280 Avg QP:24.62 size: 3425
x264 [info]: consecutive B-frames: 1.0% 1.4% 5.3% 24.0% 21.4% 35.7% 6.3% 2.5% 1.8% 0.5%
x264 [info]: mb I I16..4: 3.2% 65.6% 31.1%
x264 [info]: mb P I16..4: 0.3% 5.6% 2.6% P16..4: 31.7% 37.6% 17.8% 3.3% 0.5% skip: 0.6%
x264 [info]: mb B I16..4: 0.0% 0.7% 0.4% B16..8: 37.1% 23.7% 4.3% direct: 5.9% skip:27.9% L0:38.6% L1:39.5% BI:21.9%
x264 [info]: 8x8 transform intra:64.6% inter:56.1%
x264 [info]: direct mvs spatial:98.0% temporal:2.0%
x264 [info]: coded y,uvDC,uvAC intra: 90.4% 88.4% 51.2% inter: 28.9% 26.2% 7.5%
x264 [info]: i16 v,h,dc,p: 47% 16% 3% 34%
x264 [info]: i8 v,h,dc,ddl,ddr,vr,hd,vl,hu: 16% 9% 5% 9% 13% 13% 12% 11% 12%
x264 [info]: i4 v,h,dc,ddl,ddr,vr,hd,vl,hu: 20% 24% 3% 6% 10% 10% 9% 8% 9%
x264 [info]: i8c dc,h,v,p: 31% 24% 24% 21%
x264 [info]: Weighted P-Frames: Y:7.7% UV:1.2%
x264 [info]: ref P L0: 40.2% 13.9% 18.8% 6.2% 6.2% 4.2% 4.6% 2.4% 3.0% 0.4% 0.0%
x264 [info]: ref B L0: 77.1% 11.1% 4.6% 2.5% 1.8% 1.7% 0.9% 0.4%
x264 [info]: ref B L1: 93.3% 6.7%
x264 [info]: kb/s:1079.92
encoded 144956 frames, 11.74 fps, 1079.92 kb/s
ОбщееПолное имя : D:\Torrents\Fantozzi.Collection.DVDRip.x264.640x\Fantozzi - Il ritorno.1996.DVDRip.x264.640x.rip by Frost O.S.mp4Формат : MPEG-4Профиль формата : Base MediaИдентификатор кодека : isomРазмер файла : 931 МбайтПродолжительность : 1 ч. 36 м.Режим общего битрейта : ПеременныйОбщий поток : 1347 Кбит/секНазвание фильма : Fantozzi - Il ritorno 1996 DVDRip x264 640x rip by Frost O SЖанр : ComedyТип содержимого : Short FilmДата кодирования : UTC 2016-04-13 14:40:50Дата пометки : UTC 2016-04-13 14:41:35Программа кодирования : MkvToMp4 version: 0.224 (x64)Обложка : YesПримечание : rip by Frost O.SLongDescription : Фантоцци не может жить без приключений. В этой серии внучку Фантоцци похищают, требуя выкуп, Фантоцци бросается на ее поиски; наговаривает в сексе по телефону огромные суммы; синьора Сильвани хочет сделать пластическую операцию и под видом беременной от него, Фантоцци требует денег; бухгалтера сажают в тюрьму…

ВидеоИдентификатор : 1Формат : AVCФормат/Информация : Advanced Video CodecПрофиль формата : [email protected]Параметр CABAC формата : ДаПараметр ReFrames формата : 9 кадровИдентификатор кодека : avc1Идентификатор кодека/Информация : Advanced Video CodingПродолжительность : 1 ч. 36 м.Битрейт : 1080 Кбит/секМаксимальный битрейт : 3681 Кбит/секШирина : 468 пикселейВысота : 360 пикселейСоотношение сторон : 4:3Режим частоты кадров : ПостоянныйЧастота кадров : 25,000 кадров/секЦветовое пространство : YUVСубдискретизация насыщенности : 4:2:0Битовая глубина : 8 битТип развёртки : ПрогрессивнаяБит/(Пиксели*Кадры) : 0.256Размер потока : 746 Мбайт (80%)Библиотека кодирования : x264 core 130 r2273 b3065e6Настройки программы : cabac=1 / ref=9 / deblock=1:-1:-1 / analyse=0x3:0x133 / me=umh / subme=11 / psy=1 / psy_rd=1.00:0.00 / mixed_ref=1 / me_range=48 / chroma_me=1 / trellis=2 / 8x8dct=1 / cqm=0 / deadzone=21,11 / fast_pskip=0 / chroma_qp_offset=-2 / threads=3 / lookahead_threads=1 / sliced_threads=0 / nr=0 / decimate=0 / interlaced=0 / bluray_compat=0 / constrained_intra=0 / bframes=9 / b_pyramid=2 / b_adapt=2 / b_bias=0 / direct=3 / weightb=1 / open_gop=0 / weightp=2 / keyint=250 / keyint_min=25 / scenecut=40 / intra_refresh=0 / rc_lookahead=60 / rc=2pass / mbtree=1 / bitrate=1080 / ratetol=1.0 / qcomp=0.75 / qpmin=0 / qpmax=69 / qpstep=4 / cplxblur=20.0 / qblur=0.5 / ip_ratio=1.40 / aq=1:0.90Язык : EnglishДата кодирования : UTC 2016-04-13 14:40:50Дата пометки : UTC 2016-04-13 14:41:04Основные цвета : BT.601 PALХарактеристики трансфера : BT.470 System B, BT.470 System GКоэффициенты матрицы : BT.601

Аудио #1Идентификатор : 2Формат : AACФормат/Информация : Advanced Audio CodecПрофиль формата : LCИдентификатор кодека : 40Продолжительность : 1 ч. 36 м.Вид битрейта : ПеременныйБитрейт : 128 Кбит/секМаксимальный битрейт : 131 Кбит/секКаналы : 2 каналаРасположение каналов : Front: L RЧастота : 48,0 КГцМетод сжатия : С потерямиРазмер потока : 88,5 Мбайт (9%)Заголовок : [MVO]Язык : RussianДата кодирования : UTC 2016-04-13 14:40:59Дата пометки : UTC 2016-04-13 14:41:04

Аудио #2Идентификатор : 3Формат : AACФормат/Информация : Advanced Audio CodecПрофиль формата : LCИдентификатор кодека : 40Продолжительность : 1 ч. 36 м.Вид битрейта : ПеременныйБитрейт : 128 Кбит/секМаксимальный битрейт : 134 Кбит/секКаналы : 2 каналаРасположение каналов : Front: L RЧастота : 48,0 КГцМетод сжатия : С потерямиРазмер потока : 88,5 Мбайт (9%)Заголовок : [VO]Язык : RussianДата кодирования : UTC 2016-04-13 14:41:01Дата пометки : UTC 2016-04-13 14:41:04
Фантоцци 2000 – Клонирование / Fantozzi 2000 - La clonazione

Год выпуска: 1999
Страна: Италия
Жанр: комедия
Продолжительность: 01:33:48
Перевод №1: Профессиональный (многоголосый, закадровый)
Перевод №2: Авторский (одноголосый, закадровый))
Cубтитры: нет
Режиссер: Доменико Саверни / Domenico Saverni
В ролях: Паоло Вилладжо / Paolo Villaggio, Милена Вукотич / Milena Vukotic, Анна Маццамауро / Anna Mazzamauro, Паоло Паолони / Paolo Paoloni, Доди Конти / Dodi Conti, Стефано Машьярелли / Stefano Masciarelli и другие .
Описание: Руководство Мега-Фирмы обеспокоено тем, что сотрудники совершенно выбились из-под контроля. Вдруг они вспоминают про самого услужливого и исполнительно работника — бухгалтера Уго Фантоцци. Они решают пригласить его снова на работу, но вот беда — он умер несколько лет назад. Но руководство компании это не останавливает. С помощью новейших технологий, используя волосы покойного бухгалтера, ученые создают клона, ничем не отличающегося от покойника. Фантоцци узнает свою жену, своего директора и со следующего же дня ревностно принимается исполнять свои служебные обязанности.

Но судьба готовит ему ряд за другим несколько сюрпризов — отдых в закрытом приюте для детей миллионеров, длительная эпопея с лотерейным билетом, чуть было не стоившая бухгалтеру семейного счастья, проблемы с внезапно приехавшей погостить к бабушке с дедушкой дорогой, но довольно таки взрослой внучкой, неожиданное приглашение на новогодний банкет к графине и даже встреча с инопланетянином.
Релиз группы
Качество: DVDRip / <a href="viewtopic.php?t=2415696" class="postLink">DVD5 (Custom)</a>
Формат: MP4
Видео кодек: H.264
Аудио кодек: AAC
Видео: 594x360 AR:1.650 1080 kbps 25 fps
Аудио №1: [Russian] 2ch 48 kHz 128 kbps - [MVO]
Аудио №2: [Russian] 2ch 48 kHz 128 kbps - [VO]
avs [info]: 594x360p 1:1 @ 25/1 fps (cfr)
x264 [info]: using SAR=1/1
x264 [info]: using cpu capabilities: MMX2 SSE2Fast SSSE3 SSE4.2 LZCNT
x264 [info]: profile High, level 4.1

x264 [info]: frame I:1062 Avg QP:18.27 size: 36163
x264 [info]: frame P:28926 Avg QP:21.53 size: 13351
x264 [info]: frame B:110713 Avg QP:25.04 size: 3026
x264 [info]: consecutive B-frames: 1.1% 1.3% 6.0% 22.3% 15.8% 48.9% 3.3% 1.2%
x264 [info]: mb I I16..4: 4.0% 75.6% 20.4%
x264 [info]: mb P I16..4: 0.6% 8.0% 2.0% P16..4: 32.6% 37.4% 15.1% 2.3% 0.3% skip: 1.8%
x264 [info]: mb B I16..4: 0.1% 0.9% 0.3% B16..8: 37.6% 19.4% 2.9% direct: 4.2% skip:34.7% L0:36.0% L1:46.1% BI:18.0%
x264 [info]: 8x8 transform intra:74.7% inter:62.1%
x264 [info]: direct mvs spatial:97.6% temporal:2.4%
x264 [info]: coded y,uvDC,uvAC intra: 90.0% 84.3% 50.9% inter: 24.1% 17.9% 5.6%
x264 [info]: i16 v,h,dc,p: 31% 27% 4% 38%
x264 [info]: i8 v,h,dc,ddl,ddr,vr,hd,vl,hu: 13% 10% 4% 9% 14% 14% 12% 12% 11%
x264 [info]: i4 v,h,dc,ddl,ddr,vr,hd,vl,hu: 15% 21% 3% 7% 12% 13% 10% 10% 10%
x264 [info]: i8c dc,h,v,p: 28% 30% 23% 20%
x264 [info]: Weighted P-Frames: Y:8.3% UV:3.8%
x264 [info]: ref P L0: 43.3% 14.8% 20.5% 5.8% 5.7% 3.5% 3.9% 2.2% 0.4% 0.0%
x264 [info]: ref B L0: 83.0% 9.7% 3.3% 1.7% 1.2% 0.7% 0.4%
x264 [info]: ref B L1: 95.2% 4.8%
x264 [info]: kb/s:1079.72

x264 [total]: encoded 140701 frames, 10.24 fps, 1079.72 kb/s
ОбщееПолное имя : D:\Torrents\Fantozzi.Collection.DVDRip.x264.640x\Fantozzi 2000 - La clonazione.1999.DVDRip.x264.640x.rip by Frost O.S.mp4Формат : MPEG-4Профиль формата : Base MediaИдентификатор кодека : isomРазмер файла : 904 МбайтПродолжительность : 1 ч. 33 м.Режим общего битрейта : ПеременныйОбщий поток : 1348 Кбит/секНазвание фильма : Fantozzi 2000 - La clonazione 1999 DVDRip x264 640x rip by Frost O SЖанр : ComedyТип содержимого : Short FilmДата кодирования : UTC 2016-04-15 13:12:02Дата пометки : UTC 2016-04-15 13:12:45Программа кодирования : MkvToMp4 version: 0.224 (x64)Обложка : YesПримечание : rip by Frost O.SLongDescription : Руководство Мега-Фирмы обеспокоено тем, что сотрудники совершенно выбились из-под контроля. Вдруг они вспоминают про самого услужливого и исполнительно работника — бухгалтера Уго Фантоцци. Они решают пригласить его снова на работу, но вот беда — он умер несколько лет назад. Но руководство компании это не останавливает. С помощью новейших технологий, используя волосы покойного бухгалтера, ученые создают клона, ничем не отличающегося от покойника. Фантоцци узнает свою жену, своего директора и со следующего же дня ревностно принимается исполнять свои служебные обязанности. Но судьба готовит ему ряд за другим несколько сюрпризов — отдых в закрытом приюте для детей миллионеров, длительная эпопея с лотерейным билетом, чуть было не стоившая бухгалтеру семейного счастья, проблемы с внезапно приехавшей погостить к бабушке с дедушкой дорогой, но довольно таки взрослой внучкой, неожиданное приглашение на новогодний банкет к графине и даже встреча с инопланетянином.

ВидеоИдентификатор : 1Формат : AVCФормат/Информация : Advanced Video CodecПрофиль формата : [email protected]Параметр CABAC формата : ДаПараметр ReFrames формата : 8 кадровИдентификатор кодека : avc1Идентификатор кодека/Информация : Advanced Video CodingПродолжительность : 1 ч. 33 м.Битрейт : 1080 Кбит/секМаксимальный битрейт : 4077 Кбит/секШирина : 594 пикселяВысота : 360 пикселейСоотношение сторон : 1,650Режим частоты кадров : ПостоянныйЧастота кадров : 25,000 кадров/секЦветовое пространство : YUVСубдискретизация насыщенности : 4:2:0Битовая глубина : 8 битТип развёртки : ПрогрессивнаяБит/(Пиксели*Кадры) : 0.202Размер потока : 724 Мбайт (80%)Библиотека кодирования : x264 core 130 r2273 b3065e6Настройки программы : cabac=1 / ref=8 / deblock=1:-1:-1 / analyse=0x3:0x133 / me=umh / subme=11 / psy=1 / psy_rd=1.00:0.00 / mixed_ref=1 / me_range=48 / chroma_me=1 / trellis=2 / 8x8dct=1 / cqm=0 / deadzone=21,11 / fast_pskip=0 / chroma_qp_offset=-2 / threads=3 / lookahead_threads=1 / sliced_threads=0 / nr=0 / decimate=0 / interlaced=0 / bluray_compat=0 / constrained_intra=0 / bframes=7 / b_pyramid=2 / b_adapt=2 / b_bias=0 / direct=3 / weightb=1 / open_gop=0 / weightp=2 / keyint=250 / keyint_min=25 / scenecut=40 / intra_refresh=0 / rc_lookahead=60 / rc=2pass / mbtree=1 / bitrate=1080 / ratetol=1.0 / qcomp=0.65 / qpmin=0 / qpmax=69 / qpstep=4 / cplxblur=20.0 / qblur=0.5 / ip_ratio=1.40 / aq=1:0.90Язык : EnglishДата кодирования : UTC 2016-04-15 13:12:02Дата пометки : UTC 2016-04-15 13:12:18Основные цвета : BT.601 PALХарактеристики трансфера : BT.470 System B, BT.470 System GКоэффициенты матрицы : BT.601

Аудио #1Идентификатор : 2Формат : AACФормат/Информация : Advanced Audio CodecПрофиль формата : LCИдентификатор кодека : 40Продолжительность : 1 ч. 33 м.Вид битрейта : ПеременныйБитрейт : 128 Кбит/секМаксимальный битрейт : 135 Кбит/секКаналы : 2 каналаРасположение каналов : Front: L RЧастота : 48,0 КГцМетод сжатия : С потерямиРазмер потока : 85,9 Мбайт (9%)Заголовок : [MVO]Язык : RussianДата кодирования : UTC 2016-04-15 13:12:13Дата пометки : UTC 2016-04-15 13:12:18

Аудио #2Идентификатор : 3Формат : AACФормат/Информация : Advanced Audio CodecПрофиль формата : LCИдентификатор кодека : 40Продолжительность : 1 ч. 33 м.Вид битрейта : ПеременныйБитрейт : 128 Кбит/секМаксимальный битрейт : 132 Кбит/секКаналы : 2 каналаРасположение каналов : Front: L RЧастота : 48,0 КГцМетод сжатия : С потерямиРазмер потока : 85,9 Мбайт (9%)Заголовок : [VO]Язык : RussianДата кодирования : UTC 2016-04-15 13:12:16Дата пометки : UTC 2016-04-15 13:12:18
Хочу выразить отдельную благодарность пользователю и Snake1965 за помощь в оформлении раздачи

Трекер:  [ 15-Апр-2016 17:00 ]

  

Скачать .torrent

Размер .torrent файла 42 KB


Размер: 8.15 GB
Хэш (hash) релиза: c1ae4bcfc45cf55c3b661492127b1542f9fb927e

Еще никто не оставлял запись к записи скачать торрент [VIDEO] Фантоцци: Коллеция Fantozzi: Collection . Будь первым!

!Обратная связь