Dangerous - 6 | The Walking Dead, Vol. 1: Days Gone Bye | DIABOLIK (86)

Скачать через торрент [VIDEO] Именины бесплатно русская версия torrent активатор

Статистика раздачи
Размер:  439 MB   |    Зарегистрирован:  2 года 3 месяца   |    .torrent скачан:  16 раз   |   
Раздают:  1  
   
загрузка...
 
Автор Сообщение

Galfimbul

avatar Galfimbul


Именины

Год выпуска: 2004

Страна: Россия
Жанр: Комедия
Продолжительность: 01:35:14
Перевод: Не требуется
Cубтитры: нет

Режиссер: Валерий Наумов, Андрей Черных

В ролях: Екатерина Гороховская, Кира Крейлис-Петрова, Мария Кузнецова, Юрий Кузнецов, Игорь Петренко, Анатолий Сливников, Федор Лавров, Нина Розанцева, Наталья Лесничая

Описание: В деревню приезжает молодой художник Виктор, чтобы оформить к Новому году декорации местного клуба. Хозяин клуба Мишка приводит гостя в дом, где он будет жить. Между Виктором и дочкой хозяина дома Татьяной возникает симпатия, о чем догадывается безумно влюбленный в девушку Мишка.

Пытаясь отвадить художника, он объявляет, что их новый постоялец — псих, ему же сообщает, что его соседи — обладатели «желтых справок» и что глава семьи постоянно требует, чтобы каждые две недели устраивался праздник в честь его именин. У отца Татьяны действительно приближаются именины, но никто не собирается их отмечать. А ему так хочется праздника!
Качество: DVDRip
Формат: MP4
Видео: MPEG-4, 426х320(4:3), 511 Кбит/с, 25.000 fps;
Аудио: MPEG4-AAC, 2 ch, 44.1 KHz, 128 Kbps
GeneralComplete name : F:\Скаченное\Imeniny_2004_426х320.mp4Format : MPEG-4Format profile : Base MediaCodec ID : isomFile size : 439 MiBDuration : 1h 35mnOverall bit rate mode : VariableOverall bit rate : 644 KbpsEncoded date : UTC 2016-04-01 08:15:41Tagged date : UTC 2016-04-01 08:15:41Writing application : Lavf51.12.1

VideoID : 1Format : MPEG-4 VisualFormat profile : [email protected] settings, BVOP : NoFormat settings, QPel : NoFormat settings, GMC : No warppointsFormat settings, Matrix : Default (H.263)Codec ID : 20Duration : 1h 35mnBit rate : 511 KbpsWidth : 426 pixelsHeight : 320 pixelsDisplay aspect ratio : 4:3Frame rate mode : ConstantFrame rate : 25.000 fpsColor space : YUVChroma subsampling : 4:2:0Bit depth : 8 bitsScan type : ProgressiveCompression mode : LossyBits/(Pixel*Frame) : 0.133Stream size : 348 MiB (79%)Writing library : Lavc51.40.4Encoded date : UTC 2016-04-01 08:15:41Tagged date : UTC 2016-04-01 08:15:41

AudioID : 2Format : AACFormat/Info : Advanced Audio CodecFormat profile : LCCodec ID : 40Duration : 1h 35mnBit rate mode : VariableBit rate : 128 KbpsChannel(s) : 2 channelsChannel positions : Front: L RSampling rate : 44.1 KHzCompression mode : LossyStream size : 87.2 MiB (20%)Encoded date : UTC 2016-04-01 08:15:41Tagged date : UTC 2016-04-01 08:15:41


Трекер:  [ 15-Апр-2016 12:30 ]

  

Скачать .torrent

Размер .torrent файла 17 KB


Размер: 439 MB
Хэш (hash) релиза: 2adf4ffa87f92379a3f769d084d7e774b0a401a1

Еще никто не оставлял запись к записи скачать торрент [VIDEO] Именины . Будь первым!

!Обратная связь