Mascha und der Bär | Succession War - 天命Succession War | We Know It Was You (Strange Truth #1)

Скачать через торрент [VIDEO] Жажда золота La soif de lor бесплатно русская версия torrent активатор

Статистика раздачи
Размер:  707 MB   |    Зарегистрирован:  2 года 3 месяца   |    .torrent скачан:  20 раз   |   
Раздают:  1  
   
загрузка...
 
Автор Сообщение

Galfimbul

avatar Galfimbul


Жажда золота / La soif de l'or

Год выпуска: 1993
Страна: Франция
Жанр: комедия
Продолжительность: 01:21:16
Перевод: Профессиональный (многоголосый, закадровый)
Cубтитры: нет
Режиссер: Жерар Ури / Gerard Oury
В ролях: Кристиан Клавье, Цилла Шелтон, Катрин Жакоб, Филипп Хорсан, Марина Дельтерм, Паскаль Греггори, Бернард Хэллер, Жаки Нерсесян, Doud, Альбер Дрэ и другие .
Описание: Для того, чтобы вывезти контрабандой в Швейцарию золотые слитки на сумму 6 миллиардов франков, мсье Юрбэн Донадье придумал весьма оригинальный способ — он спрятал их в стенах своего домика, который должен был сыграть роль чемодана с двойным дном.

Его жена Флоретта узнала об этом и, так как Юрбэн не желал делиться «честно нажитым» богатством, она принялась за дело по-своему .
Релиз группы
Качество: DVDRip / <a href="viewtopic.php?t=2089452" class="postLink">рип с DVD5</a> Формат: MP4 Видео кодек: H.264 Аудио кодек: AAC
Видео: 640x356 AR:16/9 1080 kbps 25 fps
Аудио: 2ch 48 kHz 128 kbps [MVO]
avs [info]: 640x356p 1:1 @ 25/1 fps (cfr)
x264 [info]: using SAR=1/1
x264 [info]: using cpu capabilities: MMX2 SSE2Fast SSSE3 SSE4.2 LZCNT
x264 [info]: profile High, level 4.1

x264 [info]: frame I:1061 Avg QP:22.77 size: 32588
x264 [info]: frame P:26825 Avg QP:26.30 size: 10648
x264 [info]: frame B:94019 Avg QP:28.19 size: 3596
x264 [info]: consecutive B-frames: 1.7% 2.8% 7.5% 26.7% 18.2% 35.4% 5.4% 2.2%
x264 [info]: mb I I16..4: 5.0% 74.9% 20.0%
x264 [info]: mb P I16..4: 1.0% 12.3% 2.6% P16..4: 37.5% 31.2% 10.0% 1.3% 0.2% skip: 4.0%
x264 [info]: mb B I16..4: 0.1% 1.9% 0.5% B16..8: 35.4% 16.8% 2.9% direct: 3.8% skip:38.7% L0:39.4% L1:45.3% BI:15.3%
x264 [info]: 8x8 transform intra:76.8% inter:65.8%
x264 [info]: direct mvs spatial:97.8% temporal:2.2%
x264 [info]: coded y,uvDC,uvAC intra: 85.6% 71.2% 33.0% inter: 22.1% 14.4% 3.3%
x264 [info]: i16 v,h,dc,p: 28% 22% 4% 47%
x264 [info]: i8 v,h,dc,ddl,ddr,vr,hd,vl,hu: 12% 7% 3% 10% 15% 14% 14% 12% 13%
x264 [info]: i4 v,h,dc,ddl,ddr,vr,hd,vl,hu: 32% 9% 4% 6% 11% 11% 10% 8% 10%
x264 [info]: i8c dc,h,v,p: 28% 30% 22% 20%
x264 [info]: Weighted P-Frames: Y:4.6% UV:1.1%
x264 [info]: ref P L0: 48.4% 16.1% 17.5% 5.0% 4.6% 3.1% 3.2% 1.9% 0.3% 0.0%
x264 [info]: ref B L0: 82.7% 9.3% 3.7% 1.8% 1.3% 0.8% 0.4%
x264 [info]: ref B L1: 94.3% 5.7%
x264 [info]: kb/s:1080.10

x264 [total]: encoded 121905 frames, 3.35 fps, 1080.10 kb/s
GeneralComplete name : D:\Torrents\La soif de l'or.1993.DVDRip.x264.640x.rip by Frost O.S.mp4Format : MPEG-4Format profile : Base MediaCodec ID : isomFile size : 707 MiBDuration : 1h 21mnOverall bit rate mode : VariableOverall bit rate : 1 216 KbpsMovie name : La soif de l'or 1993 DVDRip x264 640x rip by Frost O SGenre : ComedyContentType : Short FilmEncoded date : UTC 2016-04-06 18:11:05Tagged date : UTC 2016-04-06 18:11:39Writing application : MkvToMp4 version: 0.224 (x64)Cover : YesComment : rip by Frost O.SLongDescription : Для того, чтобы вывезти контрабандой в Швейцарию золотые слитки на сумму 6 миллиардов франков, мсье Юрбэн Донадье придумал весьма оригинальный способ — он спрятал их в стенах своего домика, который должен был сыграть роль чемодана с двойным дном. Его жена Флоретта узнала об этом и, так как Юрбэн не желал делиться «честно нажитым» богатством, она принялась за дело по-своему.

VideoID : 1Format : AVCFormat/Info : Advanced Video CodecFormat profile : [email protected] settings, CABAC : YesFormat settings, ReFrames : 8 framesCodec ID : avc1Codec ID/Info : Advanced Video CodingDuration : 1h 21mnBit rate : 1 080 KbpsMaximum bit rate : 5 177 KbpsWidth : 640 pixelsHeight : 356 pixelsDisplay aspect ratio : 16:9Frame rate mode : ConstantFrame rate : 25.000 fpsColor space : YUVChroma subsampling : 4:2:0Bit depth : 8 bitsScan type : ProgressiveBits/(Pixel*Frame) : 0.190Stream size : 628 MiB (89%)Writing library : x264 core 130 r2273 b3065e6Encoding settings : cabac=1 / ref=8 / deblock=1:0:1 / analyse=0x3:0x133 / me=esa / subme=11 / psy=1 / psy_rd=0.80:0.05 / mixed_ref=1 / me_range=48 / chroma_me=1 / trellis=2 / 8x8dct=1 / cqm=0 / deadzone=21,11 / fast_pskip=0 / chroma_qp_offset=-3 / threads=3 / lookahead_threads=1 / sliced_threads=0 / nr=0 / decimate=0 / interlaced=0 / bluray_compat=0 / constrained_intra=0 / bframes=7 / b_pyramid=2 / b_adapt=2 / b_bias=0 / direct=3 / weightb=1 / open_gop=0 / weightp=2 / keyint=250 / keyint_min=25 / scenecut=40 / intra_refresh=0 / rc_lookahead=60 / rc=2pass / mbtree=1 / bitrate=1080 / ratetol=1.0 / qcomp=0.80 / qpmin=0 / qpmax=69 / qpstep=4 / cplxblur=20.0 / qblur=0.5 / ip_ratio=1.40 / aq=1:0.50Language : EnglishEncoded date : UTC 2016-04-06 18:11:05Tagged date : UTC 2016-04-06 18:11:19Color primaries : BT.601 PALTransfer characteristics : BT.470 System B, BT.470 System GMatrix coefficients : BT.601Color range : Limited

AudioID : 2Format : AACFormat/Info : Advanced Audio CodecFormat profile : LCCodec ID : 40Duration : 1h 21mnBit rate mode : VariableBit rate : 128 KbpsMaximum bit rate : 133 KbpsChannel(s) : 2 channelsChannel positions : Front: L RSampling rate : 48.0 KHzCompression mode : LossyStream size : 74.4 MiB (11%)Title : [MVO] / [MVO]Language : RussianEncoded date : UTC 2016-04-06 18:11:17Tagged date : UTC 2016-04-06 18:11:19


Трекер:  [ 06-Апр-2016 21:00 ]

  

Скачать .torrent

Размер .torrent файла 14 KB


Размер: 707 MB
Хэш (hash) релиза: 7e642a2be6dec18f222023c2e51904bba0c04069

Еще никто не оставлял запись к записи скачать торрент [VIDEO] Жажда золота La soif de lor . Будь первым!

!Обратная связь