Ellen Pompeo, Devin Dawson
Tomsize Dakat Loving You

Скачать через торрент [VIDEO] Мумия: Трилогия The Mummy: Trilogy бесплатно русская версия torrent активатор

Статистика раздачи
Размер:  5.46 GB   |    Зарегистрирован:  2 года   |    .torrent скачан:  71 раз   |   
Раздают:  1  
   
загрузка...
 
Автор Сообщение

Galfimbul

avatar Galfimbul


Мумия: Трилогия / The Mummy: Trilogy

Мумия / The Mummy
«Death is only the beginning»

Год выпуска: 1999
Страна: США
Жанр: фэнтези, боевик, приключения
Продолжительность: 02:04:45
Перевод №1: Профессиональный (многоголосый, закадровый) Первый Канал
Перевод №2: Профессиональный (двухголосый, закадровый) Universal Channel
Перевод №3: Авторский (одноголосый, закадровый) Александр Кашкин
Cубтитры: нет
Режиссер: Стивен Соммерс / Stephen Sommers
В ролях: Брендан Фрейзер / Brendan Fraser, Рэйчел Вайс / Rachel Weisz, Джон Ханна / John Hannah, Арнольд Вослу / Arnold Vosloo, Кевин Дж. О’Коннор / Kevin J. O'Connor, Джонатан Хайд / Jonathan Hyde, Одед Фер / Oded Fehr, Эрик Авари / Erick Avari и другие .
Описание: На бескрайних просторах египетской пустыни компания сорвиголов разных национальностей рыщет в поисках несметных сокровищ фараона, над которыми тяготеет жуткое древнее проклятие.

Рядом с кладом покоится мумия коварного жреца, жестоко казненного за ужасное убийство могущественного правителя Египта. Золотоискатели потревожили многовековой покой гробницы, и мумия встает из могилы, чтобы погрузить мир в царство кошмара…
Голос за кадром в начале фильма по первоначальному замыслу должен был принадлежать Имхотепу (Арнольд Вослоу) и режиссёр Стивен Соммерс лишь значительно позже обратил внимание на то, что древнеегипетский жрец не мог разговаривать на английском языке и предоставил эту честь Ардет Бэю (Одед Фер).
Первые планы создания фильма, который стал бы вольным ремейком картины 1932 года с участием Бориса Карлоффа, появились у продюсера Джеймса Джекса ещё в 1992 году. Тогда студия Universal Pictures дала зелёный свет проекту при условии, что бюджет не будет превышать 10 млн. долларов, рассчитывая получить малобюджетный хоррор френчайз. На место режиссёра был приглашён Клайв Баркер, однако после нескольких встреч с руководством киностудии обе стороны на время потеряли интерес к картине. В качестве следующего кандидата рассматривался Джордж Ромеро, но его стиль продюсер и киностудия посчитали слишком страшным для широкой аудитории.
Следующим выбором киностудии был Джо Данте, который настаивал на увеличении бюджета, а на роль монстра-мумии хотел пригласить Дэниэла Дэй-Льюиса. В его версии сюжет развивался в наши дни, фокусируясь на реинкарнации и главной любовной линии. Однако в тот момент Universal Pictures была готова расщедриться лишь на 15 млн. долларов и забраковала предложенную режиссёром трактовку картины. Вслед за этим в режиссёрском кресле был утверждён Мик Харрис, который вскоре выбыл из проекта, а получивший приглашение Уэс Крэйвен ответил на него отказом. Лишь в 1997 году режиссёр Стивен Соммерс предложил продюсеру Джеймсу Джексу своё видение фильма, которое нашло полную поддержку и понимание со стороны руководства киностудии, сменившегося перед этим по причине нескольких крупных неудач. Идея картины в стиле Индианы Джонса и классики приключенческого жанра «Язон и аргонавты» с мумией в качестве главного противника героев настолько приглянулась киностудии, что она согласилась пойти на увеличение затрат с 15 до 80 млн. долларов.
Роль в фильме (начальник тюрьмы, который заключает сделку с Эвелин) стала дебютом в кино родившегося в Иране британского актёра и комика Омида Джалили.
Во время сцены, когда привлечённая Имхотепом толпа скандирует речитативом на древнеегипетском языке, участники массовки во время репетиций начали заменять заданную им фразу на «Ohwhatanarseyouare» — вульгарную реплику на английском. Это же самое произошло на финальном дубле и попало в окончательную версию фильма, оставшись полностью незамеченным со стороны съёмочной группы.
Когда Бени переводит слова Имхотепа, он допускает ошибку в одном слове, говоря «навсегда», а Эвелин поправляет его фразой «на веки вечные, идиот!». Схожая ошибка при расшифровке иероглифов доктором Дэниэлом Джексоном происходит в фильме «Звёздные врата» (1994).
Брендан Фрейзер во время съёмок сцены повешения его героя потерял сознание и чуть не расстался с жизнью из-за того, что верёвка на его шее была чересчур туго затянута.
Ночная рубашка, которая была одета на Эвелин в момент нападения на корабле, промокнув, стала прозрачной и впоследствии была покрашена с помощью компьютерной графики на стадии пост-продакшна.
Сцены, происходящие в тюрьме, были полностью сняты в одном из жилых комплексов в Марракеше.
Когда гробница фараона Тутанхамона была найдена 4 ноября 1922 года, раскопками руководил Джордж Херберт, граф Карнарвон, а вместе с ним участие в них принимала его дочь, леди Эвелин Карнарвон. По первоначальному замыслу главной героиней фильма и должна была стать дочь проклятого лорда Карнарвона, Эвелин, но позднее её фамилия была изменена на Карнахан, а единственной отсылкой к этой сюжетной линии стали слова Эвелин Рику о том, что её отец был «очень известным исследователем».
Для участия в съёмках был специально приглашён учёный-египтолог, который должен был на своём примере показывать актёрам правильное произношение отдельных древнеегипетских слов и целых фраз.
Сцены, в которых героиня Рэйчел Вайс облеплена крысами и саранчой, были сняты с использованием реальных животных и насекомых, а не с помощью компьютерной графики, как это часто бывает в таких случаях.
За исключением набедренной повязки и нескольких ювелирных украшений костюм Патрисии Веласкес (Анк Су Намун) полностью состоял из нательной краски (body paint), наложение которой занимало 14 часов.
В реальности Имхотеп был знаменитым архитектором, который разработал постройку первых египетских пирамид, в том числе пирамиду Джосера примерно за 2600 лет до нашей эры. Талант древнего архитектора был настолько велик, что позднее о нём говорили как о человеке, произошедшем от богов. Его имя в переводе означает «тот, кто приходит с миром».
Ардет Бэй в фильме это глава племени меджаев, призванного защищать человечество от Имхотепа. Однако в картине 1932 года Ардет Бэй это второе я мумии Имхотепа (Борис Карлофф), когда тот пытается выдать себя за современного египтянина.
Съемочный период: 5 мая — 29 августа 1998 года. В начале работы шли в марокканском городе Марракеш, затем съёмки переместились в пустыню Сахара, в окрестности небольшого городка Эрфуд.
Съемки заброшенного города Хамунаптра проходили на отдельной съёмочной площадке, построенной в кратере потухшего вулкана поблизости от Эрфуда. Позднее другая обширная съёмочная площадка была сконструирована в павильонах британской Shepperton Studios, где были сняты сцены в подземных переходах и галереях Хамунаптры.
Съёмки сцен в порту Гизы прошли на съёмочной площадке длиной 183 метра, построенной в британских доках Чэтэма. На ней находились паровоз, три портовых крана, открытая двуконная повозка, четыре повозки с лошадьми, ослы, мулы, ряды восточного базара с торговцами в арабской одежде и комната для 300 участников массовки.
По первоначальному замыслу фильм аналогично картине 1932 года должен был начинаться с черно-белого логотипа студии Universal, который растворяется в сверкающем солнце пустыни.
Каирский форт получил название Форт Бридон. В фильме «Книга Джунглей» (1994), режиссёром которого также был Стивен Соммерс, одним из героев был полковник Бридон (его роль сыграл Сэм Нил).
Персонаж Ардет Бэя (вождя меджаев) по первоначальному варианту сценария должен был погибнуть в конце фильме, но режиссёр Стивен Соммерс настоял на том, что его судьба была изменена.

Релиз группы
Качество: BDRip / рип с Blu-ray CEE 1080p
Формат: MP4
Видео кодек: H.264
Аудио кодек: AAC
Видео: 960x408 AR:2.35 1740 kbps 23.976 fps
Аудио №1: [Russian] 2ch 48 kHz 128 kbps - [MVO] Профессиональный (многоголосый, закадровый) Первый Канал
Аудио №2: [Russian] 2ch 48 kHz 128 kbps - [DVO] Профессиональный (двухголосый, закадровый) Universal Channel
Аудио №3: [Russian] 2ch 48 kHz 128 kbps - [VO] Авторский (одноголосый, закадровый) Александр Кашкин
avs [info]: 960x408p 1:1 @ 2997/125 fps (cfr)
x264 [info]: using SAR=1/1
x264 [info]: using cpu capabilities: MMX2 SSE2Fast SSSE3 SSE4.2 LZCNT
x264 [info]: profile High, level 4.1

x264 [info]: frame I:1489 Avg QP:15.48 size: 60661
x264 [info]: frame P:44058 Avg QP:19.22 size: 18460
x264 [info]: frame B:133925 Avg QP:22.99 size: 5409
x264 [info]: consecutive B-frames: 2.7% 4.6% 10.2% 34.1% 17.6% 24.4% 3.5% 2.3% 0.6%
x264 [info]: mb I I16..4: 7.8% 67.0% 25.2%
x264 [info]: mb P I16..4: 1.3% 8.3% 1.8% P16..4: 33.4% 36.0% 11.9% 0.0% 0.0% skip: 7.2%
x264 [info]: mb B I16..4: 0.1% 1.1% 0.3% B16..8: 35.8% 18.2% 2.9% direct: 3.6% skip:38.0% L0:41.8% L1:44.5% BI:13.7%
x264 [info]: 8x8 transform intra:72.3% inter:60.7%
x264 [info]: direct mvs spatial:96.4% temporal:3.6%
x264 [info]: coded y,uvDC,uvAC intra: 83.1% 83.7% 53.9% inter: 20.4% 17.7% 6.2%
x264 [info]: i16 v,h,dc,p: 22% 24% 5% 49%
x264 [info]: i8 v,h,dc,ddl,ddr,vr,hd,vl,hu: 9% 7% 4% 10% 15% 15% 14% 13% 14%
x264 [info]: i4 v,h,dc,ddl,ddr,vr,hd,vl,hu: 13% 9% 5% 9% 14% 14% 12% 11% 12%
x264 [info]: i8c dc,h,v,p: 37% 24% 19% 20%
x264 [info]: Weighted P-Frames: Y:10.5% UV:5.6%
x264 [info]: ref P L0: 48.7% 10.9% 16.6% 6.7% 5.2% 3.9% 3.4% 2.0% 2.0% 0.5% 0.0%
x264 [info]: ref B L0: 79.1% 9.8% 4.6% 2.3% 1.7% 1.4% 0.8% 0.3%
x264 [info]: ref B L1: 93.8% 6.2%
x264 [info]: kb/s:1739.87

x264 [total]: encoded 179472 frames, 6.64 fps, 1739.87 kb/s
GeneralComplete name : D:\Torrents\The Mummy.1999-2008.BDRip.x264.960x\The Mummy.1999.BDRip.x264.960x.rip by Frost O.S.mp4Format : MPEG-4Format profile : Base MediaCodec ID : isomFile size : 1.86 GiBDuration : 2h 4mnOverall bit rate mode : VariableOverall bit rate : 2 139 KbpsMovie name : The Mummy 1999 BDRip x264 960x rip by Frost O SGenre : HorrorContentType : Short FilmEncoded date : UTC 2016-04-03 15:46:41Tagged date : UTC 2016-04-03 15:50:13Writing application : MkvToMp4 version: 0.224 (x64)Cover : YesComment : rip by Frost O.SLongDescription : На бескрайних просторах египетской пустыни компания сорвиголов разных национальностей рыщет в поисках несметных сокровищ фараона, над которыми тяготеет жуткое древнее проклятие. / Рядом с кладом покоится мумия коварного жреца, жестоко казненного за ужасное убийство могущественного правителя Египта. Золотоискатели потревожили многовековой покой гробницы, и мумия встает из могилы, чтобы погрузить мир в царство кошмара…

VideoID : 1Format : AVCFormat/Info : Advanced Video CodecFormat profile : [email protected] settings, CABAC : YesFormat settings, ReFrames : 9 framesCodec ID : avc1Codec ID/Info : Advanced Video CodingDuration : 2h 4mnBit rate : 1 740 KbpsMaximum bit rate : 9 535 KbpsWidth : 960 pixelsHeight : 408 pixelsDisplay aspect ratio : 2.35:1Frame rate mode : ConstantFrame rate : 23.976 fpsColor space : YUVChroma subsampling : 4:2:0Bit depth : 8 bitsScan type : ProgressiveBits/(Pixel*Frame) : 0.185Stream size : 1.52 GiB (81%)Writing library : x264 core 130 r2273 b3065e6Encoding settings : cabac=1 / ref=9 / deblock=1:-3:-3 / analyse=0x3:0x113 / me=umh / subme=11 / psy=1 / psy_rd=1.00:0.00 / mixed_ref=1 / me_range=32 / chroma_me=1 / trellis=2 / 8x8dct=1 / cqm=0 / deadzone=21,11 / fast_pskip=0 / chroma_qp_offset=-2 / threads=3 / lookahead_threads=1 / sliced_threads=0 / nr=0 / decimate=0 / interlaced=0 / bluray_compat=0 / constrained_intra=0 / bframes=8 / b_pyramid=2 / b_adapt=2 / b_bias=0 / direct=3 / weightb=1 / open_gop=0 / weightp=2 / keyint=250 / keyint_min=23 / scenecut=40 / intra_refresh=0 / rc_lookahead=60 / rc=2pass / mbtree=1 / bitrate=1740 / ratetol=1.0 / qcomp=0.60 / qpmin=0 / qpmax=69 / qpstep=4 / cplxblur=20.0 / qblur=0.5 / ip_ratio=1.40 / aq=1:0.80Language : EnglishEncoded date : UTC 2016-04-03 15:46:41Tagged date : UTC 2016-04-03 15:47:34Color primaries : BT.709Transfer characteristics : BT.709Matrix coefficients : BT.709Color range : Limited

Audio #1ID : 2Format : AACFormat/Info : Advanced Audio CodecFormat profile : LCCodec ID : 40Duration : 2h 4mnBit rate mode : VariableBit rate : 128 KbpsMaximum bit rate : 131 KbpsChannel(s) : 2 channelsChannel positions : Front: L RSampling rate : 48.0 KHzCompression mode : LossyStream size : 114 MiB (6%)Title : [MVO] Pervuy kanal / [MVO] Pervuy kanalLanguage : RussianEncoded date : UTC 2016-04-03 15:47:01Tagged date : UTC 2016-04-03 15:47:34

Audio #2ID : 3Format : AACFormat/Info : Advanced Audio CodecFormat profile : LCCodec ID : 40Duration : 2h 4mnBit rate mode : VariableBit rate : 128 KbpsMaximum bit rate : 132 KbpsChannel(s) : 2 channelsChannel positions : Front: L RSampling rate : 48.0 KHzCompression mode : LossyStream size : 114 MiB (6%)Title : [DVO] Universal Channel / [DVO] Universal ChannelLanguage : RussianEncoded date : UTC 2016-04-03 15:47:14Tagged date : UTC 2016-04-03 15:47:34

Audio #3ID : 4Format : AACFormat/Info : Advanced Audio CodecFormat profile : LCCodec ID : 40Duration : 2h 4mnBit rate mode : VariableBit rate : 128 KbpsMaximum bit rate : 133 KbpsChannel(s) : 2 channelsChannel positions : Front: L RSampling rate : 48.0 KHzCompression mode : LossyStream size : 114 MiB (6%)Title : [VO] Kashkin / [VO] KashkinLanguage : RussianEncoded date : UTC 2016-04-03 15:47:22Tagged date : UTC 2016-04-03 15:47:34
Мумия возвращается / The Mummy Returns
«Adventure Is Reborn»

Год выпуска: 2001
Страна: США
Жанр: фэнтези, боевик, триллер, приключения
Продолжительность: 02:09:31
Перевод №1: Профессиональный (многоголосый, закадровый) Первый Канал
Перевод №2: Профессиональный (двухголосый, закадровый) Universal Channel
Перевод №3: Авторский (одноголосый, закадровый) Сергей Визгунов
Cубтитры: нет
Режиссер: Стивен Соммерс / Stephen Sommers
В ролях: Брендан Фрейзер / Brendan Fraser, Рэйчел Вайс / Rachel Weisz, Джон Ханна / John Hannah, Арнольд Вослу / Arnold Vosloo, Одед Фер / Oded Fehr, Патрисия Веласкес / Patricia Velasquez, Фредди Боат / Freddie Boath, Алан Армстронг / Alun Armstrong, Дуэйн Джонсон / Dwayne Johnson, Адевале Акинойе-Агбаже / Adewale Akinnuoye-Agbaje и другие .
Описание: Прошло десять лет… Наш отважный герой, искатель приключений Рик О`Конелл, теперь богат, счастливо женат на прекрасной Эвелин и воспитывает своего восьмилетнего сына Алекса.

Но злой рок не дает очаровательной семье О`Конеллов насладиться спокойной жизнью. Зловещий жрец Имхотеп снова восстал из мертвых! Теперь у Рика, Эвелин и малютки Алекса есть всего семь дней, чтобы спасти мир…
В отличие от принятой традиции название фильма не появляется в начале. Его можно увидеть лишь в конце, после имён исполнителей основных ролей и перед началом основных титров.
Здание, использованное в качестве Британского Музея, на самом деле было одним из строений университета University College London. На момент съёмок Британский музей находился в состоянии реконструкции и был окружён строительными лесами.
Впервые в истории ради съёмок фильма был перекрыт лондонский мост Tower Bridge. Местные власти дали разрешение перекрывать движение только на 20 минут, но даже за этот короткий промежуток пробки на близлежащих улицах города стали настолько огромными, что вызвали многочисленные жалобы и угрозы ареста со стороны полиции. В результате время для перекрытия моста, предоставленное съёмочной группе, было сокращено до 10 минут.
Схватка в особняке О’Коннеллов по первоначальному замыслу должна была происходить в казино, принадлежащем Джонатану, но от этой идеи было решено отказаться из соображений экономии бюджетных средств.
Режиссёр Стивен Соммерс появляется в камео в качестве мужчины, сидящего в ванне на открытом воздухе в нескольких шагах от Иззи, когда к тому с просьбой о помощи обращаются герои.
Персонаж Иззи был назван по имени собаки режиссёра Стивена Соммерса.
Брендан Фрейзер хотел, чтобы семья О’Коннеллов жила бы в обычной городской квартире в Лондоне, но, в конечном счете, их местом жительства стал обширный особняк. Это было сделано для того, чтобы получить больше места для продолжительной схватки.
Ардет Бэй — единственный из всех героев картины, который называет Имхотепа «существо».
Дом, использованный в качестве особняка О’Коннеллов, до этого был задействован как часть библиотеки в оригинальном фильме. Также в нём проходили съёмки картины «Омен» (1976).
Все свои несколько фраз Дуэйн Джонсон (Царь скорпионов) произносит на древнеегипетском языке.
Сиквелу был официально дан зелёный свет на следующий день после премьеры оригинального фильма 7 мая 1999 года.
В сцене, когда герои проходят мимо комнаты, переполненной золотом, одна из статуй представляет собой увеличенную статуэтку Оскара, которая частично скрыта из виду другими предметами.
Отпечатки ладоней в ужасно неопрятном туалете в поезде принадлежат режиссёру Стивену Соммерсу.
Дизайн рукавов платья Анук Су Намун полностью совпадает с раскраской её тёла в прошлой жизни.
Чтобы постоянно поддерживать свой безупречно гладкий безволосый внешний вид, Арнольд Вослу был вынужден дважды в день сбривать волосы на всём своём теле.
Согласно оригинальному сценарию, когда Рик спрашивал у Иззи, что случилось с его аэропланом, тот отвечал, что проиграл его во время игры в покер.
Съёмочный период: 1 мая — 29 сентября 2000 года
Когда Рик и Иви выбегают из музея в погоню за ними бросаются четыре мумии, однако, в последующей схватке герои расправляются только с тремя. Четвёртая по сценарию должна была атаковать Алекса после остановки автобуса, но режиссёр предпочёл вырезать эту сцену, посчитав, что зрители уже насытились экшном с участием мумий и хотят скорее увидеть продолжение истории героев.
Во время съёмок фильма Брендан Фрейзер надорвал спинной диск позвоночника, а также получил трещину ребра и травму коленей. Дуэйн Джонсон пострадал от солнечного удара и пищевого отравления.
Юный Фредди Боат был отчаянным поклонником первого фильма френчайза, выучившим наизусть практически каждую сцену и каждую фразу. Когда кому-либо на съемочной площадке нужно было уточнить какую-нибудь деталь из первого фильма, они задавали вопрос ему и неизменно получали исчерпывающий ответ.
Двое мужчин, охраняющих браслет Анубиса в видении Иви, в реальной жизни являются братьями.
Несмотря на решающую схватку Рика с Царём скорпионов в финале фильма, на момент премьеры Брендан Фрейзер и Дуэйн Джонсон так ни разу и не встретились лицом к лицу.

Перед тем, как двухэтажный автобус достигает моста, он дважды огибает один и тот же угол.
Обратите внимание на зубы Иззи. Они изменяются три раза в течение фильма. В нескольких сценах у него отсутствует пара зубов, потом можно увидеть у него один золотой зуб то с правой стороны, то с левой.
В сцене, где Рик и Джонатан зажаты в ванной, в поместье О`Коннелов, если посмотреть на стеклянное окно перед тем, как они выпрыгивают из него, стекло окна выглядит гладким, но, если поглядеть на него перед самым прыжком, заметно, что всё стекло уже в трещинах.

Релиз группы
Качество: BDRip / рип с Blu-ray CEE 1080p
Формат: MP4
Видео кодек: H.264
Аудио кодек: AAC
Видео: 960x408 AR:2.35 1740 kbps 23.976 fps
Аудио №1: [Russian] 2ch 48 kHz 128 kbps - [MVO] Профессиональный (многоголосый, закадровый) Первый Канал
Аудио №2: [Russian] 2ch 48 kHz 128 kbps - [DVO] Профессиональный (двухголосый, закадровый) Universal Channel
Аудио №3: [Russian] 2ch 48 kHz 128 kbps - [VO] Авторский (одноголосый, закадровый) Сергей Визгунов
avs [info]: 960x408p 1:1 @ 2997/125 fps (cfr)
x264 [info]: using SAR=1/1
x264 [info]: using cpu capabilities: MMX2 SSE2Fast SSSE3 SSE4.2 LZCNT
x264 [info]: profile High, level 4.1

x264 [info]: frame I:1634 Avg QP:16.06 size: 54210
x264 [info]: frame P:47220 Avg QP:20.52 size: 16846
x264 [info]: frame B:137482 Avg QP:22.69 size: 5856
x264 [info]: consecutive B-frames: 3.3% 5.8% 10.1% 34.7% 16.7% 22.5% 3.5% 2.7% 0.6%
x264 [info]: mb I I16..4: 5.5% 74.6% 19.9%
x264 [info]: mb P I16..4: 1.4% 12.1% 1.8% P16..4: 32.2% 35.7% 10.8% 0.0% 0.0% skip: 6.1%
x264 [info]: mb B I16..4: 0.1% 1.9% 0.3% B16..8: 36.4% 19.3% 3.0% direct: 4.2% skip:34.7% L0:42.5% L1:45.7% BI:11.8%
x264 [info]: 8x8 transform intra:79.7% inter:68.3%
x264 [info]: direct mvs spatial:97.0% temporal:3.0%
x264 [info]: coded y,uvDC,uvAC intra: 85.9% 81.0% 47.2% inter: 23.4% 20.4% 5.9%
x264 [info]: i16 v,h,dc,p: 21% 16% 4% 58%
x264 [info]: i8 v,h,dc,ddl,ddr,vr,hd,vl,hu: 10% 6% 4% 10% 15% 15% 14% 13% 13%
x264 [info]: i4 v,h,dc,ddl,ddr,vr,hd,vl,hu: 13% 6% 5% 9% 15% 15% 13% 12% 12%
x264 [info]: i8c dc,h,v,p: 36% 24% 20% 19%
x264 [info]: Weighted P-Frames: Y:8.4% UV:6.0%
x264 [info]: ref P L0: 49.6% 11.4% 16.1% 6.5% 4.9% 3.7% 3.2% 2.0% 2.0% 0.5% 0.0%
x264 [info]: ref B L0: 80.0% 9.3% 4.4% 2.2% 1.6% 1.3% 0.8% 0.3%
x264 [info]: ref B L1: 94.2% 5.8%
x264 [info]: kb/s:1738.70

x264 [total]: encoded 186336 frames, 6.73 fps, 1738.71 kb/s
GeneralComplete name : D:\Torrents\The Mummy.1999-2008.BDRip.x264.960x\The Mummy Returns.2001.BDRip.x264.960x.rip by Frost O.S.mp4Format : MPEG-4Format profile : Base MediaCodec ID : isomFile size : 1.93 GiBDuration : 2h 9mnOverall bit rate mode : VariableOverall bit rate : 2 138 KbpsMovie name : The Mummy Returns 2001 BDRip x264 960x rip by Frost O SGenre : HorrorContentType : Short FilmEncoded date : UTC 2016-04-04 17:21:42Tagged date : UTC 2016-04-04 17:25:24Writing application : MkvToMp4 version: 0.224 (x64)Cover : YesComment : rip by Frost O.SLongDescription : Заколдованный волшебницей, безжалостный китайский император-дракон должен провести вечность в забвении. Его 10 000 воинов превратились в терракотовых воинов. Однако когда искатель приключений Алекс О`Коннелл случайно пробуждает властителя от вечной спячки, он вынужден искать помощи у единственных людей, которые знают, как справиться с воскресшими мертвецами: у своих родителей. Монарх возвращается к жизни, и наши герои понимают, что его сила за эту тысячу лет только увеличилась. Мумия готова поднять всю Азию в борьбе за мировое господство… если О`Коннеллы ее не остановят.

VideoID : 1Format : AVCFormat/Info : Advanced Video CodecFormat profile : [email protected] settings, CABAC : YesFormat settings, ReFrames : 9 framesCodec ID : avc1Codec ID/Info : Advanced Video CodingDuration : 2h 9mnBit rate : 1 740 KbpsMaximum bit rate : 11.0 MbpsWidth : 960 pixelsHeight : 408 pixelsDisplay aspect ratio : 2.35:1Frame rate mode : ConstantFrame rate : 23.976 fpsColor space : YUVChroma subsampling : 4:2:0Bit depth : 8 bitsScan type : ProgressiveBits/(Pixel*Frame) : 0.185Stream size : 1.57 GiB (81%)Writing library : x264 core 130 r2273 b3065e6Encoding settings : cabac=1 / ref=9 / deblock=1:-3:-3 / analyse=0x3:0x113 / me=umh / subme=11 / psy=1 / psy_rd=1.00:0.00 / mixed_ref=1 / me_range=32 / chroma_me=1 / trellis=2 / 8x8dct=1 / cqm=0 / deadzone=21,11 / fast_pskip=0 / chroma_qp_offset=-2 / threads=3 / lookahead_threads=1 / sliced_threads=0 / nr=0 / decimate=0 / interlaced=0 / bluray_compat=0 / constrained_intra=0 / bframes=8 / b_pyramid=2 / b_adapt=2 / b_bias=0 / direct=3 / weightb=1 / open_gop=0 / weightp=2 / keyint=250 / keyint_min=23 / scenecut=40 / intra_refresh=0 / rc_lookahead=60 / rc=2pass / mbtree=1 / bitrate=1740 / ratetol=1.0 / qcomp=0.60 / qpmin=0 / qpmax=69 / qpstep=4 / cplxblur=20.0 / qblur=0.5 / ip_ratio=1.40 / aq=1:0.90 / zones=6857,70744,b=1.2/70883,72230,b=1.2/72421,80453,b=1.2/86878,91493,b=1.2/93390,93577,b=1.2/93737,94127,b=1.2/94936,96751,b=1.2/102710,107176,b=1.2/119207,136574,b=1.2/140207,143046,b=1.2/144516,147352,b=1.2/147363,150585,b=1.2/151508,152686,b=1.2/152914,154010,b=1.2/154366,158905,b=1.2/160180,161746,b=1.2/162259,163077,b=1.2/163190,164242,b=1.2/164511,164894,b=1.2/164983,165169,b=1.2/166390,169743,b=1.2/175163,186336,q=35Language : EnglishEncoded date : UTC 2016-04-04 17:21:42Tagged date : UTC 2016-04-04 17:22:29Color primaries : BT.709Transfer characteristics : BT.709Matrix coefficients : BT.709Color range : Limited

Audio #1ID : 2Format : AACFormat/Info : Advanced Audio CodecFormat profile : LCCodec ID : 40Duration : 2h 9mnBit rate mode : VariableBit rate : 128 KbpsMaximum bit rate : 135 KbpsChannel(s) : 2 channelsChannel positions : Front: L RSampling rate : 48.0 KHzCompression mode : LossyStream size : 119 MiB (6%)Title : [MVO] Pervuy kanal / [MVO] Pervuy kanalLanguage : RussianEncoded date : UTC 2016-04-04 17:22:01Tagged date : UTC 2016-04-04 17:22:29

Audio #2ID : 3Format : AACFormat/Info : Advanced Audio CodecFormat profile : LCCodec ID : 40Duration : 2h 9mnBit rate mode : VariableBit rate : 128 KbpsMaximum bit rate : 135 KbpsChannel(s) : 2 channelsChannel positions : Front: L RSampling rate : 48.0 KHzCompression mode : LossyStream size : 119 MiB (6%)Title : [DVO] Universal Channel / [DVO] Universal ChannelLanguage : RussianEncoded date : UTC 2016-04-04 17:22:04Tagged date : UTC 2016-04-04 17:22:29

Audio #3ID : 4Format : AACFormat/Info : Advanced Audio CodecFormat profile : LCCodec ID : 40Duration : 2h 9mnBit rate mode : VariableBit rate : 128 KbpsMaximum bit rate : 135 KbpsChannel(s) : 2 channelsChannel positions : Front: L RSampling rate : 48.0 KHzCompression mode : LossyStream size : 119 MiB (6%)Title : [VO] Vizgunov / [VO] VizgunovLanguage : RussianEncoded date : UTC 2016-04-04 17:22:18Tagged date : UTC 2016-04-04 17:22:29
Мумия: Гробница Императора Драконов / The Mummy: Tomb of the Dragon Emperor
«Приключение, неподвластное времени»

Год выпуска: 2008
Страна: США, Китай, Германия, Канада
Жанр: фэнтези, боевик, триллер, приключения
Продолжительность: 01:51:40
Аудио №1: Профессиональный (полное дублирование)
Аудио №2: Авторский (одноголосый, закадровый) Королёв
Аудио №3: Авторский (одноголосый, закадровый) Гаврилов
Cубтитры: нет
Режиссер: Роб Коэн / Rob Cohen
В ролях: Брендан Фрейзер / Brendan Fraser, Джет Ли / Jet Li, Мария Белло / Maria Bello, Джон Ханна / John Hannah, Мишель Йео / Michelle Yeoh, Люк Форд / Luke Ford, Изабелла Люн / Isabella Leong, Энтони Вонг Чау Санг / Anthony Wong Chau Sang, Расселл Вонг / Russell Wong и другие .
Описание: Заколдованный волшебницей, безжалостный китайский император-дракон должен провести вечность в забвении. Его 10 000 воинов превратились в терракотовых воинов. Однако когда искатель приключений Алекс О`Коннелл случайно пробуждает властителя от вечной спячки, он вынужден искать помощи у единственных людей, которые знают, как справиться с воскресшими мертвецами: у своих родителей.

Монарх возвращается к жизни, и наши герои понимают, что его сила за эту тысячу лет только увеличилась. Мумия готова поднять всю Азию в борьбе за мировое господство… если О`Коннеллы ее не остановят.
Гробница Императора Драконов с его Терракотовыми воинами, происходит из реально существующей гробницы первого императора династии Цинь. Мавзолей расположен в Сиань (Китай).
Рейчел Вайс отказалась играть роль жены О`Коннела из-за плотного рабочего графика и её заменила Мария Белло.

Релиз группы
Качество: BDRip / рип с Blu-ray CEE 1080p
Формат: MP4
Видео кодек: H.264
Аудио кодек: AAC
Видео: 960x400 AR:2.40 1740 kbps 23.976 fps
Аудио №1: [Russian] 2ch 48 kHz 128 kbps - [Dub] Профессиональный (полное дублирование)
Аудио №2: [Russian] 2ch 48 kHz 128 kbps - [VO] Авторский (одноголосый, закадровый) Королёв
Аудио №3: [Russian] 2ch 48 kHz 128 kbps - [VO] Авторский (одноголосый, закадровый) Гаврилов
avs [info]: 960x400p 1:1 @ 2997/125 fps (cfr)
x264 [info]: using SAR=1/1
x264 [info]: using cpu capabilities: MMX2 SSE2Fast SSSE3 SSE4.2 LZCNT
x264 [info]: profile High, level 4.1

x264 [info]: frame I:1538 Avg QP:18.04 size: 61825
x264 [info]: frame P:42772 Avg QP:22.98 size: 16267
x264 [info]: frame B:116338 Avg QP:24.80 size: 5699
x264 [info]: consecutive B-frames: 4.9% 6.2% 13.6% 25.7% 17.2% 24.7% 4.9% 2.7%
x264 [info]: mb I I16..4: 8.6% 66.2% 25.2%
x264 [info]: mb P I16..4: 1.4% 12.0% 1.9% P16..4: 32.5% 33.1% 9.7% 0.0% 0.0% skip: 9.4%
x264 [info]: mb B I16..4: 0.1% 2.1% 0.3% B16..8: 35.4% 16.6% 2.7% direct: 3.9% skip:38.9% L0:43.6% L1:45.7% BI:10.7%
x264 [info]: 8x8 transform intra:77.8% inter:66.3%
x264 [info]: direct mvs spatial:95.9% temporal:4.1%
x264 [info]: coded y,uvDC,uvAC intra: 84.0% 70.9% 38.1% inter: 23.2% 14.5% 4.7%
x264 [info]: i16 v,h,dc,p: 24% 16% 6% 54%
x264 [info]: i8 v,h,dc,ddl,ddr,vr,hd,vl,hu: 6% 6% 4% 11% 17% 15% 16% 12% 13%
x264 [info]: i4 v,h,dc,ddl,ddr,vr,hd,vl,hu: 8% 6% 6% 9% 16% 15% 15% 11% 13%
x264 [info]: i8c dc,h,v,p: 37% 25% 18% 20%
x264 [info]: Weighted P-Frames: Y:5.5% UV:2.2%
x264 [info]: ref P L0: 50.2% 12.1% 15.8% 6.3% 4.6% 3.6% 3.0% 1.9% 1.8% 0.5% 0.0%
x264 [info]: ref B L0: 77.4% 10.5% 5.4% 2.4% 1.8% 1.4% 0.8% 0.3%
x264 [info]: ref B L1: 92.9% 7.1%
x264 [info]: kb/s:1735.85

x264 [total]: encoded 160648 frames, 6.33 fps, 1735.85 kb/s
GeneralComplete name : D:\Torrents\The Mummy.1999-2008.BDRip.x264.960x\The Mummy Tomb of the Dragon Emperor.2008.BDRip.x264.960x.rip by Frost O.S.mp4Format : MPEG-4Format profile : Base MediaCodec ID : isomFile size : 1.67 GiBDuration : 1h 51mnOverall bit rate mode : VariableOverall bit rate : 2 135 KbpsMovie name : The Mummy Tomb of the Dragon Emperor 2008 BDRip x264 960x rip by Frost O SGenre : HorrorContentType : Short FilmEncoded date : UTC 2016-04-05 18:02:15Tagged date : UTC 2016-04-05 18:04:23Writing application : MkvToMp4 version: 0.224 (x64)Cover : YesComment : rip by Frost O.SLongDescription : Заколдованный волшебницей, безжалостный китайский император-дракон должен провести вечность в забвении. Его 10 000 воинов превратились в терракотовых воинов. Однако когда искатель приключений Алекс О`Коннелл случайно пробуждает властителя от вечной спячки, он вынужден искать помощи у единственных людей, которые знают, как справиться с воскресшими мертвецами: у своих родителей. / Монарх возвращается к жизни, и наши герои понимают, что его сила за эту тысячу лет только увеличилась. Мумия готова поднять всю Азию в борьбе за мировое господство… если О`Коннеллы ее не остановят.

VideoID : 1Format : AVCFormat/Info : Advanced Video CodecFormat profile : [email protected] settings, CABAC : YesFormat settings, ReFrames : 9 framesCodec ID : avc1Codec ID/Info : Advanced Video CodingDuration : 1h 51mnBit rate : 1 740 KbpsMaximum bit rate : 13.9 MbpsWidth : 960 pixelsHeight : 400 pixelsDisplay aspect ratio : 2.40:1Frame rate mode : ConstantFrame rate : 23.976 fpsColor space : YUVChroma subsampling : 4:2:0Bit depth : 8 bitsScan type : ProgressiveBits/(Pixel*Frame) : 0.189Stream size : 1.35 GiB (81%)Writing library : x264 core 130 r2273 b3065e6Encoding settings : cabac=1 / ref=9 / deblock=1:-3:-3 / analyse=0x3:0x113 / me=umh / subme=11 / psy=1 / psy_rd=0.90:0.00 / mixed_ref=1 / me_range=32 / chroma_me=1 / trellis=2 / 8x8dct=1 / cqm=0 / deadzone=21,11 / fast_pskip=0 / chroma_qp_offset=-2 / threads=3 / lookahead_threads=1 / sliced_threads=0 / nr=0 / decimate=0 / interlaced=0 / bluray_compat=0 / constrained_intra=0 / bframes=7 / b_pyramid=2 / b_adapt=2 / b_bias=0 / direct=3 / weightb=1 / open_gop=0 / weightp=2 / keyint=250 / keyint_min=23 / scenecut=40 / intra_refresh=0 / rc_lookahead=60 / rc=2pass / mbtree=1 / bitrate=1740 / ratetol=1.0 / qcomp=0.60 / qpmin=0 / qpmax=69 / qpstep=4 / cplxblur=20.0 / qblur=0.5 / ip_ratio=1.40 / aq=1:0.90 / zones=0,4317,b=1.5/4915,10297,b=1.5/10415,11105,b=1.5/11191,11234,b=1.5/11367,11546,b=1.5/11645,13098,b=1.5/13173,13634,b=1.5/15601,20483,b=1.5/22626,45624,b=1.5/46324,73401,b=1.5/75035,75086,b=1.5/75169,75449,b=1.5/75516,76961,b=1.5/78646,82657,b=1.5/102472,116519,b=1.5/137524,143310,b=1.5/143703,145982,b=1.5/145983,160648,q=35Language : EnglishEncoded date : UTC 2016-04-05 18:02:15Tagged date : UTC 2016-04-05 18:02:58Color primaries : BT.709Transfer characteristics : BT.709Matrix coefficients : BT.709Color range : Limited

Audio #1ID : 2Format : AACFormat/Info : Advanced Audio CodecFormat profile : LCCodec ID : 40Duration : 1h 51mnBit rate mode : VariableBit rate : 128 KbpsMaximum bit rate : 135 KbpsChannel(s) : 2 channelsChannel positions : Front: L RSampling rate : 48.0 KHzCompression mode : LossyStream size : 102 MiB (6%)Title : [Dub] / [Dub]Language : RussianEncoded date : UTC 2016-04-05 18:02:30Tagged date : UTC 2016-04-05 18:02:58

Audio #2ID : 3Format : AACFormat/Info : Advanced Audio CodecFormat profile : LCCodec ID : 40Duration : 1h 51mnBit rate mode : VariableBit rate : 128 KbpsMaximum bit rate : 135 KbpsChannel(s) : 2 channelsChannel positions : Front: L RSampling rate : 48.0 KHzCompression mode : LossyStream size : 102 MiB (6%)Title : [VO] Korolev / [VO] KorolevLanguage : RussianEncoded date : UTC 2016-04-05 18:02:43Tagged date : UTC 2016-04-05 18:02:58

Audio #3ID : 4Format : AACFormat/Info : Advanced Audio CodecFormat profile : LCCodec ID : 40Duration : 1h 51mnBit rate mode : VariableBit rate : 128 KbpsMaximum bit rate : 135 KbpsChannel(s) : 2 channelsChannel positions : Front: L RSampling rate : 48.0 KHzCompression mode : LossyStream size : 102 MiB (6%)Title : [VO] Gavrilov / [VO] GavrilovLanguage : RussianEncoded date : UTC 2016-04-05 18:02:50Tagged date : UTC 2016-04-05 18:02:58


Трекер:  [ 06-Апр-2016 08:30 ]

  

Скачать .torrent

Размер .torrent файла 28 KB


Размер: 5.46 GB
Хэш (hash) релиза: bddc5413fceaa8ae8f5270624efd9b7602a08b91

Еще никто не оставлял запись к записи скачать торрент [VIDEO] Мумия: Трилогия The Mummy: Trilogy . Будь первым!

!Обратная связь