Cupido HDTV | Drama (368) | Final Space

Скачать через торрент [VIDEO] Артиска бесплатно русская версия torrent активатор

Статистика раздачи
Размер:  855 MB   |    Зарегистрирован:  2 года 3 месяца   |    .torrent скачан:  21 раз   |   
Раздают:  1  
   
загрузка...
 
Автор Сообщение

Galfimbul

avatar Galfimbul


Артиска

Год выпуска: 2007
Страна: Россия
Жанр: драма, комедия
Продолжительность: 01:36:10

Режиссер: Станислав Говорухин
Автор сценария: Валерий Мухарьямов
Оператор: Валерий Мюльгаут
Композитор: Евгений Дога
Продюсер: Екатерина Маскина
Художник: Валентин Гидулянов
Монтаж: Вера Круглова

В ролях: Евгения Добровольская, Мария Аронова, Юрий Степанов, Дмитрий Певцов, Александр Абдулов, Михаил Ефремов, Фёдор Бондарчук, Евгений Косырев, Евгений Косырев, Юлия Ауг, Дмитрий Мазуров, Ольга Стрелецкая, Юлия Галкина, Варвара Шулятьева, Марина Аксенова, Оксана Скоропад, Юрий Яфаев, Анжелика Волчкова, Ирина Скобцева, Кира Головко, Светлана Немоляева

Описание: Главная героиня Анечка (Евгения Добровольская) чем-то напоминает американскую комедийную героиню Бриджит Джонс - ей тоже немного за тридцать, она разведена, живет в крошечной комнатушке в общежитии. Актриса по призванию, она страдает от неудач, которые сыплются на нее градом. Аня мечтает получить роль королевы Гертруды в спектакле "Гамлет", но на эту роль активно претендует престарелая прима. В кино у нее тоже ничего не получается. Считая себя никудышной и дойдя до отчаяния, Аня уже готова на радикальные меры. К счастью, от этого ее спасает подруга Муся (Мария Аронова). Веселая и ироничная Муся поддерживает Аню и периодически сватает ее за кого-нибудь.

Качество: DVDRip |<a href="viewtopic.php?t=396301" class="postLink">DVD9</a>|
Формат: MP4

Видео: 600x360, [email protected], AR:1.66, 1080 kbps, 25.000 fps, 0.200 bpp
Аудио: 2ch, 48 kHz, 160 kbps
Cубтитры: русские

[b]Релиз:

</a></span></span>
ОбщееУникальный идентификатор : 238949820149972413229669784610650927116 (0xB3C40FB6D081F9DB96D77D743A73300C)Полное имя : ...\[email protected]Формат : MatroskaВерсия формата : Version 4 / Version 2Размер файла : 855 МбайтПродолжительность : 1 ч. 36 м.Общий поток : 1242 Кбит/секНазвание фильма : Артистка / 2007 [email protected]=-Дата кодирования : UTC 2016-04-03 14:58:07Программа кодирования : mkvmerge v9.0.1 ('Obstacles') 64bitБиблиотека кодирования : libebml v1.3.3 + libmatroska v1.4.4

ВидеоИдентификатор : 1Формат : AVCФормат/Информация : Advanced Video CodecПрофиль формата : [email protected]Параметр CABAC формата : ДаПараметр ReFrames формата : 8 кадровИдентификатор кодека : V_MPEG4/ISO/AVCПродолжительность : 1 ч. 36 м.Битрейт : 1080 Кбит/секШирина : 600 пикселейВысота : 360 пикселейСоотношение сторон : 5:3Режим частоты кадров : ПостоянныйЧастота кадров : 25,000 кадров/секЦветовое пространство : YUVСубдискретизация насыщенности : 4:2:0Битовая глубина : 8 битТип развёртки : ПрогрессивнаяБит/(Пиксели*Кадры) : 0.200Размер потока : 743 Мбайт (87%)Заголовок : Rip by nnlabetikБиблиотека кодирования : x264 core 146 r2538 121396cНастройки программы : cabac=1 / ref=8 / deblock=1:-2:-1 / analyse=0x3:0x113 / me=umh / subme=11 / psy=1 / psy_rd=1.00:0.00 / mixed_ref=1 / me_range=32 / chroma_me=1 / trellis=2 / 8x8dct=1 / cqm=0 / deadzone=21,11 / fast_pskip=0 / chroma_qp_offset=-2 / threads=4 / lookahead_threads=1 / sliced_threads=0 / nr=0 / decimate=1 / interlaced=0 / bluray_compat=0 / constrained_intra=0 / bframes=10 / b_pyramid=2 / b_adapt=2 / b_bias=0 / direct=3 / weightb=1 / open_gop=0 / weightp=0 / keyint=250 / keyint_min=25 / scenecut=40 / intra_refresh=0 / rc_lookahead=60 / rc=2pass / mbtree=1 / bitrate=1080 / ratetol=1.0 / qcomp=0.60 / qpmin=0 / qpmax=69 / qpstep=4 / cplxblur=20.0 / qblur=0.5 / vbv_maxrate=14000 / vbv_bufsize=14000 / nal_hrd=none / filler=0 / ip_ratio=1.35 / aq=1:1.00Язык : RussianDefault : ДаForced : НетЦветовой диапазон : LimitedОсновные цвета : BT.709Характеристики трансфера : BT.709Коэффициенты матрицы : BT.709

АудиоИдентификатор : 2Формат : AACФормат/Информация : Advanced Audio CodecПрофиль формата : LCИдентификатор кодека : A_AACПродолжительность : 1 ч. 36 м.Битрейт : 160 Кбит/секКаналы : 2 каналаРасположение каналов : Front: L RЧастота : 48,0 КГцЧастота кадров : 46,875 кадров/сек (1024 spf)Метод сжатия : С потерямиРазмер потока : 110 Мбайт (13%)Язык : RussianDefault : ДаForced : Нет

ТекстИдентификатор : 3Формат : UTF-8Идентификатор кодека : S_TEXT/UTF8Идентификатор кодека/Информация : UTF-8 Plain TextПродолжительность : 1 ч. 33 м.Битрейт : 141 бит/секCount of elements : 1205Размер потока : 97,1 Кбайт (0%)Язык : RussianDefault : НетForced : Нет

Меню00:00:00.000 : :Chapter 0100:08:15.760 : :Chapter 0200:16:35.680 : :Chapter 0300:24:51.280 : :Chapter 0400:30:26.560 : :Chapter 0500:45:40.000 : :Chapter 0600:52:52.120 : :Chapter 0701:01:28.240 : :Chapter 0801:09:45.640 : :Chapter 0901:18:15.280 : :Chapter 1001:26:55.360 : :Chapter 1101:34:43.360 : :Chapter 1201:36:09.280 : :Chapter 1301:36:09.760 : :Chapter 14


Трекер:  [ 03-Апр-2016 21:00 ]

  

Скачать .torrent

Размер .torrent файла 17 KB


Размер: 855 MB
Хэш (hash) релиза: 9d259e5312408c3012bb081877fb35297cab2af0

Еще никто не оставлял запись к записи скачать торрент [VIDEO] Артиска . Будь первым!

!Обратная связь