Bad Santa en Streaming | Templates | Duffy - BBC One Sessions.

Скачать через торрент [SERIAL] Пространство The Expanse бесплатно русская версия torrent активатор

Статистика раздачи
Размер:  1.65 GB   |    Зарегистрирован:  2 года 3 месяца   |    .torrent скачан:  67 раз   |   
Раздают:  1  
   
загрузка...
 
Автор Сообщение

Galfimbul

avatar Galfimbul


Пространство / The Expanse

Год выпуска: 2015
Страна: США
Жанр: Фантастика, триллер, драма, детектив

Продолжительность: ~ 00:45:00 серия
Перевод: Профессиональный (многоголосый закадровый) LostFilm
Cубтитры: нет

Режиссер: Роберт Либерман, Терри МакДонаф
В ролях: Шоре Агдашлу, Кэс Анвар, Уэс Чэтэм, Томас Джейн, Стивен Стрейт, Илайс Туфексис, Джейн Моффат, Сара Митич, Майкл Мюррей, Джо Делфин и др.

Описание: Через двести лет от дня сегодняшнего некий сыщик, привыкший всё доводить до конца при любых обстоятельствах, в рамках расследования дела об исчезновении молодой женщины оказывается на борту звездолета, капитан которого решает помочь детективу в его непростом деле. Величайший заговор в истории человечества гарантируется, как и его непременное раскрытие.



Качество: WEB-DLRip
Формат: MP4
Видео: AVC, 480x272, 420 kbps, 23,976 fps
Аудио: AAC, 2 ch, 48,0 khz, 128 kbps

Рип от: Egorijj.Alien
Релиз от:
GeneralНазвание : E:\Видео\mp4 480\The Expanse\Season 01\The.Expanse.S01E01.mp4Формат : MPEG-4Формат profile : Base MediaКодек ID : isomРазмер файла : 177 MiBДлительность : 44mn 47sОбщий Битрейт mode : VariableОбщий Битрейт : 552 KbpsEncoded date : UTC 2016-04-02 15:40:56Tagged date : UTC 2016-04-02 15:40:56

VideoID : 1Формат : AVCФормат/Info : Advanced Video КодекФормат profile : [email protected]Формат настройки, CABAC : YesФормат настройки, ReFrames : 7 framesКодек ID : avc1Кодек ID/Info : Advanced Video CodingДлительность : 44mn 47sБитрейт : 420 KbpsMaximum Битрейт : 2 210 KbpsWidth : 480 пикселейВысота : 272 пикселейСоотношение кадра : 16:9Частота кадров mode : ConstantЧастота кадров : 23.976 fpsЦветопередача : YUVChroma subsampling : 4:2:0Разрядность : 8 bitsТип сканирования : ProgressiveBits/(Pixel*Frame) : 0.134Размер потока : 135 MiB (76%)Writing library : x264 core 130 r2273 b3065e6Encoding настройки : cabac=1 / ref=7 / deblock=1:-1:-1 / analyse=0x3:0x133 / me=umh / subme=8 / psy=1 / psy_rd=1.00:0.10 / mixed_ref=1 / me_range=24 / chroma_me=1 / trellis=2 / 8x8dct=1 / cqm=0 / deadzone=21,11 / fast_pskip=0 / chroma_qp_offset=-3 / threads=3 / lookahead_threads=1 / sliced_threads=0 / nr=0 / decimate=1 / interlaced=0 / bluray_compat=0 / constrained_intra=0 / bframes=7 / b_pyramid=2 / b_adapt=2 / b_bias=0 / direct=3 / weightb=1 / open_gop=0 / weightp=2 / keyint=250 / keyint_min=23 / scenecut=40 / intra_refresh=0 / rc_lookahead=50 / rc=2pass / mbtree=1 / bitrate=420 / ratetol=1.0 / qcomp=0.60 / qpmin=0 / qpmax=69 / qpstep=4 / cplxblur=20.0 / qblur=0.5 / ip_ratio=1.40 / aq=1:1.00Encoded date : UTC 2016-04-02 15:40:56Tagged date : UTC 2016-04-02 15:41:09

AudioID : 2Формат : AACФормат/Info : Advanced Audio КодекФормат profile : LCКодек ID : 40Длительность : 44mn 47sБитрейт mode : VariableБитрейт : 128 KbpsMaximum Битрейт : 138 KbpsChannel(s) : 2 каналаChannel positions : Front: L RЧастота : 48.0 KHzРежим сжатия : LossyРазмер потока : 41.0 MiB (23%)Encoded date : UTC 2016-04-02 15:41:07Tagged date : UTC 2016-04-02 15:41:09


Трекер:  [ 03-Апр-2016 17:00 ]

  

Скачать .torrent

Размер .torrent файла 17 KB


Размер: 1.65 GB
Хэш (hash) релиза: dfa9f8e26c27b15a7bc7716f5de7ba1877c2a059

Еще никто не оставлял запись к записи скачать торрент [SERIAL] Пространство The Expanse . Будь первым!

!Обратная связь