Grenadier | film de George Lucas | Kang Chen

Скачать через торрент музыку Люпен III бесплатно без регистрации torrent

Статистика раздачи
Размер:  303 MB   |    Зарегистрирован:  2 года 3 месяца   |    .torrent скачан:  18 раз   |   
Раздают:  1  
   
загрузка...
 
Автор Сообщение

Galfimbul

avatar Galfimbul


Lupin The Third TV ORIGINAL BGM COLLECTION
Music From The Original Motion Picture Soundtrack Score

.

Название альбома: Lupin The Third TV ORIGINAL BGM COLLECTION
Композитор: Takeo Yamashita, Toru Yamashita, Izumi Yamashita
Жанр: Jazz-funk, Soul
Носитель: CD
Страна-производитель диска (релиза): Япония
Год издания: 1988
Издатель (лейбл): Nippon Columbia
Номер по каталогу: 28CC-2291
Аудиокодек: FLAC (*.flac)
Тип рипа: tracks+.cue
Битрейт аудио: lossless
Продолжительность: 49:29
Источник (релизер): огромная благодарность Okuzki
Наличие сканов в содержимом раздачи: без сканов
.

Треклист:

01 Lupin III Part I - Opening Theme (Full Size) 2:29
02 Moody Theme - ''Lupin III Part II'' 1:35
03 Afro Rock Theme 1:49
04 Japanese Tone of Lupin 4:06
05 Gallop Samba 2:00
06 Disco Plays Lupin 3:12
07 Scat Theme 1:17
08 Rock Theme No.1 4:35
09 Two-beat Rock - ''Lupin III Part II'' 3:05
10 Slow Ballad - ''Lupin III Part I'' 2:00
11 Dexy Rock March 1:39
12 A Touch of Japanese Tone 4:22
13 Shuffle Rock - Lupin Walkin' 2:38
14 Medium Samba 3:12
15 Afro ''Lupin '68'' 1:40
16 Samba Crazy 2:06
17 Nice Guy Lupin - Two Beat 1:04
18 Slow Samba 2:50
19 Lupin III Part II - Ending Theme (Full Size) 3:50

Стафф:

Composed and conducted by Takeo Yamashita
Composed by Toru Yamashita, arranged by Toru Yamashita and Izumi Yamashita

Electric Guitar Yuji Karaki & Youichi Tamura
Electric Bass Ken Sato
Electric Piano & Synthesizer Susumu Hashimoto
Synthesizer Toru Yamashita
Piano Shigeki Ikeno
Drums Taketoshi Igarashi
Percussion Nobuo Horiuchi, Ikeda Kiyonori & Haruo Tsuno
Flute, Soprano Sax, Alto Sax Shigeo Suzuki
Trumpet Masanobu Arao
Trombone Yasushi Harada
Vibraphone Koichi Uchida
Bamboo-flute Minoru Muraoka
Strings Kikuko Kobayashi Group
Vocal Charley Corsey, Yoshiro Hiroishi, Kayoko Isyu, Singers Three
Exact Audio Copy V1.1 from 23. June 2015

EAC extraction logfile from 22. March 2016, 0:54

Various Artists / Lupin The Third TV Original BGM Collection - Music From the Original Motion Picture Soundtrack Score

Used drive : hp DVD RAM UJ8C2 Adapter: 1 ID: 0

Read mode : SecureUtilize accurate stream : YesDefeat audio cache : YesMake use of C2 pointers : No

Read offset correction : 103Overread into Lead-In and Lead-Out : NoFill up missing offset samples with silence : YesDelete leading and trailing silent blocks : NoNull samples used in CRC calculations : YesUsed interface : Native Win32 interface for Win NT & 2000Gap handling : Appended to previous track

Used output format : User Defined EncoderSelected bitrate : 1024 kBit/sQuality : HighAdd ID3 tag : NoCommand line compressor : C:\Program Files (x86)\Exact Audio Copy\Flac\flac.exeAdditional command line options : -8 -e -V -T "ARTIST=%artist%" -T "TITLE=%title%" -T "ALBUM=%albumtitle%" -T "DATE=%year%" -T "TRACKNUMBER=%tracknr1%" -T "GENRE=%genre%" -T "PERFORMER=%albuminterpret%" -T "COMPOSER=%composer%" %haslyrics%--tag-from-file=LYRICS="%lyricsfile%"%haslyrics% -T "ALBUMARTIST=%albumartist%" -T "DISCNUMBER=%cdnumber%" -T "TOTALDISCS=%totalcds%" -T "TOTALTRACKS=%numtracks%" -T "COMMENT=%comment%" %source% -o %dest%

TOC of the extracted CD

Track | Start | Length | Start sector | End sector --------------------------------------------------------- 1 | 0:00.00 | 2:28.48 | 0 | 11147 2 | 2:28.48 | 1:34.55 | 11148 | 18252 3 | 4:03.28 | 1:48.60 | 18253 | 26412 4 | 5:52.13 | 4:06.05 | 26413 | 44867 5 | 9:58.18 | 1:59.72 | 44868 | 53864 6 | 11:58.15 | 3:12.08 | 53865 | 68272 7 | 15:10.23 | 1:17.20 | 68273 | 74067 8 | 16:27.43 | 4:34.60 | 74068 | 94677 9 | 21:02.28 | 3:04.65 | 94678 | 108542 10 | 24:07.18 | 2:00.37 | 108543 | 117579 11 | 26:07.55 | 1:39.20 | 117580 | 125024 12 | 27:47.00 | 4:21.58 | 125025 | 144657 13 | 32:08.58 | 2:37.42 | 144658 | 156474 14 | 34:46.25 | 3:12.28 | 156475 | 170902 15 | 37:58.53 | 1:39.62 | 170903 | 178389 16 | 39:38.40 | 2:05.70 | 178390 | 187834 17 | 41:44.35 | 1:04.35 | 187835 | 192669 18 | 42:48.70 | 2:50.20 | 192670 | 205439 19 | 45:39.15 | 3:49.68 | 205440 | 222682

Track 1

Filename C:\EAC\Lupin The Third TV Original BGM Collection - Music From the Original Motion Picture Soundtrack Score (1988) [FLAC] {Soundtrack}\01 - Charlie Corsey - Lupin III Part I - Opening Theme (Full Size).wav

Pre-gap length 0:00:02.00

Peak level 87.2 % Extraction speed 2.3 X Track quality 100.0 % Test CRC 6E395F52 Copy CRC 6E395F52 Accurately ripped (confidence 1) [3493648F] (AR v2) Copy OK

Track 2

Filename C:\EAC\Lupin The Third TV Original BGM Collection - Music From the Original Motion Picture Soundtrack Score (1988) [FLAC] {Soundtrack}\02 - Toru Yamashita and Izumi Yamashita - Moody Theme - ''Lupin III Part II''.wav

Pre-gap length 0:00:01.24

Peak level 92.7 % Extraction speed 2.1 X Track quality 100.0 % Test CRC 89D73368 Copy CRC 89D73368 Accurately ripped (confidence 1) [F051D500] (AR v2) Copy OK

Track 3

Filename C:\EAC\Lupin The Third TV Original BGM Collection - Music From the Original Motion Picture Soundtrack Score (1988) [FLAC] {Soundtrack}\03 - Toru Yamashita and Izumi Yamashita - Afro Rock Theme.wav

Peak level 93.4 % Extraction speed 2.3 X Track quality 100.0 % Test CRC 78B8658E Copy CRC 78B8658E Accurately ripped (confidence 1) [86D3A2CA] (AR v2) Copy OK

Track 4

Filename C:\EAC\Lupin The Third TV Original BGM Collection - Music From the Original Motion Picture Soundtrack Score (1988) [FLAC] {Soundtrack}\04 - Toru Yamashita and Izumi Yamashita - Japanese Tone of Lupin.wav

Peak level 89.9 % Extraction speed 2.9 X Track quality 100.0 % Test CRC 1BCE8CC9 Copy CRC 1BCE8CC9 Accurately ripped (confidence 1) [228D763A] (AR v2) Copy OK

Track 5

Filename C:\EAC\Lupin The Third TV Original BGM Collection - Music From the Original Motion Picture Soundtrack Score (1988) [FLAC] {Soundtrack}\05 - Toru Yamashita and Izumi Yamashita - Gallop Samba.wav

Peak level 98.7 % Extraction speed 2.6 X Track quality 100.0 % Test CRC 6ED3CBDF Copy CRC 6ED3CBDF Accurately ripped (confidence 1) [F4862D51] (AR v2) Copy OK

Track 6

Filename C:\EAC\Lupin The Third TV Original BGM Collection - Music From the Original Motion Picture Soundtrack Score (1988) [FLAC] {Soundtrack}\06 - Toru Yamashita and Izumi Yamashita - Disco Plays Lupin.wav

Peak level 99.9 % Extraction speed 3.1 X Track quality 100.0 % Test CRC FF3FAD1F Copy CRC FF3FAD1F Accurately ripped (confidence 1) [FCA56A25] (AR v2) Copy OK

Track 7

Filename C:\EAC\Lupin The Third TV Original BGM Collection - Music From the Original Motion Picture Soundtrack Score (1988) [FLAC] {Soundtrack}\07 - Toru Yamashita and Izumi Yamashita - Scat Theme.wav

Peak level 77.1 % Extraction speed 2.5 X Track quality 100.0 % Test CRC 0D4ED0A1 Copy CRC 0D4ED0A1 Accurately ripped (confidence 1) [A4998C12] (AR v2) Copy OK

Track 8

Filename C:\EAC\Lupin The Third TV Original BGM Collection - Music From the Original Motion Picture Soundtrack Score (1988) [FLAC] {Soundtrack}\08 - Toru Yamashita and Izumi Yamashita - Rock Theme No.1.wav

Peak level 94.6 % Extraction speed 3.5 X Track quality 100.0 % Test CRC CD829342 Copy CRC CD829342 Accurately ripped (confidence 1) [AEADE405] (AR v2) Copy OK

Track 9

Filename C:\EAC\Lupin The Third TV Original BGM Collection - Music From the Original Motion Picture Soundtrack Score (1988) [FLAC] {Soundtrack}\09 - Toru Yamashita and Izumi Yamashita - Two-beat Rock - ''Lupin III Part II''.wav

Peak level 85.4 % Extraction speed 3.4 X Track quality 100.0 % Test CRC FB5D0D81 Copy CRC FB5D0D81 Accurately ripped (confidence 1) [76D5A695] (AR v2) Copy OK

Track 10

Filename C:\EAC\Lupin The Third TV Original BGM Collection - Music From the Original Motion Picture Soundtrack Score (1988) [FLAC] {Soundtrack}\10 - Toru Yamashita and Izumi Yamashita - Slow Ballad - ''Lupin III Part I''.wav

Pre-gap length 0:00:00.93

Peak level 80.5 % Extraction speed 2.0 X Track quality 99.9 % Test CRC 21A454D2 Copy CRC 21A454D2 Accurately ripped (confidence 1) [BB36CF72] (AR v2) Copy OK

Track 11

Filename C:\EAC\Lupin The Third TV Original BGM Collection - Music From the Original Motion Picture Soundtrack Score (1988) [FLAC] {Soundtrack}\11 - Toru Yamashita and Izumi Yamashita - Dexy Rock March.wav

Peak level 93.7 % Extraction speed 1.8 X Track quality 99.8 % Test CRC C42BE31F Copy CRC C42BE31F Accurately ripped (confidence 1) [27238146] (AR v2) Copy OK

Track 12

Filename C:\EAC\Lupin The Third TV Original BGM Collection - Music From the Original Motion Picture Soundtrack Score (1988) [FLAC] {Soundtrack}\12 - Toru Yamashita and Izumi Yamashita - A Touch of Japanese Tone.wav

Peak level 90.5 % Extraction speed 3.9 X Track quality 100.0 % Test CRC A4B7EA1D Copy CRC A4B7EA1D Accurately ripped (confidence 1) [464D2AC7] (AR v2) Copy OK

Track 13

Filename C:\EAC\Lupin The Third TV Original BGM Collection - Music From the Original Motion Picture Soundtrack Score (1988) [FLAC] {Soundtrack}\13 - Toru Yamashita and Izumi Yamashita - Shuffle Rock - Lupin Walkin'.wav

Peak level 93.5 % Extraction speed 3.8 X Track quality 100.0 % Test CRC 9205FAC0 Copy CRC 9205FAC0 Accurately ripped (confidence 1) [46E31651] (AR v2) Copy OK

Track 14

Filename C:\EAC\Lupin The Third TV Original BGM Collection - Music From the Original Motion Picture Soundtrack Score (1988) [FLAC] {Soundtrack}\14 - Toru Yamashita and Izumi Yamashita - Medium Samba.wav

Peak level 93.0 % Extraction speed 4.0 X Track quality 100.0 % Test CRC 9EBA62A8 Copy CRC 9EBA62A8 Accurately ripped (confidence 1) [5EAB8672] (AR v2) Copy OK

Track 15

Filename C:\EAC\Lupin The Third TV Original BGM Collection - Music From the Original Motion Picture Soundtrack Score (1988) [FLAC] {Soundtrack}\15 - Toru Yamashita and Izumi Yamashita - Afro ''Lupin '68''.wav

Peak level 92.9 % Extraction speed 3.5 X Track quality 100.0 % Test CRC CA3EFCE5 Copy CRC CA3EFCE5 Accurately ripped (confidence 1) [81FAF7E0] (AR v2) Copy OK

Track 16

Filename C:\EAC\Lupin The Third TV Original BGM Collection - Music From the Original Motion Picture Soundtrack Score (1988) [FLAC] {Soundtrack}\16 - Toru Yamashita and Izumi Yamashita - Samba Crazy.wav

Peak level 96.7 % Extraction speed 3.8 X Track quality 100.0 % Test CRC 6827D436 Copy CRC 6827D436 Accurately ripped (confidence 1) [749BC6BF] (AR v2) Copy OK

Track 17

Filename C:\EAC\Lupin The Third TV Original BGM Collection - Music From the Original Motion Picture Soundtrack Score (1988) [FLAC] {Soundtrack}\17 - Toru Yamashita and Izumi Yamashita - Nice Guy Lupin - Two Beat.wav

Peak level 100.0 % Extraction speed 3.2 X Track quality 100.0 % Test CRC 76AF0A07 Copy CRC 76AF0A07 Accurately ripped (confidence 1) [4E850544] (AR v2) Copy OK

Track 18

Filename C:\EAC\Lupin The Third TV Original BGM Collection - Music From the Original Motion Picture Soundtrack Score (1988) [FLAC] {Soundtrack}\18 - Toru Yamashita and Izumi Yamashita - Slow Samba.wav

Peak level 94.5 % Extraction speed 4.1 X Track quality 100.0 % Test CRC 13F68DCC Copy CRC 13F68DCC Accurately ripped (confidence 1) [3CAD7AB8] (AR v2) Copy OK

Track 19

Filename C:\EAC\Lupin The Third TV Original BGM Collection - Music From the Original Motion Picture Soundtrack Score (1988) [FLAC] {Soundtrack}\19 - Charlie Corsey - Lupin III Part II - Ending Theme (Full Size).wav

Pre-gap length 0:00:01.93

Peak level 63.4 % Extraction speed 4.5 X Track quality 100.0 % Test CRC 7F351485 Copy CRC 7F351485 Accurately ripped (confidence 1) [CB7AD4DB] (AR v2) Copy OK

All tracks accurately ripped

No errors occurred

End of status report

---- CUETools DB Plugin V2.1.6

[CTDB TOCID: iONKzy5GSLbmdaqWyvQGfp9hMSg-] foundSubmit result: already submittedTrack | CTDB Status 1 | (5/5) Accurately ripped 2 | (5/5) Accurately ripped 3 | (5/5) Accurately ripped 4 | (5/5) Accurately ripped 5 | (5/5) Accurately ripped 6 | (5/5) Accurately ripped 7 | (5/5) Accurately ripped 8 | (5/5) Accurately ripped 9 | (5/5) Accurately ripped 10 | (5/5) Accurately ripped 11 | (5/5) Accurately ripped 12 | (5/5) Accurately ripped 13 | (5/5) Accurately ripped 14 | (5/5) Accurately ripped 15 | (5/5) Accurately ripped 16 | (5/5) Accurately ripped 17 | (5/5) Accurately ripped 18 | (5/5) Accurately ripped 19 | (5/5) Accurately ripped

==== Log checksum B4E881FB0FC73BF1260CE029F9CD62017B7CA213446E73448804720454DFE325 ====
REM GENRE AnimeREM DATE 1988REM DISCID 000B9913REM COMMENT "ExactAudioCopy v1.1"PERFORMER "Various Artists"TITLE "Lupin The Third TV Original BGM Collection - Music From the Original Motion P..."FILE "01 - Charlie Corsey - Lupin III Part I - Opening Theme (Full Size).wav" WAVE TRACK 01 AUDIO TITLE "Lupin III Part I - Opening Theme (Full Size)" PERFORMER "Charlie Corsey" INDEX 01 00:00:00 TRACK 02 AUDIO TITLE "Moody Theme - ''Lupin III Part II''" PERFORMER "Toru Yamashita and Izumi Yamashita" INDEX 00 02:27:30FILE "02 - Toru Yamashita and Izumi Yamashita - Moody Theme - ''Lupin III Part II''.wav" WAVE INDEX 01 00:00:00FILE "03 - Toru Yamashita and Izumi Yamashita - Afro Rock Theme.wav" WAVE TRACK 03 AUDIO TITLE "Afro Rock Theme" PERFORMER "Toru Yamashita and Izumi Yamashita" INDEX 01 00:00:00FILE "04 - Toru Yamashita and Izumi Yamashita - Japanese Tone of Lupin.wav" WAVE TRACK 04 AUDIO TITLE "Japanese Tone of Lupin" PERFORMER "Toru Yamashita and Izumi Yamashita" INDEX 01 00:00:00FILE "05 - Toru Yamashita and Izumi Yamashita - Gallop Samba.wav" WAVE TRACK 05 AUDIO TITLE "Gallop Samba" PERFORMER "Toru Yamashita and Izumi Yamashita" INDEX 01 00:00:00FILE "06 - Toru Yamashita and Izumi Yamashita - Disco Plays Lupin.wav" WAVE TRACK 06 AUDIO TITLE "Disco Plays Lupin" PERFORMER "Toru Yamashita and Izumi Yamashita" INDEX 01 00:00:00FILE "07 - Toru Yamashita and Izumi Yamashita - Scat Theme.wav" WAVE TRACK 07 AUDIO TITLE "Scat Theme" PERFORMER "Toru Yamashita and Izumi Yamashita" INDEX 01 00:00:00FILE "08 - Toru Yamashita and Izumi Yamashita - Rock Theme No.1.wav" WAVE TRACK 08 AUDIO TITLE "Rock Theme No.1" PERFORMER "Toru Yamashita and Izumi Yamashita" INDEX 01 00:00:00FILE "09 - Toru Yamashita and Izumi Yamashita - Two-beat Rock - ''Lupin III Part II''.wav" WAVE TRACK 09 AUDIO TITLE "Two-beat Rock - ''Lupin III Part II''" PERFORMER "Toru Yamashita and Izumi Yamashita" INDEX 01 00:00:00 TRACK 10 AUDIO TITLE "Slow Ballad - ''Lupin III Part I''" PERFORMER "Toru Yamashita and Izumi Yamashita" INDEX 00 03:03:70FILE "10 - Toru Yamashita and Izumi Yamashita - Slow Ballad - ''Lupin III Part I''.wav" WAVE INDEX 01 00:00:00FILE "11 - Toru Yamashita and Izumi Yamashita - Dexy Rock March.wav" WAVE TRACK 11 AUDIO TITLE "Dexy Rock March" PERFORMER "Toru Yamashita and Izumi Yamashita" INDEX 01 00:00:00FILE "12 - Toru Yamashita and Izumi Yamashita - A Touch of Japanese Tone.wav" WAVE TRACK 12 AUDIO TITLE "A Touch of Japanese Tone" PERFORMER "Toru Yamashita and Izumi Yamashita" INDEX 01 00:00:00FILE "13 - Toru Yamashita and Izumi Yamashita - Shuffle Rock - Lupin Walkin'.wav" WAVE TRACK 13 AUDIO TITLE "Shuffle Rock - Lupin Walkin'" PERFORMER "Toru Yamashita and Izumi Yamashita" INDEX 01 00:00:00FILE "14 - Toru Yamashita and Izumi Yamashita - Medium Samba.wav" WAVE TRACK 14 AUDIO TITLE "Medium Samba" PERFORMER "Toru Yamashita and Izumi Yamashita" INDEX 01 00:00:00FILE "15 - Toru Yamashita and Izumi Yamashita - Afro ''Lupin '68''.wav" WAVE TRACK 15 AUDIO TITLE "Afro ''Lupin '68''" PERFORMER "Toru Yamashita and Izumi Yamashita" INDEX 01 00:00:00FILE "16 - Toru Yamashita and Izumi Yamashita - Samba Crazy.wav" WAVE TRACK 16 AUDIO TITLE "Samba Crazy" PERFORMER "Toru Yamashita and Izumi Yamashita" INDEX 01 00:00:00FILE "17 - Toru Yamashita and Izumi Yamashita - Nice Guy Lupin - Two Beat.wav" WAVE TRACK 17 AUDIO TITLE "Nice Guy Lupin - Two Beat" PERFORMER "Toru Yamashita and Izumi Yamashita" INDEX 01 00:00:00FILE "18 - Toru Yamashita and Izumi Yamashita - Slow Samba.wav" WAVE TRACK 18 AUDIO TITLE "Slow Samba" PERFORMER "Toru Yamashita and Izumi Yamashita" INDEX 01 00:00:00 TRACK 19 AUDIO TITLE "Lupin III Part II - Ending Theme (Full Size)" PERFORMER "Charlie Corsey" INDEX 00 02:48:25FILE "19 - Charlie Corsey - Lupin III Part II - Ending Theme (Full Size).wav" WAVE INDEX 01 00:00:00


Трекер:  [ 03-Апр-2016 02:00 ]

  

Скачать .torrent

Размер .torrent файла 14 KB


Размер: 303 MB
Хэш (hash) релиза: cd97b013e4b8709b95b059fe17931bf4860aee3f

Еще никто не оставлял запись к записи скачать торрент Люпен III . Будь первым!

!Обратная связь