Все по авто и мото | Скачать и Смотреть | James Last - Live At The Royal Albert Hall.

Скачать через торрент музыку Лилии на ветру: Летние каникулы Yuru Yuri Nachuyachumi! бесплатно без регистрации torrent

Статистика раздачи
Размер:  357 MB   |    Зарегистрирован:  2 года 3 месяца   |    .torrent скачан:  29 раз   |   
Раздают:  1  
   
загрузка...
 
Автор Сообщение

Galfimbul

avatar Galfimbul


Yuru Yuri Nachuyachumi!
Special Sound CD OST Zenbuiri
.

Название альбома: Yuru Yuri Nachuyachumi! Special Sound CD OST Zenbuiri
Композитор: Fujisawa Yoshiaki
Носитель: Bonus CD
Год издания: 2015
Издатель (лейбл): Pony Canyon
Номер по каталогу: PCXG-50178-2
Аудиокодек: FLAC (*.flac)
Тип рипа: tracks+.cue
Битрейт аудио: lossless
Продолжительность: 55:31
Наличие сканов в содержимом раздачи: да

.
Треклист:

01 BLEAK☆WORLD 2:27
02 Mou Fumofu no Nachu 0:39
03 Chinatsu no Sainan 0:41
04 C&Y ~Suteki na Mousou~ 0:21
05 Do Hentai wa Omae da 0:18
06 Suzuyaka na Unchiku 1:04
07 Oshiire no Nakami wa Nanjaro na 1:39
08 Shizen to wa? 0:53
09 Tetterere ~Tettetere~ 0:58
10 Tea Time wa Joshi Ryoku Totomoni? 0:47
11 1-nensei Tachi no Yuuga na Dotabata 4:05
12 Itoshii Ribbon no Shuugekisha! 0:50
13 Koisuru Otome wa Muteki da mon!! 0:30
14 Let's! Enjoy! Kyanpurin! Yume no Dream Set 1:27
15 Ano ko to Ano ko no My Room? 1:18
16 Natsu!!!! Tte Kanji no Melody 1:08
17 Obaa-chan_(:3」∠)_ 0:35
18 Miracle on the Miracle 1:41
19 E? Iro Totsuzen ja Arimasen ka? 0:33
20 Sou Ieba…Chinatsu no Ryouritte...... 2:07
21 Honobono Dai-shizen 1:25
22 Seito kai no Takuhaibin 1:11
23 Datte Tanoshii nda mon☆ 0:56
24 Seesaw=??? 1:23
25 Futari wo Tsunagu Kumo no Ito 0:25
26 Masaka no Retort desu no? 1:11
27 Yuke! Kaidashihan! 1:56
28 Shocking? Lily 3:42
29 Dokaan to Ichi Hatsu! Let's! Fire 0:56
30 Karee wo Tabeyou 1:44
31 Onaka mo Purin mo Panpakapan☆ 1:44
32 Star Jewel☆ ~Kirakira no Omoidetachi~ 0:55
33 Yaharisou Naru 0:26
34 Tarete Masu yo, Imouto-san 0:11
35 Kowaku Tatte Daijoubu☆ 0:36
36 Aishuu no Senritsu 0:23
37 KYOUHU 0:32
38 Mankitsushuu☆ 0:18
39 Akuryoku? Not Otomeryoku 0:16
40 Hora, Anata no Nocchi ni... 0:25
41 Chinure no Namakubi☆ 0:44
42 Waio Furo Akari wo Furoda...!! 0:44
43 Shiawase no Katachi 1:48
44 Warera no Nejiro e!! 0:27
45 Camping no Yoru 2:09
46 Saikou no Nachu Yachumi 2:46
47 Tadaima Okaeri 2:20
CUE Corrector v.6.6.4 (build 470)------------------------------------------------------------------------Fujisawa Yoshiaki / Yuru Yuri Nachuyachumi! Special Sound CD OST Zenbuiri

Cuesheet: Yuru Yuri Nachuyachumi! Special Sound CD OST Zenbuiri (2015)audio files: 01 – BLEAK_WORLD [02:26.67, FLAC, 44100Hz, Stereo, 16bit; 14,69 MB (15 401 502 bytes)] 02 – Mou Fumofu no Nachu [00:38.66, FLAC, 44100Hz, Stereo, 16bit; 2,97 MB (3 111 660 bytes)] 03 – Chinatsu no Sainan [00:40.67, FLAC, 44100Hz, Stereo, 16bit; 3,41 MB (3 576 121 bytes)] 04 – C&Y ~Suteki na Mousou~ [00:20.73, FLAC, 44100Hz, Stereo, 16bit; 2,14 MB (2 248 941 bytes)] 05 – Do Hentai wa Omae da [00:18.27, FLAC, 44100Hz, Stereo, 16bit; 1,62 MB (1 696 068 bytes)] 06 – Suzuyaka na Unchiku [01:03.54, FLAC, 44100Hz, Stereo, 16bit; 5,71 MB (5 982 982 bytes)] 07 – Oshiire no Nakami wa Nanjaro na [01:38.74, FLAC, 44100Hz, Stereo, 16bit; 7,31 MB (7 660 941 bytes)] 08 – Shizen to wa [00:53.19, FLAC, 44100Hz, Stereo, 16bit; 5,10 MB (5 343 466 bytes)] 09 – Tetterere ~Tettetere~ [00:57.72, FLAC, 44100Hz, Stereo, 16bit; 4,83 MB (5 063 118 bytes)] 10 – Tea Time wa Joshi Ryoku Totomoni [00:47.18, FLAC, 44100Hz, Stereo, 16bit; 4,51 MB (4 730 763 bytes)] 11 – 1-nensei Tachi no Yuuga na Dotabata [04:05.12, FLAC, 44100Hz, Stereo, 16bit; 20,46 MB (21 454 470 bytes)] 12 – Itoshii Ribbon no Shuugekisha! [00:49.39, FLAC, 44100Hz, Stereo, 16bit; 4,97 MB (5 210 767 bytes)] 13 – Koisuru Otome wa Muteki da mon!! [00:30.30, FLAC, 44100Hz, Stereo, 16bit; 2,82 MB (2 960 343 bytes)] 14 – Let's! Enjoy! Kyanpurin! Yume no Dream Set [01:26.48, FLAC, 44100Hz, Stereo, 16bit; 7,37 MB (7 724 896 bytes)] 15 – Ano ko to Ano ko no My Room [01:17.57, FLAC, 44100Hz, Stereo, 16bit; 4,80 MB (5 029 731 bytes)] 16 – Natsu!!!! Tte Kanji no Melody [01:08.32, FLAC, 44100Hz, Stereo, 16bit; 5,95 MB (6 237 080 bytes)] 17 – Obaa-chan [00:34.43, FLAC, 44100Hz, Stereo, 16bit; 3,05 MB (3 198 879 bytes)] 18 – Miracle on the Miracle [01:40.39, FLAC, 44100Hz, Stereo, 16bit; 9,08 MB (9 519 972 bytes)] 19 – E Iro Totsuzen ja Arimasen ka [00:32.43, FLAC, 44100Hz, Stereo, 16bit; 1,84 MB (1 928 419 bytes)] 20 – Sou Ieba…Chinatsu no Ryouritte...... [02:07.00, FLAC, 44100Hz, Stereo, 16bit; 9,85 MB (10 329 174 bytes)] 21 – Honobono Dai-shizen [01:24.44, FLAC, 44100Hz, Stereo, 16bit; 8,15 MB (8 548 438 bytes)] 22 – Seito kai no Takuhaibin [01:11.06, FLAC, 44100Hz, Stereo, 16bit; 5,92 MB (6 210 468 bytes)] 23 – Datte Tanoshii nda mon [00:55.39, FLAC, 44100Hz, Stereo, 16bit; 5,68 MB (5 959 522 bytes)] 24 – Seesaw [01:22.73, FLAC, 44100Hz, Stereo, 16bit; 7,21 MB (7 564 722 bytes)] 25 – Futari wo Tsunagu Kumo no Ito [00:24.67, FLAC, 44100Hz, Stereo, 16bit; 1,86 MB (1 952 018 bytes)] 26 – Masaka no Retort desu no [01:11.07, FLAC, 44100Hz, Stereo, 16bit; 6,20 MB (6 498 600 bytes)] 27 – Yuke! Kaidashihan! [01:55.45, FLAC, 44100Hz, Stereo, 16bit; 10,91 MB (11 442 084 bytes)] 28 – Shocking Lily [03:42.15, FLAC, 44100Hz, Stereo, 16bit; 19,32 MB (20 259 504 bytes)] 29 – Dokaan to Ichi Hatsu! Let's! Fire [00:55.51, FLAC, 44100Hz, Stereo, 16bit; 4,40 MB (4 616 262 bytes)] 30 – Karee wo Tabeyou [01:44.08, FLAC, 44100Hz, Stereo, 16bit; 9,76 MB (10 233 692 bytes)] 31 – Onaka mo Purin mo Panpakapan [01:44.32, FLAC, 44100Hz, Stereo, 16bit; 8,15 MB (8 545 792 bytes)] 32 – Star Jewel ~Kirakira no Omoidetachi~ [00:55.30, FLAC, 44100Hz, Stereo, 16bit; 4,04 MB (4 238 722 bytes)] 33 – Yaharisou Naru [00:26.18, FLAC, 44100Hz, Stereo, 16bit; 1,82 MB (1 904 052 bytes)] 34 – Tarete Masu yo, Imouto-san [00:11.11, FLAC, 44100Hz, Stereo, 16bit; 787,48 KB (806 381 bytes)] 35 – Kowaku Tatte Daijoubu [00:35.46, FLAC, 44100Hz, Stereo, 16bit; 2,78 MB (2 919 697 bytes)] 36 – Aishuu no Senritsu [00:23.06, FLAC, 44100Hz, Stereo, 16bit; 1,74 MB (1 825 212 bytes)] 37 – KYOUHU [00:32.19, FLAC, 44100Hz, Stereo, 16bit; 2,45 MB (2 565 187 bytes)] 38 – Mankitsushuu [00:17.39, FLAC, 44100Hz, Stereo, 16bit; 1,17 MB (1 230 102 bytes)] 39 – Akuryoku Not Otomeryoku [00:15.63, FLAC, 44100Hz, Stereo, 16bit; 1,15 MB (1 201 093 bytes)] 40 – Hora, Anata no Nocchi ni... [00:24.50, FLAC, 44100Hz, Stereo, 16bit; 1,74 MB (1 827 938 bytes)] 41 – Chinure no Namakubi [00:44.36, FLAC, 44100Hz, Stereo, 16bit; 4,00 MB (4 195 183 bytes)] 42 – Waio Furo Akari wo Furoda...!! [00:44.17, FLAC, 44100Hz, Stereo, 16bit; 4,19 MB (4 393 752 bytes)] 43 – Shiawase no Katachi [01:48.25, FLAC, 44100Hz, Stereo, 16bit; 8,25 MB (8 652 440 bytes)] 44 – Warera no Nejiro e!! [00:26.47, FLAC, 44100Hz, Stereo, 16bit; 2,28 MB (2 392 658 bytes)] 45 – Camping no Yoru [02:08.53, FLAC, 44100Hz, Stereo, 16bit; 10,01 MB (10 494 412 bytes)] 46 – Saikou no Nachu Yachumi [02:45.54, FLAC, 44100Hz, Stereo, 16bit; 13,41 MB (14 056 228 bytes)] 47 – Tadaima Okaeri [02:19.43, FLAC, 44100Hz, Stereo, 16bit; 13,05 MB (13 688 991 bytes)]

Accuracy: -m0

Track 01 - BLEAK_WORLD - 100% CDDA [02:26.67]Track 02 - Mou Fumofu no Nachu - 100% MPEG [00:38.66]Track 03 - Chinatsu no Sainan - 54% CDDA [00:40.67]Track 04 - C&Y ~Suteki na Mousou~ - 100% CDDA [00:20.73]Track 05 - Do Hentai wa Omae da - 89% MPEG [00:18.27]Track 06 - Suzuyaka na Unchiku - 100% CDDA [01:03.54]Track 07 - Oshiire no Nakami wa Nanjaro na - 97% MPEG [01:38.74]Track 08 - Shizen to wa - 100% CDDA [00:53.19]Track 09 - Tetterere ~Tettetere~ - 100% CDDA [00:57.72]Track 10 - Tea Time wa Joshi Ryoku Totomoni - 100% CDDA [00:47.18]Track 11 - 1-nensei Tachi no Yuuga na Dotabata - 43% CDDA [04:05.12]Track 12 - Itoshii Ribbon no Shuugekisha! - 99% CDDA [00:49.39]Track 13 - Koisuru Otome wa Muteki da mon!! - 76% CDDA [00:30.30]Track 14 - Let's! Enjoy! Kyanpurin! Yume no Dream Set - 87% CDDA [01:26.48]Track 15 - Ano ko to Ano ko no My Room - 100% MPEG [01:17.57]Track 16 - Natsu!!!! Tte Kanji no Melody - 100% CDDA [01:08.32]Track 17 - Obaa-chan - 100% CDDA [00:34.43]Track 18 - Miracle on the Miracle - 100% CDDA [01:40.39]Track 19 - E Iro Totsuzen ja Arimasen ka - 100% MPEG [00:32.43]Track 20 - Sou Ieba…Chinatsu no Ryouritte...... - 80% MPEG [02:07.00]Track 21 - Honobono Dai-shizen - 99% CDDA [01:24.44]Track 22 - Seito kai no Takuhaibin - 89% MPEG [01:11.06]Track 23 - Datte Tanoshii nda mon - 99% CDDA [00:55.39]Track 24 - Seesaw - 100% CDDA [01:22.73]Track 25 - Futari wo Tsunagu Kumo no Ito - 43% CDDA [00:24.67]Track 26 - Masaka no Retort desu no - 100% CDDA [01:11.07]Track 27 - Yuke! Kaidashihan! - 94% CDDA [01:55.45]Track 28 - Shocking Lily - 62% CDDA [03:42.15]Track 29 - Dokaan to Ichi Hatsu! Let's! Fire - 100% MPEG [00:55.51]Track 30 - Karee wo Tabeyou - 100% CDDA [01:44.08]Track 31 - Onaka mo Purin mo Panpakapan - 42% CDDA [01:44.32]Track 32 - Star Jewel ~Kirakira no Omoidetachi~ - 100% MPEG [00:55.30]Track 33 - Yaharisou Naru - 89% MPEG [00:26.18]Track 34 - Tarete Masu yo, Imouto-san - 100% MPEG [00:11.11]Track 35 - Kowaku Tatte Daijoubu - 58% CDDA [00:35.46]Track 36 - Aishuu no Senritsu - 99% MPEG [00:23.06]Track 37 - KYOUHU - 97% MPEG [00:32.19]Track 38 - Mankitsushuu - 90% MPEG [00:17.39]Track 39 - Akuryoku Not Otomeryoku - 100% MPEG [00:15.63]Track 40 - Hora, Anata no Nocchi ni... - 76% CDDA [00:24.50]Track 41 - Chinure no Namakubi - 86% CDDA [00:44.36]Track 42 - Waio Furo Akari wo Furoda...!! - 90% MPEG [00:44.17]Track 43 - Shiawase no Katachi - 100% MPEG [01:48.25]Track 44 - Warera no Nejiro e!! - 42% CDDA [00:26.47]Track 45 - Camping no Yoru - 99% MPEG [02:08.53]Track 46 - Saikou no Nachu Yachumi - 93% MPEG [02:45.54]Track 47 - Tadaima Okaeri - 100% CDDA [02:19.43]----- Summary: -----Could not qualify the source of these tracks.------------------------------------------------------------------------

ANALYZER: auCDtect: CD records authenticity detector, version 0.8.2 Copyright (c) 2004 Oleg Berngardt. All rights reserved. Copyright (c) 2004 Alexander Djourik. All rights reserved.

Time elapsed: 17 m 21 sLog created at March 30, 2016 21:09:16

=== 59BD593AA8D82D79E49927D83DED9FEC9484F6B13E31F7508C023151F6B2D409 ===
Выкладываю только шесть скриншотов, но на остальных дорожках - ситуации аналогичные.

02 - Mou Fumofu no Nachu


05 - Do Hentai wa Omae da


07 - Oshiire no Nakami wa Nanjaro na


15 - Ano ko to Ano ko no My Room


19 - E Iro Totsuzen ja Arimasen ka


20 - Sou Ieba…Chinatsu no Ryouritte......
CUERipper v2.1.5 Copyright (C) 2008-13 Grigory Chudov

EAC extraction logfile from 18. February 2015, 18:22

Unknown Artist / Unknown Title

Used drive : MATSHITA BD-CMB UJ141AF Adapter: 1 ID: 0

Read mode : SecureUtilize accurate stream : YesDefeat audio cache : YesMake use of C2 pointers : No

Read offset correction : 103Overread into Lead-In and Lead-Out : NoFill up missing offset samples with silence : YesDelete leading and trailing silent blocks : NoNull samples used in CRC calculations : YesUsed interface : Native Win32 interface for Win NT & 2000Gap handling : Appended to previous track

Used output format : Internal WAV RoutinesSample format : 44.100 Hz; 16 Bit; Stereo

TOC of the extracted CD

Track | Start | Length | Start sector | End sector --------------------------------------------------------- 1 | 0:00.00 | 2:26.67 | 0 | 11016 2 | 2:26.67 | 0:38.66 | 11017 | 13932 3 | 3:05.58 | 0:40.67 | 13933 | 16999 4 | 3:46.50 | 0:20.73 | 17000 | 18572 5 | 4:07.48 | 0:18.27 | 18573 | 19949 6 | 4:26.00 | 1:03.54 | 19950 | 24728 7 | 5:29.54 | 1:38.74 | 24729 | 32152 8 | 7:08.53 | 0:53.19 | 32153 | 36146 9 | 8:01.72 | 0:57.72 | 36147 | 40493 10 | 8:59.69 | 0:47.18 | 40494 | 44036 11 | 9:47.12 | 4:05.12 | 44037 | 62423 12 | 13:52.24 | 0:49.39 | 62424 | 66137 13 | 14:41.63 | 0:30.30 | 66138 | 68417 14 | 15:12.18 | 1:26.48 | 68418 | 74915 15 | 16:38.66 | 1:17.57 | 74916 | 80747 16 | 17:56.48 | 1:08.32 | 80748 | 85879 17 | 19:05.05 | 0:34.43 | 85880 | 88472 18 | 19:39.48 | 1:40.39 | 88473 | 96011 19 | 21:20.12 | 0:32.43 | 96012 | 98454 20 | 21:52.55 | 2:07.00 | 98455 | 107979 21 | 23:59.55 | 1:24.44 | 107980 | 114323 22 | 25:24.24 | 1:11.06 | 114324 | 119654 23 | 26:35.30 | 0:55.39 | 119655 | 123818 24 | 27:30.69 | 1:22.73 | 123819 | 130041 25 | 28:53.67 | 0:24.67 | 130042 | 131908 26 | 29:18.59 | 1:11.07 | 131909 | 137240 27 | 30:29.66 | 1:55.45 | 137241 | 145910 28 | 32:25.36 | 3:42.15 | 145911 | 162575 29 | 36:07.51 | 0:55.51 | 162576 | 166751 30 | 37:03.27 | 1:44.08 | 166752 | 174559 31 | 38:47.35 | 1:44.32 | 174560 | 182391 32 | 40:31.67 | 0:55.30 | 182392 | 186546 33 | 41:27.22 | 0:26.18 | 186547 | 188514 34 | 41:53.40 | 0:11.11 | 188515 | 189350 35 | 42:04.51 | 0:35.46 | 189351 | 192021 36 | 42:40.22 | 0:23.06 | 192022 | 193752 37 | 43:03.28 | 0:32.19 | 193753 | 196171 38 | 43:35.47 | 0:17.39 | 196172 | 197485 39 | 43:53.11 | 0:15.63 | 197486 | 198673 40 | 44:08.74 | 0:24.50 | 198674 | 200523 41 | 44:33.49 | 0:44.36 | 200524 | 203859 42 | 45:18.10 | 0:44.17 | 203860 | 207176 43 | 46:02.27 | 1:48.25 | 207177 | 215301 44 | 47:50.52 | 0:26.47 | 215302 | 217298 45 | 48:17.24 | 2:08.53 | 217299 | 226951 46 | 50:26.02 | 2:45.54 | 226952 | 239380 47 | 53:11.56 | 2:19.43 | 239381 | 249848

Track 1

Filename C:\Users\Victor\Music\Unknown Artist\Unknown Title\01. Track 01.wav

Pre-gap length 0:00:02.00

Peak level 99.1 % Track quality 100.0 % Copy CRC FF1901D9 Track not present in AccurateRip database Copy OK

Track 2

Filename C:\Users\Victor\Music\Unknown Artist\Unknown Title\02. Track 02.wav

Pre-gap length 0:00:01.60

Peak level 79.2 % Track quality 100.0 % Copy CRC BAFAA6EA Track not present in AccurateRip database Copy OK

Track 3

Filename C:\Users\Victor\Music\Unknown Artist\Unknown Title\03. Track 03.wav

Pre-gap length 0:00:01.60

Peak level 77.1 % Track quality 100.0 % Copy CRC B8B2A1E5 Track not present in AccurateRip database Copy OK

Track 4

Filename C:\Users\Victor\Music\Unknown Artist\Unknown Title\04. Track 04.wav

Pre-gap length 0:00:01.60

Peak level 95.8 % Track quality 100.0 % Copy CRC F39B6205 Track not present in AccurateRip database Copy OK

Track 5

Filename C:\Users\Victor\Music\Unknown Artist\Unknown Title\05. Track 05.wav

Pre-gap length 0:00:01.65

Peak level 76.2 % Track quality 100.0 % Copy CRC 9AD1571C Track not present in AccurateRip database Copy OK

Track 6

Filename C:\Users\Victor\Music\Unknown Artist\Unknown Title\06. Track 06.wav

Pre-gap length 0:00:01.60

Peak level 98.2 % Track quality 100.0 % Copy CRC 0C5C4F84 Track not present in AccurateRip database Copy OK

Track 7

Filename C:\Users\Victor\Music\Unknown Artist\Unknown Title\07. Track 07.wav

Pre-gap length 0:00:01.60

Peak level 99.0 % Track quality 100.0 % Copy CRC 3EC444FA Track not present in AccurateRip database Copy OK

Track 8

Filename C:\Users\Victor\Music\Unknown Artist\Unknown Title\08. Track 08.wav

Pre-gap length 0:00:01.60

Peak level 99.1 % Track quality 100.0 % Copy CRC 72911200 Track not present in AccurateRip database Copy OK

Track 9

Filename C:\Users\Victor\Music\Unknown Artist\Unknown Title\09. Track 09.wav

Pre-gap length 0:00:01.60

Peak level 99.0 % Track quality 100.0 % Copy CRC C82D10EE Track not present in AccurateRip database Copy OK

Track 10

Filename C:\Users\Victor\Music\Unknown Artist\Unknown Title\10. Track 10.wav

Pre-gap length 0:00:02.10

Peak level 99.0 % Track quality 100.0 % Copy CRC 725546C4 Track not present in AccurateRip database Copy OK

Track 11

Filename C:\Users\Victor\Music\Unknown Artist\Unknown Title\11. Track 11.wav

Pre-gap length 0:00:01.60

Peak level 92.0 % Track quality 100.0 % Copy CRC 99587D8F Track not present in AccurateRip database Copy OK

Track 12

Filename C:\Users\Victor\Music\Unknown Artist\Unknown Title\12. Track 12.wav

Pre-gap length 0:00:01.60

Peak level 97.4 % Track quality 100.0 % Copy CRC F169FE5B Track not present in AccurateRip database Copy OK

Track 13

Filename C:\Users\Victor\Music\Unknown Artist\Unknown Title\13. Track 13.wav

Pre-gap length 0:00:02.10

Peak level 71.4 % Track quality 100.0 % Copy CRC C3163386 Track not present in AccurateRip database Copy OK

Track 14

Filename C:\Users\Victor\Music\Unknown Artist\Unknown Title\14. Track 14.wav

Pre-gap length 0:00:01.60

Peak level 99.1 % Track quality 100.0 % Copy CRC CE37B019 Track not present in AccurateRip database Copy OK

Track 15

Filename C:\Users\Victor\Music\Unknown Artist\Unknown Title\15. Track 15.wav

Pre-gap length 0:00:02.10

Peak level 76.1 % Track quality 100.0 % Copy CRC C346754A Track not present in AccurateRip database Copy OK

Track 16

Filename C:\Users\Victor\Music\Unknown Artist\Unknown Title\16. Track 16.wav

Pre-gap length 0:00:02.16

Peak level 99.1 % Track quality 100.0 % Copy CRC 90623EDA Track not present in AccurateRip database Copy OK

Track 17

Filename C:\Users\Victor\Music\Unknown Artist\Unknown Title\17. Track 17.wav

Pre-gap length 0:00:02.09

Peak level 88.4 % Track quality 100.0 % Copy CRC 63EAC359 Track not present in AccurateRip database Copy OK

Track 18

Filename C:\Users\Victor\Music\Unknown Artist\Unknown Title\18. Track 18.wav

Pre-gap length 0:00:01.60

Peak level 94.1 % Track quality 100.0 % Copy CRC F519B952 Track not present in AccurateRip database Copy OK

Track 19

Filename C:\Users\Victor\Music\Unknown Artist\Unknown Title\19. Track 19.wav

Pre-gap length 0:00:01.60

Peak level 71.4 % Track quality 100.0 % Copy CRC F9FC45EF Track not present in AccurateRip database Copy OK

Track 20

Filename C:\Users\Victor\Music\Unknown Artist\Unknown Title\20. Track 20.wav

Pre-gap length 0:00:02.10

Peak level 99.1 % Track quality 100.0 % Copy CRC 2AD557B6 Track not present in AccurateRip database Copy OK

Track 21

Filename C:\Users\Victor\Music\Unknown Artist\Unknown Title\21. Track 21.wav

Pre-gap length 0:00:01.60

Peak level 96.9 % Track quality 100.0 % Copy CRC B764E021 Track not present in AccurateRip database Copy OK

Track 22

Filename C:\Users\Victor\Music\Unknown Artist\Unknown Title\22. Track 22.wav

Pre-gap length 0:00:02.10

Peak level 92.7 % Track quality 100.0 % Copy CRC E895E36B Track not present in AccurateRip database Copy OK

Track 23

Filename C:\Users\Victor\Music\Unknown Artist\Unknown Title\23. Track 23.wav

Pre-gap length 0:00:01.60

Peak level 95.8 % Track quality 100.0 % Copy CRC 4F05E03C Track not present in AccurateRip database Copy OK

Track 24

Filename C:\Users\Victor\Music\Unknown Artist\Unknown Title\24. Track 24.wav

Pre-gap length 0:00:02.60

Peak level 97.1 % Track quality 100.0 % Copy CRC D0C21F59 Track not present in AccurateRip database Copy OK

Track 25

Filename C:\Users\Victor\Music\Unknown Artist\Unknown Title\25. Track 25.wav

Pre-gap length 0:00:01.60

Peak level 62.9 % Track quality 100.0 % Copy CRC 8086D8DF Track not present in AccurateRip database Copy OK

Track 26

Filename C:\Users\Victor\Music\Unknown Artist\Unknown Title\26. Track 26.wav

Pre-gap length 0:00:01.69

Peak level 96.7 % Track quality 100.0 % Copy CRC 2AA1ABFC Track not present in AccurateRip database Copy OK

Track 27

Filename C:\Users\Victor\Music\Unknown Artist\Unknown Title\27. Track 27.wav

Pre-gap length 0:00:01.60

Peak level 97.7 % Track quality 100.0 % Copy CRC EC2FD82D Track not present in AccurateRip database Copy OK

Track 28

Filename C:\Users\Victor\Music\Unknown Artist\Unknown Title\28. Track 28.wav

Pre-gap length 0:00:01.60

Peak level 99.1 % Track quality 100.0 % Copy CRC EE8FA2F7 Track not present in AccurateRip database Copy OK

Track 29

Filename C:\Users\Victor\Music\Unknown Artist\Unknown Title\29. Track 29.wav

Pre-gap length 0:00:02.10

Peak level 91.8 % Track quality 100.0 % Copy CRC C0649FE3 Track not present in AccurateRip database Copy OK

Track 30

Filename C:\Users\Victor\Music\Unknown Artist\Unknown Title\30. Track 30.wav

Pre-gap length 0:00:01.60

Peak level 97.9 % Track quality 100.0 % Copy CRC C2A12443 Track not present in AccurateRip database Copy OK

Track 31

Filename C:\Users\Victor\Music\Unknown Artist\Unknown Title\31. Track 31.wav

Pre-gap length 0:00:02.09

Peak level 99.8 % Track quality 100.0 % Copy CRC F0DEF821 Track not present in AccurateRip database Copy OK

Track 32

Filename C:\Users\Victor\Music\Unknown Artist\Unknown Title\32. Track 32.wav

Pre-gap length 0:00:02.60

Peak level 80.1 % Track quality 100.0 % Copy CRC B38D757C Track not present in AccurateRip database Copy OK

Track 33

Filename C:\Users\Victor\Music\Unknown Artist\Unknown Title\33. Track 33.wav

Pre-gap length 0:00:01.60

Peak level 76.3 % Track quality 100.0 % Copy CRC 09E8F7FC Track not present in AccurateRip database Copy OK

Track 34

Filename C:\Users\Victor\Music\Unknown Artist\Unknown Title\34. Track 34.wav

Pre-gap length 0:00:01.46

Peak level 57.9 % Track quality 100.0 % Copy CRC FF8CA9FF Track not present in AccurateRip database Copy OK

Track 35

Filename C:\Users\Victor\Music\Unknown Artist\Unknown Title\35. Track 35.wav

Pre-gap length 0:00:01.60

Peak level 91.5 % Track quality 100.0 % Copy CRC DFC1840F Track not present in AccurateRip database Copy OK

Track 36

Filename C:\Users\Victor\Music\Unknown Artist\Unknown Title\36. Track 36.wav

Pre-gap length 0:00:02.10

Peak level 49.9 % Track quality 100.0 % Copy CRC 100E2A54 Track not present in AccurateRip database Copy OK

Track 37

Filename C:\Users\Victor\Music\Unknown Artist\Unknown Title\37. Track 37.wav

Pre-gap length 0:00:01.60

Peak level 89.8 % Track quality 100.0 % Copy CRC 6871ED4A Track not present in AccurateRip database Copy OK

Track 38

Filename C:\Users\Victor\Music\Unknown Artist\Unknown Title\38. Track 38.wav

Pre-gap length 0:00:02.10

Peak level 69.4 % Track quality 100.0 % Copy CRC EC9B25FB Track not present in AccurateRip database Copy OK

Track 39

Filename C:\Users\Victor\Music\Unknown Artist\Unknown Title\39. Track 39.wav

Pre-gap length 0:00:01.60

Peak level 85.5 % Track quality 100.0 % Copy CRC 7D42C0E2 Track not present in AccurateRip database Copy OK

Track 40

Filename C:\Users\Victor\Music\Unknown Artist\Unknown Title\40. Track 40.wav

Pre-gap length 0:00:01.60

Peak level 99.1 % Track quality 100.0 % Copy CRC 8D4CDCC6 Track not present in AccurateRip database Copy OK

Track 41

Filename C:\Users\Victor\Music\Unknown Artist\Unknown Title\41. Track 41.wav

Pre-gap length 0:00:01.60

Peak level 99.1 % Track quality 100.0 % Copy CRC ED706D33 Track not present in AccurateRip database Copy OK

Track 42

Filename C:\Users\Victor\Music\Unknown Artist\Unknown Title\42. Track 42.wav

Pre-gap length 0:00:02.10

Peak level 73.9 % Track quality 100.0 % Copy CRC 43717706 Track not present in AccurateRip database Copy OK

Track 43

Filename C:\Users\Victor\Music\Unknown Artist\Unknown Title\43. Track 43.wav

Pre-gap length 0:00:01.60

Peak level 85.5 % Track quality 100.0 % Copy CRC 20005952 Track not present in AccurateRip database Copy OK

Track 44

Filename C:\Users\Victor\Music\Unknown Artist\Unknown Title\44. Track 44.wav

Pre-gap length 0:00:01.60

Peak level 92.7 % Track quality 100.0 % Copy CRC A0E1239E Track not present in AccurateRip database Copy OK

Track 45

Filename C:\Users\Victor\Music\Unknown Artist\Unknown Title\45. Track 45.wav

Pre-gap length 0:00:02.60

Peak level 85.3 % Track quality 100.0 % Copy CRC D3AE446B Track not present in AccurateRip database Copy OK

Track 46

Filename C:\Users\Victor\Music\Unknown Artist\Unknown Title\46. Track 46.wav

Pre-gap length 0:00:02.10

Peak level 99.1 % Track quality 100.0 % Copy CRC F00D80B3 Track not present in AccurateRip database Copy OK

Track 47

Filename C:\Users\Victor\Music\Unknown Artist\Unknown Title\47. Track 47.wav

Pre-gap length 0:00:01.60

Peak level 99.1 % Track quality 100.0 % Copy CRC 91E1EA59 Track not present in AccurateRip database Copy OK

None of the tracks are present in the AccurateRip database

No errors occurred

End of status report
REM DISCID AE0D032FPERFORMER "Fujisawa Yoshiaki"TITLE "Yuru Yuri Nachuyachumi! Special Sound CD OST Zenbuiri"REM COMMENT "CUERipper v2.1.5 Copyright (C) 2008-13 Grigory Chudov"FILE "01 – BLEAK_WORLD.flac" WAVE TRACK 01 AUDIO PERFORMER "Fujisawa Yoshiaki" TITLE "BLEAK_WORLD" ISRC JPPC01500011 INDEX 01 00:00:00 TRACK 02 AUDIO PERFORMER "Fujisawa Yoshiaki" TITLE "Mou Fumofu no Nachu" ISRC JPPC01500012 INDEX 00 02:25:22FILE "02 – Mou Fumofu no Nachu.flac" WAVE INDEX 01 00:00:00 TRACK 03 AUDIO PERFORMER "Fujisawa Yoshiaki" TITLE "Chinatsu no Sainan" ISRC JPPC01500013 INDEX 00 00:37:21FILE "03 – Chinatsu no Sainan.flac" WAVE INDEX 01 00:00:00 TRACK 04 AUDIO PERFORMER "Fujisawa Yoshiaki" TITLE "C&Y ~Suteki na Mousou~" ISRC JPPC01500014 INDEX 00 00:39:22FILE "04 – C&Y ~Suteki na Mousou~.flac" WAVE INDEX 01 00:00:00 TRACK 05 AUDIO PERFORMER "Fujisawa Yoshiaki" TITLE "Do Hentai wa Omae da" ISRC JPPC01500015 INDEX 00 00:19:24FILE "05 – Do Hentai wa Omae da.flac" WAVE INDEX 01 00:00:00 TRACK 06 AUDIO PERFORMER "Fujisawa Yoshiaki" TITLE "Suzuyaka na Unchiku" ISRC JPPC01500016 INDEX 00 00:16:57FILE "06 – Suzuyaka na Unchiku.flac" WAVE INDEX 01 00:00:00 TRACK 07 AUDIO PERFORMER "Fujisawa Yoshiaki" TITLE "Oshiire no Nakami wa Nanjaro na" ISRC JPPC01500017 INDEX 00 01:02:09FILE "07 – Oshiire no Nakami wa Nanjaro na.flac" WAVE INDEX 01 00:00:00 TRACK 08 AUDIO PERFORMER "Fujisawa Yoshiaki" TITLE "Shizen to wa" ISRC JPPC01500018 INDEX 00 01:37:29FILE "08 – Shizen to wa.flac" WAVE INDEX 01 00:00:00 TRACK 09 AUDIO PERFORMER "Fujisawa Yoshiaki" TITLE "Tetterere ~Tettetere~" ISRC JPPC01500019 INDEX 00 00:51:49FILE "09 – Tetterere ~Tettetere~.flac" WAVE INDEX 01 00:00:00 TRACK 10 AUDIO PERFORMER "Fujisawa Yoshiaki" TITLE "Tea Time wa Joshi Ryoku Totomoni" ISRC JPPC01500020 INDEX 00 00:55:64FILE "10 – Tea Time wa Joshi Ryoku Totomoni.flac" WAVE INDEX 01 00:00:00 TRACK 11 AUDIO PERFORMER "Fujisawa Yoshiaki" TITLE "1-nensei Tachi no Yuuga na Dotabata" ISRC JPPC01500021 INDEX 00 00:45:48FILE "11 – 1-nensei Tachi no Yuuga na Dotabata.flac" WAVE INDEX 01 00:00:00 TRACK 12 AUDIO PERFORMER "Fujisawa Yoshiaki" TITLE "Itoshii Ribbon no Shuugekisha!" ISRC JPPC01500022 INDEX 00 04:03:42FILE "12 – Itoshii Ribbon no Shuugekisha!.flac" WAVE INDEX 01 00:00:00 TRACK 13 AUDIO PERFORMER "Fujisawa Yoshiaki" TITLE "Koisuru Otome wa Muteki da mon!!" ISRC JPPC01500023 INDEX 00 00:47:31FILE "13 – Koisuru Otome wa Muteki da mon!!.flac" WAVE INDEX 01 00:00:00 TRACK 14 AUDIO PERFORMER "Fujisawa Yoshiaki" TITLE "Let's! Enjoy! Kyanpurin! Yume no Dream Set" ISRC JPPC01500024 INDEX 00 00:28:60FILE "14 – Let's! Enjoy! Kyanpurin! Yume no Dream Set.flac" WAVE INDEX 01 00:00:00 TRACK 15 AUDIO PERFORMER "Fujisawa Yoshiaki" TITLE "Ano ko to Ano ko no My Room" ISRC JPPC01500025 INDEX 00 01:24:40FILE "15 – Ano ko to Ano ko no My Room.flac" WAVE INDEX 01 00:00:00 TRACK 16 AUDIO PERFORMER "Fujisawa Yoshiaki" TITLE "Natsu!!!! Tte Kanji no Melody" ISRC JPPC01500026 INDEX 00 01:15:45FILE "16 – Natsu!!!! Tte Kanji no Melody.flac" WAVE INDEX 01 00:00:00 TRACK 17 AUDIO PERFORMER "Fujisawa Yoshiaki" TITLE "Obaa-chan" ISRC JPPC01500027 INDEX 00 01:06:25FILE "17 – Obaa-chan.flac" WAVE INDEX 01 00:00:00 TRACK 18 AUDIO PERFORMER "Fujisawa Yoshiaki" TITLE "Miracle on the Miracle" ISRC JPPC01500028 INDEX 00 00:32:73FILE "18 – Miracle on the Miracle.flac" WAVE INDEX 01 00:00:00 TRACK 19 AUDIO PERFORMER "Fujisawa Yoshiaki" TITLE "E Iro Totsuzen ja Arimasen ka" ISRC JPPC01500029 INDEX 00 01:38:69FILE "19 – E Iro Totsuzen ja Arimasen ka.flac" WAVE INDEX 01 00:00:00 TRACK 20 AUDIO PERFORMER "Fujisawa Yoshiaki" TITLE "Sou Ieba…Chinatsu no Ryouritte......" ISRC JPPC01500030 INDEX 00 00:30:35FILE "20 – Sou Ieba…Chinatsu no Ryouritte.......flac" WAVE INDEX 01 00:00:00 TRACK 21 AUDIO PERFORMER "Fujisawa Yoshiaki" TITLE "Honobono Dai-shizen" ISRC JPPC01500031 INDEX 00 02:05:30FILE "21 – Honobono Dai-shizen.flac" WAVE INDEX 01 00:00:00 TRACK 22 AUDIO PERFORMER "Fujisawa Yoshiaki" TITLE "Seito kai no Takuhaibin" ISRC JPPC01500032 INDEX 00 01:22:36FILE "22 – Seito kai no Takuhaibin.flac" WAVE INDEX 01 00:00:00 TRACK 23 AUDIO PERFORMER "Fujisawa Yoshiaki" TITLE "Datte Tanoshii nda mon" ISRC JPPC01500033 INDEX 00 01:09:36FILE "23 – Datte Tanoshii nda mon.flac" WAVE INDEX 01 00:00:00 TRACK 24 AUDIO PERFORMER "Fujisawa Yoshiaki" TITLE "Seesaw" ISRC JPPC01500034 INDEX 00 00:52:69FILE "24 – Seesaw.flac" WAVE INDEX 01 00:00:00 TRACK 25 AUDIO PERFORMER "Fujisawa Yoshiaki" TITLE "Futari wo Tsunagu Kumo no Ito" ISRC JPPC01500035 INDEX 00 01:21:28FILE "25 – Futari wo Tsunagu Kumo no Ito.flac" WAVE INDEX 01 00:00:00 TRACK 26 AUDIO PERFORMER "Fujisawa Yoshiaki" TITLE "Masaka no Retort desu no" ISRC JPPC01500036 INDEX 00 00:23:15FILE "26 – Masaka no Retort desu no.flac" WAVE INDEX 01 00:00:00 TRACK 27 AUDIO PERFORMER "Fujisawa Yoshiaki" TITLE "Yuke! Kaidashihan!" ISRC JPPC01500037 INDEX 00 01:09:37FILE "27 – Yuke! Kaidashihan!.flac" WAVE INDEX 01 00:00:00 TRACK 28 AUDIO PERFORMER "Fujisawa Yoshiaki" TITLE "Shocking Lily" ISRC JPPC01500038 INDEX 00 01:54:00FILE "28 – Shocking Lily.flac" WAVE INDEX 01 00:00:00 TRACK 29 AUDIO PERFORMER "Fujisawa Yoshiaki" TITLE "Dokaan to Ichi Hatsu! Let's! Fire" ISRC JPPC01500039 INDEX 00 03:40:07FILE "29 – Dokaan to Ichi Hatsu! Let's! Fire.flac" WAVE INDEX 01 00:00:00 TRACK 30 AUDIO PERFORMER "Fujisawa Yoshiaki" TITLE "Karee wo Tabeyou" ISRC JPPC01500040 INDEX 00 00:54:06FILE "30 – Karee wo Tabeyou.flac" WAVE INDEX 01 00:00:00 TRACK 31 AUDIO PERFORMER "Fujisawa Yoshiaki" TITLE "Onaka mo Purin mo Panpakapan" ISRC JPPC01500041 INDEX 00 01:42:01FILE "31 – Onaka mo Purin mo Panpakapan.flac" WAVE INDEX 01 00:00:00 TRACK 32 AUDIO PERFORMER "Fujisawa Yoshiaki" TITLE "Star Jewel ~Kirakira no Omoidetachi~" ISRC JPPC01500042 INDEX 00 01:41:62FILE "32 – Star Jewel ~Kirakira no Omoidetachi~.flac" WAVE INDEX 01 00:00:00 TRACK 33 AUDIO PERFORMER "Fujisawa Yoshiaki" TITLE "Yaharisou Naru" ISRC JPPC01500043 INDEX 00 00:53:60FILE "33 – Yaharisou Naru.flac" WAVE INDEX 01 00:00:00 TRACK 34 AUDIO PERFORMER "Fujisawa Yoshiaki" TITLE "Tarete Masu yo, Imouto-san" ISRC JPPC01500044 INDEX 00 00:24:58FILE "34 – Tarete Masu yo, Imouto-san.flac" WAVE INDEX 01 00:00:00 TRACK 35 AUDIO PERFORMER "Fujisawa Yoshiaki" TITLE "Kowaku Tatte Daijoubu" ISRC JPPC01500045 INDEX 00 00:09:41FILE "35 – Kowaku Tatte Daijoubu.flac" WAVE INDEX 01 00:00:00 TRACK 36 AUDIO PERFORMER "Fujisawa Yoshiaki" TITLE "Aishuu no Senritsu" ISRC JPPC01500046 INDEX 00 00:33:38FILE "36 – Aishuu no Senritsu.flac" WAVE INDEX 01 00:00:00 TRACK 37 AUDIO PERFORMER "Fujisawa Yoshiaki" TITLE "KYOUHU" ISRC JPPC01500047 INDEX 00 00:21:36FILE "37 – KYOUHU.flac" WAVE INDEX 01 00:00:00 TRACK 38 AUDIO PERFORMER "Fujisawa Yoshiaki" TITLE "Mankitsushuu" ISRC JPPC01500048 INDEX 00 00:30:11FILE "38 – Mankitsushuu.flac" WAVE INDEX 01 00:00:00 TRACK 39 AUDIO PERFORMER "Fujisawa Yoshiaki" TITLE "Akuryoku Not Otomeryoku" ISRC JPPC01500049 INDEX 00 00:15:69FILE "39 – Akuryoku Not Otomeryoku.flac" WAVE INDEX 01 00:00:00 TRACK 40 AUDIO PERFORMER "Fujisawa Yoshiaki" TITLE "Hora, Anata no Nocchi ni..." ISRC JPPC01500050 INDEX 00 00:14:18FILE "40 – Hora, Anata no Nocchi ni....flac" WAVE INDEX 01 00:00:00 TRACK 41 AUDIO PERFORMER "Fujisawa Yoshiaki" TITLE "Chinure no Namakubi" ISRC JPPC01500051 INDEX 00 00:23:05FILE "41 – Chinure no Namakubi.flac" WAVE INDEX 01 00:00:00 TRACK 42 AUDIO PERFORMER "Fujisawa Yoshiaki" TITLE "Waio Furo Akari wo Furoda...!!" ISRC JPPC01500052 INDEX 00 00:42:28FILE "42 – Waio Furo Akari wo Furoda...!!.flac" WAVE INDEX 01 00:00:00 TRACK 43 AUDIO PERFORMER "Fujisawa Yoshiaki" TITLE "Shiawase no Katachi" ISRC JPPC01500053 INDEX 00 00:42:47FILE "43 – Shiawase no Katachi.flac" WAVE INDEX 01 00:00:00 TRACK 44 AUDIO PERFORMER "Fujisawa Yoshiaki" TITLE "Warera no Nejiro e!!" ISRC JPPC01500054 INDEX 00 01:46:55FILE "44 – Warera no Nejiro e!!.flac" WAVE INDEX 01 00:00:00 TRACK 45 AUDIO PERFORMER "Fujisawa Yoshiaki" TITLE "Camping no Yoru" ISRC JPPC01500055 INDEX 00 00:24:02FILE "45 – Camping no Yoru.flac" WAVE INDEX 01 00:00:00 TRACK 46 AUDIO PERFORMER "Fujisawa Yoshiaki" TITLE "Saikou no Nachu Yachumi" ISRC JPPC01500056 INDEX 00 02:06:45FILE "46 – Saikou no Nachu Yachumi.flac" WAVE INDEX 01 00:00:00 TRACK 47 AUDIO PERFORMER "Fujisawa Yoshiaki" TITLE "Tadaima Okaeri" ISRC JPPC01500057 INDEX 00 02:44:09FILE "47 – Tadaima Okaeri.flac" WAVE INDEX 01 00:00:00


Трекер:  [ 31-Мар-2016 01:30 ]

  

Скачать .torrent

Размер .torrent файла 19 KB


Размер: 357 MB
Хэш (hash) релиза: ec972ebed8e3d692805d932cbcdb3f42da2e7293

Еще никто не оставлял запись к записи скачать торрент Лилии на ветру: Летние каникулы Yuru Yuri Nachuyachumi! . Будь первым!

!Обратная связь