Bloons td5 | Cмотреть трейлер | Tye Sheridan

Скачать через торрент [VIDEO] Не хлебом единым бесплатно русская версия torrent активатор

Статистика раздачи
Размер:  1000 MB   |    Зарегистрирован:  2 года 3 месяца   |    .torrent скачан:  35 раз   |   
Раздают:  1  
   
загрузка...
 
Автор Сообщение

Galfimbul

avatar Galfimbul


Не хлебом единым
Год выпуска: 2005

Страна: Россия
Жанр: драма
Продолжительность: 01:52:31

Режиссер: Говорухин Станислав
Сценарий: Валуцкий Владимир
Продюсер: Екатерина Маскина
Оператор: Клименко Юрий
Композитор: Брамс Иоганнес
Художник: Гидулянов Валентин
Монтаж: Вера Круглова

В ролях: Светлана Ходченкова, Михаил Елисеев, Виктор Сухоруков, Алексей Петренко, Александр Розенбаум, Варвара Шулятьева, Валентина Березуцкая, Владимир Стержаков, Татьяна Михеева, Дарья Паржизек, Виктор Борцов, Евгений Гришковец, Станислав Говорухин, Юлия Ауг, Иван Агапов, Владимир Семаго, Александр Яковлев, Сергей Серов, Наталья Гатиятова, Сергей Внуков, Сергей Каплунов, Владимир Медведев, Антон Денисов, Марк Гейхман, Иван Кокорин

Описание: В основе сюжета картины - одноименный роман Дудинцева, впервые опубликованный в журнале "Новый мир" в 1956 году сразу после ХХ съезда партии. Фильм о драматической судьбе инженера-изобретателя Лопаткина, который, столкнувшись с бюрократической системой, решил с ней побороться.

Качество: DVDRip |<a href="viewtopic.php?t=1627302" class="postLink">DVD9</a>|
Формат: MP4

Видео: 600x360, [email protected], AR:1.66, 1080 kbps, 25.000 fps, 0.200 bpp
Аудио: 2ch, 48 kHz, 160 kbps
Cубтитры: английские

[b]Релиз:

</a></span></span>
ОбщееУникальный идентификатор : 184142528591622777224764269678190970388 (0x8A888F9CB629F0FD9DEF02250A4CC614)Полное имя : [email protected]Формат : MatroskaВерсия формата : Version 4 / Version 2Размер файла : 1000 МбайтПродолжительность : 1 ч. 52 м.Общий поток : 1243 Кбит/секНазвание фильма : Не хлебом единым / 2005 [email protected]=-Дата кодирования : UTC 2016-03-30 19:47:26Программа кодирования : mkvmerge v9.0.1 ('Obstacles') 64bitБиблиотека кодирования : libebml v1.3.3 + libmatroska v1.4.4Attachments : Ne-khlebom-edinym-350.jpg

ВидеоИдентификатор : 1Формат : AVCФормат/Информация : Advanced Video CodecПрофиль формата : [email protected]Параметр CABAC формата : ДаПараметр ReFrames формата : 9 кадровИдентификатор кодека : V_MPEG4/ISO/AVCПродолжительность : 1 ч. 52 м.Битрейт : 1080 Кбит/секШирина : 600 пикселейВысота : 360 пикселейСоотношение сторон : 5:3Режим частоты кадров : ПостоянныйЧастота кадров : 25,000 кадров/секЦветовое пространство : YUVСубдискретизация насыщенности : 4:2:0Битовая глубина : 8 битТип развёртки : ПрогрессивнаяБит/(Пиксели*Кадры) : 0.200Размер потока : 869 Мбайт (87%)Заголовок : Rip by nnlabetikБиблиотека кодирования : x264 core 146 r2538 121396cНастройки программы : cabac=1 / ref=9 / deblock=1:-2:-1 / analyse=0x3:0x113 / me=umh / subme=11 / psy=1 / psy_rd=1.00:0.00 / mixed_ref=1 / me_range=32 / chroma_me=1 / trellis=2 / 8x8dct=1 / cqm=0 / deadzone=21,11 / fast_pskip=0 / chroma_qp_offset=-2 / threads=4 / lookahead_threads=1 / sliced_threads=0 / nr=0 / decimate=1 / interlaced=0 / bluray_compat=0 / constrained_intra=0 / bframes=10 / b_pyramid=2 / b_adapt=2 / b_bias=0 / direct=3 / weightb=1 / open_gop=0 / weightp=0 / keyint=250 / keyint_min=25 / scenecut=40 / intra_refresh=0 / rc_lookahead=60 / rc=2pass / mbtree=1 / bitrate=1080 / ratetol=1.0 / qcomp=0.60 / qpmin=0 / qpmax=69 / qpstep=4 / cplxblur=20.0 / qblur=0.5 / vbv_maxrate=14000 / vbv_bufsize=14000 / nal_hrd=none / filler=0 / ip_ratio=1.35 / aq=1:1.00Язык : RussianDefault : ДаForced : НетЦветовой диапазон : LimitedОсновные цвета : BT.709Характеристики трансфера : BT.709Коэффициенты матрицы : BT.709

АудиоИдентификатор : 2Формат : AACФормат/Информация : Advanced Audio CodecПрофиль формата : LCИдентификатор кодека : A_AACПродолжительность : 1 ч. 52 м.Битрейт : 160 Кбит/секКаналы : 2 каналаРасположение каналов : Front: L RЧастота : 48,0 КГцЧастота кадров : 46,875 кадров/сек (1024 spf)Метод сжатия : С потерямиРазмер потока : 129 Мбайт (13%)Язык : RussianDefault : ДаForced : Нет

ТекстИдентификатор : 3Формат : UTF-8Идентификатор кодека : S_TEXT/UTF8Идентификатор кодека/Информация : UTF-8 Plain TextПродолжительность : 1 ч. 51 м.Битрейт : 57 бит/секCount of elements : 1449Размер потока : 46,5 Кбайт (0%)Язык : EnglishDefault : НетForced : Нет

Меню00:00:00.000 : :Chapter 0100:03:53.400 : :Chapter 0200:10:44.920 : :Chapter 0300:16:01.600 : :Chapter 0400:23:18.080 : :Chapter 0500:29:47.920 : :Chapter 0600:36:13.320 : :Chapter 0700:43:57.680 : :Chapter 0800:50:01.960 : :Chapter 0901:00:01.840 : :Chapter 1001:12:01.280 : :Chapter 1101:24:51.880 : :Chapter 1201:30:05.000 : :Chapter 1301:38:47.280 : :Chapter 1401:45:02.320 : :Chapter 1501:51:01.120 : :Chapter 1601:52:30.480 : :Chapter 17


Трекер:  [ 31-Мар-2016 01:30 ]

  

Скачать .torrent

Размер .torrent файла 20 KB


Размер: 1000 MB
Хэш (hash) релиза: 0ad1d8b106662359efd47c497683f5431dd51009

Еще никто не оставлял запись к записи скачать торрент [VIDEO] Не хлебом единым . Будь первым!

!Обратная связь