Dark Matter S03E04 HDTV x264 SVA ettv | BD Dragon Crisis Subtitle Indonesia | Vol. 2 Ch. 53 - Read Online

Скачать через торрент [MULT] Головоломка Inside Out бесплатно русская версия torrent активатор

Статистика раздачи
Размер:  410 MB   |    Зарегистрирован:  2 года 3 месяца   |    .torrent скачан:  635 раз   |   
Раздают:  1  
   
загрузка...
 
Автор Сообщение

Galfimbul

avatar Galfimbul



Головоломка / Inside Out

«Нет слов, одни эмоции»
Год выпуска: 2015
Страна: США
Жанр: мультфильм, семейный, комедия
Продолжительность: 01:34:49
Перевод: [Русский] Профессиональный (полное дублирование) Blu-ray EUR|
Cубтитры: нет
Режиссеры: Пит Доктeр / Pete Dоcter, Рoналдо Дель Кармен / Rоnnie Del Carmen
Роли озвучивали: Льюис Блэк, Минди Кейлинг, Билл Хейдер, Эми Полер, Филлис Смит, Ричард Кайнд, Кейтлин Диас, Дайан Лэйн, Кайл МакЛоклен, Пола Паундстон и другие .
Роли дублировали: Натали, Олеся Железняк, Максим Виторган, Владимир Епифанцев, Дмитрий Нагиев, Ксения Собчак и другие .
Описание: Райли — обычная 11-летняя школьница, и, как у каждого из нас, ее поведение определяют пять базовых эмоций: Радость, Печаль, Страх, Гнев и Брезгливость. Эмоции живут в сознании девочки и каждый день помогают ей справляться с проблемами, руководя всеми ее поступками. До поры до времени эмоции живут дружно, но вдруг оказывается, что Райли и ее родителям предстоит переезд из небольшого уютного городка в шумный и людный мегаполис. Каждая из эмоций считает, что именно она лучше прочих знает, что нужно делать в этой непростой ситуации, и в голове у девочки наступает полная неразбериха. Чтобы наладить жизнь в большом городе, освоиться в новой школе и подружиться с одноклассниками, эмоциям Райли предстоит снова научиться работать сообща..
Релиз группы
Качество:HDRip / <a href="viewtopic.php?t=5108126" class="postLink">рип с BDRip 720p (Лицензия)</a> Формат: MP4 Видео кодек: XviD Аудио кодек: AAC Видео: 480x272 AR: 16/9 468 kbps 23.976 fps
Аудио: [Русский] 2ch 48 kHz 128 kbps Blu-ray EUR

Момент, когда Радость и Бинго-Бонго запели песню для поиска «корабля на Луну», корабль дал им позывной в виде пяти тональных сигналов, это отсылка к фильму «Близкие контакты третьей степени» (1977), где инопланетяне для связи с землянами использовали пять тональных сигналов.
В мультфильме обыгрывается одна из аксиом психологии: игнорирование отдельных эмоций, какими бы негативными или бесполезными они ни казались, ведёт к стрессу и депрессии.
Авторы мультфильма выделили 5 самых основных эмоций, чтобы сделать их характеры более четкими и яркими. Так, например, Радость «поглотила» такие эмоции, как гордость и доверие.
Идея «Головоломки» пришла к режиссеру Питу Доктеру после того, как его собственная дочь прошла через трудный подростковый период.
По словам Пита Доктера, каждая эмоция была основана на определенном визуальном образе: Радость — на звездочке, Печаль — на слезе, Гнев — на огненном кирпиче, Страх — на натянутом нерве, Брезгливость — на брокколи (несмотря на то что, по признанию Пита, он сам очень любит брокколи).

ОбщееПолное имя : D:\Torrents\Inside Out.2015.HDRip.XviD.480x.rip by Frost O.S.mp4Формат : MPEG-4Профиль формата : Base MediaИдентификатор кодека : isomРазмер файла : 410 МбайтПродолжительность : 1 ч. 34 м.Режим общего битрейта : ПеременныйОбщий поток : 604 Кбит/секНазвание фильма : Inside Out 2015 HDRip XviD 480x rip by Frost O SТип содержимого : Short FilmДата кодирования : UTC 2015-11-04 11:15:54Дата пометки : UTC 2015-11-04 11:16:06Программа кодирования : MkvToMp4 version: 0.224 (x64)Обложка : Yes

ВидеоИдентификатор : 1Формат : MPEG-4 VisualПрофиль формата : Advanced [email protected]Параметр BVOP формата : ДаПараметр QPel формата : НетПараметр GMC формата : Без точки переходаПараметр матрицы формата : ВыборочнаяИдентификатор кодека : 20Продолжительность : 1 ч. 34 м.Вид битрейта : ПеременныйБитрейт : 468 Кбит/секМаксимальный битрейт : 3341 Кбит/секШирина : 480 пикселейВысота : 272 пикселяСоотношение сторон : 16:9Режим частоты кадров : ПостоянныйЧастота кадров : 23,976 кадра/секЦветовое пространство : YUVСубдискретизация насыщенности : 4:2:0Битовая глубина : 8 битТип развёртки : ПрогрессивнаяМетод сжатия : С потерямиБит/(Пиксели*Кадры) : 0.149Размер потока : 317 Мбайт (77%)Библиотека кодирования : XviD 73Язык : EnglishДата пометки : UTC 2015-11-04 11:15:57

АудиоИдентификатор : 2Формат : AACФормат/Информация : Advanced Audio CodecПрофиль формата : LCИдентификатор кодека : 40Продолжительность : 1 ч. 34 м.Вид битрейта : ПеременныйБитрейт : 128 Кбит/секМаксимальный битрейт : 182 Кбит/секКаналы : 2 каналаРасположение каналов : Front: L RЧастота : 48,0 КГцМетод сжатия : С потерямиРазмер потока : 86,7 Мбайт (21%)Заголовок : [Dub] Blu_ray EUR / [Dub] Blu_ray EURЯзык : RussianДата кодирования : UTC 2015-11-04 11:15:55Дата пометки : UTC 2015-11-04 11:15:57


Трекер:  [ 30-Мар-2016 17:00 ]

  

Скачать .torrent

Размер .torrent файла 16 KB


Размер: 410 MB
Хэш (hash) релиза: 4091cd6c6a92ade2d194ce3e2fadf767c0997330

Еще никто не оставлял запись к записи скачать торрент [MULT] Головоломка Inside Out . Будь первым!

!Обратная связь