View Details » | Independence Day: Resurgence (2016) | YA Dystopia Novels

Скачать через торрент [MULT] Головоломка Inside Out бесплатно русская версия torrent активатор

Статистика раздачи
Размер:  1.11 GB   |    Зарегистрирован:  2 года 3 месяца   |    .torrent скачан:  771 раз   |   
Раздают:  1  
   
загрузка...
 
Автор Сообщение

Galfimbul

avatar Galfimbul



Головоломка / Inside Out

«Нет слов, одни эмоции»
Год выпуска: 2015
Страна: США
Жанр: мультфильм, семейный, комедия
Продолжительность: 01:34:49
Перевод №1: [Русский] Профессиональный (полное дублирование) Blu-ray EUR|
Перевод №2: [Украинский] Профессиональный (полное дублирование) Blu-ray EUR|
Оригинальная дорожка: Есть
Cубтитры: Softsub (русские, отключаемые)
Режиссеры: Пит Доктeр / Pete Dоcter, Рoналдо Дель Кармен / Rоnnie Del Carmen
Роли озвучивали: Льюис Блэк, Минди Кейлинг, Билл Хейдер, Эми Полер, Филлис Смит, Ричард Кайнд, Кейтлин Диас, Дайан Лэйн, Кайл МакЛоклен, Пола Паундстон и другие .
Роли дублировали: Натали, Олеся Железняк, Максим Виторган, Владимир Епифанцев, Дмитрий Нагиев, Ксения Собчак и другие .
Описание: Райли — обычная 11-летняя школьница, и, как у каждого из нас, ее поведение определяют пять базовых эмоций: Радость, Печаль, Страх, Гнев и Брезгливость. Эмоции живут в сознании девочки и каждый день помогают ей справляться с проблемами, руководя всеми ее поступками. До поры до времени эмоции живут дружно, но вдруг оказывается, что Райли и ее родителям предстоит переезд из небольшого уютного городка в шумный и людный мегаполис. Каждая из эмоций считает, что именно она лучше прочих знает, что нужно делать в этой непростой ситуации, и в голове у девочки наступает полная неразбериха. Чтобы наладить жизнь в большом городе, освоиться в новой школе и подружиться с одноклассниками, эмоциям Райли предстоит снова научиться работать сообща..
Релиз группы
Качество:HDRip / <a href="viewtopic.php?t=5108126" class="postLink">рип с BDRip 720p (Лицензия)</a> Формат: MP4 Видео кодек: H.264 Аудио кодек: AAC Видео: 960x536 AR: 16/9 1274 kbps 23.976 fps
Аудио №1: [Русский] 2ch 48 kHz 128 kbps Blu-ray EUR
Аудио №2: [Украинский] 2ch 48 kHz 128 kbps Blu-ray EUR
Аудио №3: [Английский] 2ch 48 kHz 128 kbps Blu-ray EUR

Момент, когда Радость и Бинго-Бонго запели песню для поиска «корабля на Луну», корабль дал им позывной в виде пяти тональных сигналов, это отсылка к фильму «Близкие контакты третьей степени» (1977), где инопланетяне для связи с землянами использовали пять тональных сигналов.
В мультфильме обыгрывается одна из аксиом психологии: игнорирование отдельных эмоций, какими бы негативными или бесполезными они ни казались, ведёт к стрессу и депрессии.
Авторы мультфильма выделили 5 самых основных эмоций, чтобы сделать их характеры более четкими и яркими. Так, например, Радость «поглотила» такие эмоции, как гордость и доверие.
Идея «Головоломки» пришла к режиссеру Питу Доктеру после того, как его собственная дочь прошла через трудный подростковый период.
По словам Пита Доктера, каждая эмоция была основана на определенном визуальном образе: Радость — на звездочке, Печаль — на слезе, Гнев — на огненном кирпиче, Страх — на натянутом нерве, Брезгливость — на брокколи (несмотря на то что, по признанию Пита, он сам очень любит брокколи).


...last pass...

x264.exe: --pass 2 --bitrate 1274 --preset medium --profile high --level 4.1 --ref 8 --aq-strength 0.9 --deblock -2:-2 --merange 32 --bframes 8 --direct auto --b-adapt 2 --trellis 0 --no-fast-pskip --no-dct-decimate --psy-rd 0.60:0.00 --subme 11 --me umh --rc-lookahead 60 --colorprim bt709 --transfer bt709 --colormatrix bt709 --sar 1:1 --stats "D:\Inside Out [2015].720p.Rus.log" --output "D:\Inside Out [2015].720p.Rus.mp4" "D:\XVID4PSP 5\Temp\0092.avs"

avs [info]: 960x536p 1:1 @ 2500000/104271 fps (cfr)
x264 [info]: using SAR=1/1
x264 [info]: using cpu capabilities: MMX2 SSE2Fast SSSE3 SSE4.2 LZCNT
x264 [info]: profile High, level 4.1

x264 [info]: frame I:1395 Avg QP:16.29 size: 76554
x264 [info]: frame P:36898 Avg QP:19.99 size: 14212
x264 [info]: frame B:98125 Avg QP:24.64 size: 2801
x264 [info]: consecutive B-frames: 5.1% 5.0% 10.8% 39.6% 15.1% 21.1% 1.5% 0.9% 1.0%
x264 [info]: mb I I16..4: 15.1% 58.1% 26.8%
x264 [info]: mb P I16..4: 4.0% 7.3% 1.5% P16..4: 38.5% 13.7% 9.8% 0.0% 0.0% skip:25.1%
x264 [info]: mb B I16..4: 0.3% 0.8% 0.2% B16..8: 24.8% 4.5% 1.4% direct: 1.5% skip:66.5% L0:38.7% L1:50.5% BI:10.8%
x264 [info]: 8x8 transform intra:58.1% inter:53.4%
x264 [info]: direct mvs spatial:90.7% temporal:9.3%
x264 [info]: coded y,uvDC,uvAC intra: 64.0% 75.9% 51.8% inter: 9.3% 11.5% 5.5%
x264 [info]: i16 v,h,dc,p: 38% 17% 6% 39%
x264 [info]: i8 v,h,dc,ddl,ddr,vr,hd,vl,hu: 12% 13% 5% 8% 12% 12% 14% 11% 14%
x264 [info]: i4 v,h,dc,ddl,ddr,vr,hd,vl,hu: 13% 14% 5% 8% 13% 12% 13% 9% 13%
x264 [info]: i8c dc,h,v,p: 33% 29% 18% 20%
x264 [info]: Weighted P-Frames: Y:2.2% UV:1.0%
x264 [info]: ref P L0: 59.2% 12.7% 12.1% 4.7% 3.3% 3.2% 2.5% 1.8% 0.5% 0.0%
x264 [info]: ref B L0: 82.8% 7.2% 4.4% 1.8% 2.0% 1.2% 0.6%
x264 [info]: ref B L1: 94.2% 5.8%
x264 [info]: kb/s:1273.94
encoded 136418 frames, 17.66 fps, 1273.94 kb/s
ОбщееПолное имя : D:\Torrents\Inside Out.2015.HDRip.x264.960x.rip by Frost O.S.mp4Формат : MPEG-4Профиль формата : Base MediaИдентификатор кодека : isomРазмер файла : 1,11 ГбайтПродолжительность : 1 ч. 34 м.Режим общего битрейта : ПеременныйОбщий поток : 1673 Кбит/секНазвание фильма : Inside Out 2015 HDRip x264 960x rip by Frost O SЖанр : AnimationТип содержимого : Short FilmДата кодирования : UTC 2015-11-04 11:46:25Дата пометки : UTC 2015-11-04 11:47:48Программа кодирования : MkvToMp4 version: 0.224 (x64)Обложка : YesПримечание : rip by Frost O.SLongDescription : Райли — обычная 11-летняя школьница, и, как у каждого из нас, ее поведение определяют пять базовых эмоций: Радость, Печаль, Страх, Гнев и Брезгливость. Эмоции живут в сознании девочки и каждый день помогают ей справляться с проблемами, руководя всеми ее поступками. До поры до времени эмоции живут дружно, но вдруг оказывается, что Райли и ее родителям предстоит переезд из небольшого уютного городка в шумный и людный мегаполис. Каждая из эмоций считает, что именно она лучше прочих знает, что нужно делать в этой непростой ситуации, и в голове у девочки наступает полная неразбериха. Чтобы наладить жизнь в большом городе, освоиться в новой школе и подружиться с одноклассниками, эмоциям Райли предстоит снова научиться работать сообща.ContentRating : ru-movie|6+|150|

ВидеоИдентификатор : 1Формат : AVCФормат/Информация : Advanced Video CodecПрофиль формата : [email protected]Параметр CABAC формата : ДаПараметр ReFrames формата : 8 кадровИдентификатор кодека : avc1Идентификатор кодека/Информация : Advanced Video CodingПродолжительность : 1 ч. 34 м.Битрейт : 1274 Кбит/секМаксимальный битрейт : 7905 Кбит/секШирина : 960 пикселейВысота : 536 пикселейСоотношение сторон : 16:9Режим частоты кадров : ПостоянныйЧастота кадров : 23,976 кадра/секЦветовое пространство : YUVСубдискретизация насыщенности : 4:2:0Битовая глубина : 8 битТип развёртки : ПрогрессивнаяБит/(Пиксели*Кадры) : 0.103Размер потока : 864 Мбайт (76%)Библиотека кодирования : x264 core 130 r2273 b3065e6Настройки программы : cabac=1 / ref=8 / deblock=1:-2:-2 / analyse=0x3:0x113 / me=umh / subme=9 / psy=1 / psy_rd=0.60:0.00 / mixed_ref=1 / me_range=32 / chroma_me=1 / trellis=0 / 8x8dct=1 / cqm=0 / deadzone=21,11 / fast_pskip=0 / chroma_qp_offset=-2 / threads=3 / lookahead_threads=1 / sliced_threads=0 / nr=0 / decimate=0 / interlaced=0 / bluray_compat=0 / constrained_intra=0 / bframes=8 / b_pyramid=2 / b_adapt=2 / b_bias=0 / direct=3 / weightb=1 / open_gop=0 / weightp=2 / keyint=250 / keyint_min=23 / scenecut=40 / intra_refresh=0 / rc_lookahead=60 / rc=2pass / mbtree=1 / bitrate=1274 / ratetol=1.0 / qcomp=0.60 / qpmin=0 / qpmax=69 / qpstep=4 / cplxblur=20.0 / qblur=0.5 / ip_ratio=1.40 / aq=1:0.90Язык : EnglishДата кодирования : UTC 2015-11-04 11:46:25Дата пометки : UTC 2015-11-04 11:46:56Цветовой диапазон : LimitedОсновные цвета : BT.709Характеристики трансфера : BT.709Коэффициенты матрицы : BT.709

Аудио #1Идентификатор : 2Формат : AACФормат/Информация : Advanced Audio CodecПрофиль формата : LCИдентификатор кодека : 40Продолжительность : 1 ч. 34 м.Вид битрейта : ПеременныйБитрейт : 128 Кбит/секМаксимальный битрейт : 135 Кбит/секКаналы : 2 каналаРасположение каналов : Front: L RЧастота : 48,0 КГцМетод сжатия : С потерямиРазмер потока : 86,8 Мбайт (8%)Заголовок : [Dub] Blu_ray EUR / [Dub] Blu_ray EURЯзык : RussianДата кодирования : UTC 2015-11-04 11:46:36Дата пометки : UTC 2015-11-04 11:46:56

Аудио #2Идентификатор : 3Формат : AACФормат/Информация : Advanced Audio CodecПрофиль формата : LCИдентификатор кодека : 40Продолжительность : 1 ч. 34 м.Вид битрейта : ПеременныйБитрейт : 128 Кбит/секМаксимальный битрейт : 135 Кбит/секКаналы : 2 каналаРасположение каналов : Front: L RЧастота : 48,0 КГцМетод сжатия : С потерямиРазмер потока : 86,8 Мбайт (8%)Заголовок : [Dub] Blu_ray EUR / [Dub] Blu_ray EURЯзык : UkrainianДата кодирования : UTC 2015-11-04 11:46:45Дата пометки : UTC 2015-11-04 11:46:56

Аудио #3Идентификатор : 4Формат : AACФормат/Информация : Advanced Audio CodecПрофиль формата : LCИдентификатор кодека : 40Продолжительность : 1 ч. 34 м.Вид битрейта : ПеременныйБитрейт : 128 Кбит/секМаксимальный битрейт : 135 Кбит/секКаналы : 2 каналаРасположение каналов : Front: L RЧастота : 48,0 КГцМетод сжатия : С потерямиРазмер потока : 86,8 Мбайт (8%)Заголовок : [Original] / [Original]Язык : EnglishДата кодирования : UTC 2015-11-04 11:46:50Дата пометки : UTC 2015-11-04 11:46:56

ТекстИдентификатор : 5Формат : Timed TextРежим смешивания : sbtlИдентификатор кодека : tx3gПродолжительность : 1 ч. 27 м.Вид битрейта : ПеременныйБитрейт : 82 бит/секРазмер потока : 52,7 Кбайт (0%)Язык : RussianДата кодирования : UTC 2015-11-04 11:46:56Дата пометки : UTC 2015-11-04 11:46:56


Трекер:  [ 30-Мар-2016 17:00 ]

  

Скачать .torrent

Размер .torrent файла 11 KB


Размер: 1.11 GB
Хэш (hash) релиза: 9edb451e9ae193c2bc523f9557803e72251a6ab8

Еще никто не оставлял запись к записи скачать торрент [MULT] Головоломка Inside Out . Будь первым!

!Обратная связь