Download | I Feel Pretty (2018) | Computers and Internet

Скачать через торрент [VIDEO] Пришельцы 2: Коридоры времени Les couloirs du temps: Les visiteurs II бесплатно русская версия torrent активатор

Статистика раздачи
Размер:  1.68 GB   |    Зарегистрирован:  2 года 3 месяца   |    .torrent скачан:  47 раз   |   
Раздают:  1  
   
загрузка...
 
Автор Сообщение

Galfimbul

avatar Galfimbul


Пришельцы 2: Коридоры времени / Les couloirs du temps: Les visiteurs II [Open Matte]«Ils reviennent!»

Год выпуска: 1998
Страна: Франция
Жанр: фантастика, фэнтези, комедия, семейный
Продолжительность: 01:52:47
Перевод №1: Профессиональный (многоголосый закадровый) - Амальгама / Союз / DVD-Group
Перевод №2: Авторский (одноголосый закадровый) - Юрий Сербин / Видеосервис
Перевод №3: Авторский (одноголосый закадровый) - Леонид Володарский
Cубтитры: нет
Режиссер: Жан-Мари Пуаре / Jean-Marie Poiré
Сценаристы: Кристиан Клавье / Christian Clavier, Жан-Мари Пуаре / Jean-Marie Poiré
Оператор: Кристоф Бокарн / Christophe Beaucarne
Композитор: Эрик Леви / Eric Levi
В ролях: Кристиан Клавье / Christian Clavier (Jacquouille la Fripouille / Jacques-Henri Jacquard / Prosper le Purineur / Jacouillet), Жан Рено / Jean Reno (Comte Godefroy de Montmirail, dit Godefroy le Hardi), Мюриэль Робен / Muriel Robin (Frénégonde / Béatrice), Мари-Анн Шазель / Marie-Anne Chazel (Ginette), Жан-Люк Карон / Jean-Luc Caron (Ganelon), Патрик Бюржель / Patrick Burgel (Duc Fulbert) и другие .
Бюджет: FRF 140 000 000Сборы в США: $146 072Зрители: 8.04 млн., 535.8 тыс., 365.4 тыс.Премьера (мир): 11 февраля 1998Релиз на DVD: 30 октября 2008, «Союз-Видео»
Описание: Если Вы выпили волшебного снадобья и попали в средневековье не надейтесь на свои сотовый телефон и службу спасения: еще никому не удавалось вырваться из лап святой инквизиции. И вы не сможете вернуться обратно, ведь в вашем времени действует ваш двойник-наивный средневековый пройдоха Жакуй.

Ваша единственная надежда-доблестный граф Де Монмирай, который не может жениться, так как Жакуй похитил у его будущего шурина святые реликвии и спрятал их в нашем времени.

Теперь граф с помощью чар великого волшебника Эусебиуса должен восстановить ход времени, отправить предков в прошлое, а потомков в будущее, иначе коридоры времени не закроются, и произойдет вселенская катастрофа.
Релиз группы
Качество: HDTVRip / <a href="viewtopic.php?t=4858767" class="postLink">рип HDTV 1080i [Open Matte]</a>
Формат: MP4
Видео кодек: H.264
Аудио кодек: AAC
Видео: 960x540 AR:16/9 1740 kbps 25 fps
Аудио №1: [Russian] 2ch 48 kHz 128 kbps - [MVO] Амальгама / Союз / DVD-Group
Аудио №2: [Russian] 2ch 48 kHz 128 kbps - [VO] Юрий Сербин / Видеосервис
Аудио №3: [Russian] 2ch 48 kHz 128 kbps - [VO] Леонид Володарский
avs [info]: 960x540p 1:1 @ 25/1 fps (cfr)
x264 [info]: using SAR=1/1
x264 [info]: using cpu capabilities: MMX2 SSE2Fast SSSE3 SSE4.2 LZCNT
x264 [info]: profile High, level 4.1

x264 [info]: frame I:2980 Avg QP:20.94 size: 70823
x264 [info]: frame P:44903 Avg QP:25.10 size: 16023
x264 [info]: frame B:121226 Avg QP:28.55 size: 4460
x264 [info]: consecutive B-frames: 4.3% 5.1% 9.9% 53.5% 11.8% 11.5% 2.3% 1.3% 0.4%
x264 [info]: mb I I16..4: 8.7% 69.0% 22.3%
x264 [info]: mb P I16..4: 1.8% 9.2% 2.0% P16..4: 33.5% 34.4% 11.5% 0.0% 0.0% skip: 7.5%
x264 [info]: mb B I16..4: 0.2% 1.2% 0.2% B16..8: 36.1% 15.7% 2.9% direct: 2.7% skip:40.8% L0:41.0% L1:48.9% BI:10.1%
x264 [info]: 8x8 transform intra:70.7% inter:64.6%
x264 [info]: direct mvs spatial:98.5% temporal:1.5%
x264 [info]: coded y,uvDC,uvAC intra: 80.0% 75.2% 36.5% inter: 15.3% 10.4% 2.3%
x264 [info]: i16 v,h,dc,p: 38% 20% 4% 37%
x264 [info]: i8 v,h,dc,ddl,ddr,vr,hd,vl,hu: 8% 6% 4% 10% 15% 15% 15% 13% 13%
x264 [info]: i4 v,h,dc,ddl,ddr,vr,hd,vl,hu: 14% 10% 4% 8% 13% 14% 13% 11% 12%
x264 [info]: i8c dc,h,v,p: 32% 26% 23% 20%
x264 [info]: Weighted P-Frames: Y:2.8% UV:0.6%
x264 [info]: ref P L0: 56.2% 14.5% 15.5% 4.9% 3.6% 2.6% 2.5% 0.3% 0.0%
x264 [info]: ref B L0: 84.6% 8.6% 3.9% 1.6% 0.9% 0.4%
x264 [info]: ref B L1: 94.7% 5.3%
x264 [info]: kb/s:1739.99

x264 [total]: encoded 169109 frames, 7.00 fps, 1739.99 kb/s
GeneralComplete name : D:\Torrents\Les couloirs du temps Les visiteurs II.1998.HDTVRip.x264.960x.rip by Frost O.S.mp4Format : MPEG-4Format profile : Base MediaCodec ID : isomFile size : 1.68 GiBDuration : 1h 52mnOverall bit rate mode : VariableOverall bit rate : 2 139 KbpsMovie name : Les couloirs du temps Les visiteurs II 1998 HDTVRip x264 960x rip by Frost O SGenre : ComedyContentType : Short FilmEncoded date : UTC 2016-03-30 13:48:39Tagged date : UTC 2016-03-30 13:51:38Writing application : MkvToMp4 version: 0.224 (x64)Cover : YesComment : rip by Frost O.SLongDescription : Если Вы выпили волшебного снадобья и попали в средневековье не надейтесь на свои сотовый телефон и службу спасения: еще никому не удавалось вырваться из лап святой инквизиции. И вы не сможете вернуться обратно, ведь в вашем времени действует ваш двойник-наивный средневековый пройдоха Жакуй. Ваша единственная надежда-доблестный граф Де Монмирай, который не может жениться, так как Жакуй похитил у его будущего шурина святые реликвии и спрятал их в нашем времени. Теперь граф с помощью чар великого волшебника Эусебиуса должен восстановить ход времени, отправить предков в прошлое, а потомков в будущее, иначе коридоры времени не закроются, и произойдет вселенская катастрофа.

VideoID : 1Format : AVCFormat/Info : Advanced Video CodecFormat profile : [email protected] settings, CABAC : YesFormat settings, ReFrames : 7 framesCodec ID : avc1Codec ID/Info : Advanced Video CodingDuration : 1h 52mnBit rate : 1 740 KbpsMaximum bit rate : 7 480 KbpsWidth : 960 pixelsHeight : 540 pixelsDisplay aspect ratio : 16:9Frame rate mode : ConstantFrame rate : 25.000 fpsColor space : YUVChroma subsampling : 4:2:0Bit depth : 8 bitsScan type : ProgressiveBits/(Pixel*Frame) : 0.134Stream size : 1.37 GiB (81%)Writing library : x264 core 130 r2273 b3065e6Encoding settings : cabac=1 / ref=7 / deblock=1:-1:-1 / analyse=0x3:0x113 / me=umh / subme=11 / psy=1 / psy_rd=1.10:0.05 / mixed_ref=1 / me_range=32 / chroma_me=1 / trellis=2 / 8x8dct=1 / cqm=0 / deadzone=21,11 / fast_pskip=0 / chroma_qp_offset=-3 / threads=3 / lookahead_threads=1 / sliced_threads=0 / nr=0 / decimate=0 / interlaced=0 / bluray_compat=0 / constrained_intra=0 / bframes=8 / b_pyramid=2 / b_adapt=2 / b_bias=0 / direct=3 / weightb=1 / open_gop=0 / weightp=2 / keyint=250 / keyint_min=25 / scenecut=40 / intra_refresh=0 / rc_lookahead=60 / rc=2pass / mbtree=1 / bitrate=1740 / ratetol=1.0 / qcomp=0.60 / qpmin=0 / qpmax=69 / qpstep=4 / cplxblur=20.0 / qblur=0.5 / ip_ratio=1.40 / aq=1:0.90Language : EnglishEncoded date : UTC 2016-03-30 13:48:39Tagged date : UTC 2016-03-30 13:49:41Color primaries : BT.709Transfer characteristics : BT.709Matrix coefficients : BT.709Color range : Limited

Audio #1ID : 2Format : AACFormat/Info : Advanced Audio CodecFormat profile : LCCodec ID : 40Duration : 1h 52mnBit rate mode : VariableBit rate : 128 KbpsMaximum bit rate : 135 KbpsChannel(s) : 2 channelsChannel positions : Front: L RSampling rate : 48.0 KHzCompression mode : LossyStream size : 103 MiB (6%)Title : [MVO] Amalgama Souz DVD_Group / [MVO] Amalgama Souz DVD_GroupLanguage : RussianEncoded date : UTC 2016-03-30 13:49:07Tagged date : UTC 2016-03-30 13:49:41

Audio #2ID : 3Format : AACFormat/Info : Advanced Audio CodecFormat profile : LCCodec ID : 40Duration : 1h 52mnBit rate mode : VariableBit rate : 128 KbpsMaximum bit rate : 135 KbpsChannel(s) : 2 channelsChannel positions : Front: L RSampling rate : 48.0 KHzCompression mode : LossyStream size : 103 MiB (6%)Title : [VO] Serbin / [VO] SerbinLanguage : RussianEncoded date : UTC 2016-03-30 13:49:09Tagged date : UTC 2016-03-30 13:49:41

Audio #3ID : 4Format : AACFormat/Info : Advanced Audio CodecFormat profile : LCCodec ID : 40Duration : 1h 52mnBit rate mode : VariableBit rate : 128 KbpsMaximum bit rate : 135 KbpsChannel(s) : 2 channelsChannel positions : Front: L RSampling rate : 48.0 KHzCompression mode : LossyStream size : 103 MiB (6%)Title : [VO] Volodarskiy / [VO] VolodarskiyLanguage : RussianEncoded date : UTC 2016-03-30 13:49:30Tagged date : UTC 2016-03-30 13:49:41


Трекер:  [ 30-Мар-2016 16:00 ]

  

Скачать .torrent

Размер .torrent файла 17 KB


Размер: 1.68 GB
Хэш (hash) релиза: 9c5549f51af0c6f4606d464bf3e6d75350f8c40f

Еще никто не оставлял запись к записи скачать торрент [VIDEO] Пришельцы 2: Коридоры времени Les couloirs du temps: Les visiteurs II . Будь первым!

!Обратная связь