And Then There Were None | Райан Филипп | Underground

Скачать через торрент [VIDEO] Приключения Рокки и Буллвинкля The Adventures of Rocky & Bullwinkle бесплатно русская версия torrent активатор

Статистика раздачи
Размер:  765 MB   |    Зарегистрирован:  2 года 3 месяца   |    .torrent скачан:  15 раз   |   
Раздают:  1  
   
загрузка...
 
Автор Сообщение

Galfimbul

avatar Galfimbul


Приключения Рокки и Буллвинкля / The Adventures of Rocky & Bullwinkle
«Де Ниро, Руссо, Александр, Лось, Белка»

Год выпуска: 2000
Страна: США, Германия
Жанр: мультфильм, фэнтези, комедия, приключения, семейный
Продолжительность: 01:27:57
Перевод: Профессиональный (Многоголосый, закадровый)
Cубтитры: нет
Режиссер: Дес МакАнуфф / Des McAnuff
Сценаристы: Кеннет Лонерган / Kenneth Lonergan, Джей Уорд / Jay Ward
Монтажер: Дэннис Вирклер / Dennis Virkler
Оператор: Томас Э. Экермен / Thomas E. Ackerman
Композитор: Марк Мазерсбо / Mark Mothersbaugh
В ролях: Пайпер Перабо / Piper Perabo (Karen Sympathy), Роберт Де Ниро / Robert De Niro (Fearless Leader), Рене Руссо / Rene Russo (Natasha), Джейсон Александр / Jason Alexander (Boris), Рэнди Куэйд / Randy Quaid (Cappy von Trapment), Джун Форэй / June Foray (Rocky / Cartoon Natasha Fatale / рассказчик's Mother, озвучка), Кит Скотт / Keith Scott (Bullwinkle / рассказчик / Cartoon Boris Badenov / Cartoon Fearless Leader, озвучка), Джанин Гарофало / Janeane Garofalo (Minnie Mogul), Карл Райнер / Carl Reiner (P.G. Biggershot) и другие .
Роли дублировали: Жанна Никонова, Всеволод Кузнецов, Лариса Некипелова, Юрий Маляров, Рудольф Панков, Ольга Голованова, Леонид Белозорович и другие .
Бюджет: $76 000 000Маркетинг: $22 600 000Сборы в США: $26 005 820Сборы в мире: + $9 129 000 = $35 134 820Зрители: 4.73 млн, 1.03 млн, 44.3 тыс.Премьера (мир): 24 июня 2000Релиз на DVD: 17 апреля 2001, «West Video»
Описание: Двое злодеев времен «холодной войны», злые шпионы из Поттсильвании Борис Баденов и Наташа Фаталь объединяют свои усилия с современным медиа-магнатом — Бесстрашным Лидером, который строит коварные планы завоевания мира. Не в силах справиться со злодеями, ФБР призывает на помощь бесстрашную парочку — говорящего лося Буллвинкля и летающую белку Рокки.

В основу ленты положен популярный телевизионный мультсериал 60-х годов. Роберт Де Ниро всегда был большим его поклонником, и поэтому производство картины осуществила его кинокомпания Tribeca Prods., а сам он не только исполнил одну из ролей, но и выступил в качестве продюсера.

В эпизодических ролях снялись такие знаменитости, как Билли Кристал, Джон Гудман, Вупи Голдберг, Джанин Гарофало и Карл Райнер. Компьютерные спецэффекты создала компания ILM.
Релиз группы
Качество:DVDRip / <a href="viewtopic.php?t=3531763" class="postLink">DVD9</a>
Формат: MP4
Видео кодек: H.264
Аудио кодек: AAC
Видео: 640x350 AR:1.85 1080 kbps 25 fps
Аудио: [Русский] 2ch 48 kHz 128 kbps - [MVO]
avs [info]: 640x350p 1:1 @ 25/1 fps (cfr)
x264 [info]: using SAR=1/1
x264 [info]: using cpu capabilities: MMX2 SSE2Fast SSSE3 SSE4.2 LZCNT
x264 [info]: profile High, level 4.1

x264 [info]: frame I:1256 Avg QP:16.41 size: 35556
x264 [info]: frame P:31309 Avg QP:19.83 size: 11045
x264 [info]: frame B:99360 Avg QP:22.13 size: 3239
x264 [info]: consecutive B-frames: 2.9% 4.3% 9.8% 27.4% 17.5% 28.6% 5.6% 2.4% 1.5%
x264 [info]: mb I I16..4: 7.0% 59.7% 33.3%
x264 [info]: mb P I16..4: 1.5% 10.6% 2.5% P16..4: 31.9% 31.1% 12.7% 2.6% 0.4% skip: 6.8%
x264 [info]: mb B I16..4: 0.2% 1.4% 0.3% B16..8: 31.7% 19.4% 3.1% direct: 4.8% skip:39.1% L0:39.1% L1:40.5% BI:20.3%
x264 [info]: 8x8 transform intra:70.9% inter:56.5%
x264 [info]: direct mvs spatial:96.4% temporal:3.6%
x264 [info]: coded y,uvDC,uvAC intra: 84.0% 80.0% 54.0% inter: 22.1% 18.3% 6.6%
x264 [info]: i16 v,h,dc,p: 20% 18% 10% 52%
x264 [info]: i8 v,h,dc,ddl,ddr,vr,hd,vl,hu: 11% 13% 9% 8% 11% 11% 12% 11% 15%
x264 [info]: i4 v,h,dc,ddl,ddr,vr,hd,vl,hu: 14% 16% 8% 7% 12% 11% 11% 9% 12%
x264 [info]: i8c dc,h,v,p: 32% 33% 20% 16%
x264 [info]: Weighted P-Frames: Y:5.4% UV:1.7%
x264 [info]: ref P L0: 47.7% 12.8% 17.3% 6.1% 5.4% 3.9% 3.8% 2.5% 0.5% 0.0%
x264 [info]: ref B L0: 78.2% 11.0% 4.7% 2.5% 1.9% 1.2% 0.5%
x264 [info]: ref B L1: 93.4% 6.6%
x264 [info]: kb/s:1079.81

x264 [total]: encoded 131925 frames, 11.59 fps, 1079.81 kb/s
GeneralComplete name : D:\Torrents\The Adventures of Rocky & Bullwinkle.2000.DVDRip.x264.640x.rip by Frost O.S.mp4Format : MPEG-4Format profile : Base MediaCodec ID : isomFile size : 765 MiBDuration : 1h 27mnOverall bit rate mode : VariableOverall bit rate : 1 216 KbpsMovie name : The Adventures of Rocky & Bullwinkle 2000 DVDRip x264 640x rip by Frost O SGenre : Animation, ComedyContentType : Short FilmEncoded date : UTC 2016-03-28 20:04:44Tagged date : UTC 2016-03-28 20:06:02Writing application : MkvToMp4 version: 0.224 (x64)Cover : YesComment : rip by Frost O.SLongDescription : Двое злодеев времен «холодной войны», злые шпионы из Поттсильвании Борис Баденов и Наташа Фаталь объединяют свои усилия с современным медиа-магнатом — Бесстрашным Лидером, который строит коварные планы завоевания мира. Не в силах справиться со злодеями, ФБР призывает на помощь бесстрашную парочку — говорящего лося Буллвинкля и летающую белку Рокки. В основу ленты положен популярный телевизионный мультсериал 60-х годов. Роберт Де Ниро всегда был большим его поклонником, и поэтому производство картины осуществила его кинокомпания Tribeca Prods., а сам он не только исполнил одну из ролей, но и выступил в качестве продюсера. В эпизодических ролях снялись такие знаменитости, как Билли Кристал, Джон Гудман, Вупи Голдберг, Джанин Гарофало и Карл Райнер. Компьютерные спецэффекты создала компания ILM.

VideoID : 1Format : AVCFormat/Info : Advanced Video CodecFormat profile : [email protected] settings, CABAC : YesFormat settings, ReFrames : 8 framesCodec ID : avc1Codec ID/Info : Advanced Video CodingDuration : 1h 27mnBit rate : 1 080 KbpsMaximum bit rate : 6 528 KbpsWidth : 640 pixelsHeight : 350 pixelsDisplay aspect ratio : 1.85:1Frame rate mode : ConstantFrame rate : 25.000 fpsColor space : YUVChroma subsampling : 4:2:0Bit depth : 8 bitsScan type : ProgressiveBits/(Pixel*Frame) : 0.193Stream size : 679 MiB (89%)Writing library : x264 core 130 r2273 b3065e6Encoding settings : cabac=1 / ref=8 / deblock=1:-1:-1 / analyse=0x3:0x133 / me=umh / subme=11 / psy=1 / psy_rd=0.50:0.05 / mixed_ref=1 / me_range=48 / chroma_me=1 / trellis=2 / 8x8dct=1 / cqm=0 / deadzone=21,11 / fast_pskip=0 / chroma_qp_offset=-3 / threads=3 / lookahead_threads=1 / sliced_threads=0 / nr=0 / decimate=0 / interlaced=0 / bluray_compat=0 / constrained_intra=0 / bframes=8 / b_pyramid=2 / b_adapt=2 / b_bias=0 / direct=3 / weightb=1 / open_gop=0 / weightp=2 / keyint=250 / keyint_min=25 / scenecut=40 / intra_refresh=0 / rc_lookahead=60 / rc=2pass / mbtree=1 / bitrate=1080 / ratetol=1.0 / qcomp=0.75 / qpmin=0 / qpmax=69 / qpstep=4 / cplxblur=20.0 / qblur=0.5 / ip_ratio=1.40 / aq=1:1.10Language : EnglishEncoded date : UTC 2016-03-28 20:04:44Tagged date : UTC 2016-03-28 20:05:16Color primaries : BT.601 PALTransfer characteristics : BT.470 System B, BT.470 System GMatrix coefficients : BT.601Color range : Limited

AudioID : 2Format : AACFormat/Info : Advanced Audio CodecFormat profile : LCCodec ID : 40Duration : 1h 27mnBit rate mode : VariableBit rate : 128 KbpsMaximum bit rate : 144 KbpsChannel(s) : 2 channelsChannel positions : Front: L RSampling rate : 48.0 KHzCompression mode : LossyStream size : 80.5 MiB (11%)Title : [MVO] / [MVO]Language : RussianEncoded date : UTC 2016-03-28 20:05:13Tagged date : UTC 2016-03-28 20:05:16


Трекер:  [ 28-Мар-2016 22:00 ]

  

Скачать .torrent

Размер .torrent файла 15 KB


Размер: 765 MB
Хэш (hash) релиза: 0caab43367088a5d787d09ee900b758c472d0c5f

Еще никто не оставлял запись к записи скачать торрент [VIDEO] Приключения Рокки и Буллвинкля The Adventures of Rocky & Bullwinkle . Будь первым!

!Обратная связь