WhatsApp APK | • Boardwalk Empire 7.6 | lucky patcher

Скачать через торрент [VIDEO] Флинтстоуны The Flintstones бесплатно русская версия torrent активатор

Статистика раздачи
Размер:  1.35 GB   |    Зарегистрирован:  2 года 3 месяца   |    .torrent скачан:  26 раз   |   
Раздают:  1  
   
загрузка...
 
Автор Сообщение

Galfimbul

avatar Galfimbul


Флинтстоуны / The Flintstones
«Yabba-Dabba-Doo!»


Год выпуска: 1994
Страна: США
Жанр: фэнтези, комедия, семейный
Продолжительность: 01:30:39
Перевод №1: Профессиональный (многоголосый, закадровый) SDI Media
Перевод №2: Профессиональный (двухголосый, закадровый) Премьер Видео Фильм
Перевод №3: Профессиональный (двухголосый, закадровый) НТВ+
Cубтитры: нет
Режиссер: Брайан Левант / Brian Levant
Сценаристы: Том С. Паркер / Tom S. Parker, Джим Дженниуайн / Jim Jennewein, Стивен Е. де Соуза / Steven E. de Souza
Монтажер: Кент Бейда / Kent Beyda
Оператор: Дин Канди / Dean Cundey
Композитор: Дэвид Ньюман / David Newman
В ролях: Джон Гудман / John Goodman (Fred Flintstone), Элизабет Перкинс / Elizabeth Perkins (Wilma Flintstone), Рик Морэнис / Rick Moranis (Barney Rubble), Рози О’Доннелл / Rosie O'Donnell (Betty Rubble), Кайл МакЛоклен / Kyle MacLachlan (Cliff Vandercave), Холли Берри / Halle Berry (Miss Stone), Элизабет Тейлор / Elizabeth Taylor (Pearl Slaghoople) и другие .
Бюджет: $46 000 000Сборы в США: $130 531 208Сборы в мире: + $211 100 000 = $341 631 208Зрители: 31.2 млн, 6.32 млн, 4.08 млнПремьера (мир): 23 мая 1994
Описание: Двое закадычных друзей Фред Флинтстоун и Барни Раббл уже много лет работают на каменоломне в Бедроке. Однажды начальство каменоломни решает провести тест среди рабочих, дабы выявить способных работников, которых ждёт повышение, а остальных — просто-напросто уволить.

Фред уверен, что не пройдёт этот тест и совсем потерял надежду, однако его добрый друг Барни, жаждущий отблагодарить приятеля за всю помощь, которую тот ему оказывал, незаметно поменял ответы на тест Фреда на свои. После чего Фреда повысили на работе, а Барни уволили. И чем шикарнее со временем становилась жизнь семьи Флинтстоунов, тем меньше крепла дружба Фреда и Барни.

Картина снималась в двух каньонах — в штатах Юта и Калифорния — с 17 мая по 20 августа 1993 года.
Этот фильм так и не вышел бы на экраны, если бы Джон Гудман отказался бы от роли Фреда Флинстоуна.
Роль Розетты Стоун по первоначальному плану должна была играть Шэрон Стоун, но из-за договорных обязательств фильма «Специалист» не смогла принять участие в съемках.

Релиз группы
Качество:HDRip / BDRip 720p
Формат: MP4
Видео кодек: H.264
Аудио кодек: AAC
Видео: 960x518 AR:1.85 1740 kbps 23.976 fps
Аудио №1: [Русский] 2ch 48 kHz 128 kbps - [MVO] SDI Media
Аудио №2: [Русский] 2ch 48 kHz 128 kbps - [DVO] Премьер Видео Фильм
Аудио №3: [Русский] 2ch 48 kHz 128 kbps - [DVO] НТВ+
avs [info]: 960x518p 1:1 @ 2997/125 fps (cfr)
x264 [info]: using SAR=1/1
x264 [info]: using cpu capabilities: MMX2 SSE2Fast SSSE3 SSE4.2 LZCNT
x264 [info]: profile High, level 4.1

x264 [info]: frame I:1379 Avg QP:18.34 size: 80045
x264 [info]: frame P:31148 Avg QP:22.32 size: 20228
x264 [info]: frame B:97888 Avg QP:26.36 size: 4517
x264 [info]: consecutive B-frames: 3.0% 3.9% 9.6% 28.8% 17.6% 32.6% 2.4% 1.3% 0.7%
x264 [info]: mb I I16..4: 6.8% 76.9% 16.3%
x264 [info]: mb P I16..4: 0.6% 6.9% 1.2% P16..4: 34.4% 36.0% 12.0% 0.0% 0.0% skip: 9.0%
x264 [info]: mb B I16..4: 0.0% 0.8% 0.1% B16..8: 35.2% 13.4% 2.1% direct: 2.6% skip:45.8% L0:39.7% L1:48.2% BI:12.1%
x264 [info]: 8x8 transform intra:79.1% inter:59.9%
x264 [info]: direct mvs spatial:97.8% temporal:2.2%
x264 [info]: coded y,uvDC,uvAC intra: 87.4% 72.7% 33.7% inter: 16.9% 11.7% 2.3%
x264 [info]: i16 v,h,dc,p: 22% 14% 4% 60%
x264 [info]: i8 v,h,dc,ddl,ddr,vr,hd,vl,hu: 9% 6% 4% 11% 16% 15% 15% 12% 12%
x264 [info]: i4 v,h,dc,ddl,ddr,vr,hd,vl,hu: 12% 6% 4% 10% 16% 15% 14% 12% 12%
x264 [info]: i8c dc,h,v,p: 31% 27% 20% 23%
x264 [info]: Weighted P-Frames: Y:2.9% UV:1.1%
x264 [info]: ref P L0: 54.4% 14.3% 15.5% 4.7% 3.8% 2.8% 2.6% 1.7% 0.3% 0.0%
x264 [info]: ref B L0: 86.4% 6.9% 3.0% 1.4% 1.2% 0.7% 0.4%
x264 [info]: ref B L1: 95.5% 4.5%
x264 [info]: kb/s:1739.32

x264 [total]: encoded 130415 frames, 7.18 fps, 1739.32 kb/s
GeneralComplete name : D:\Torrents\The Flintstones.1994.HDRip.x264.960x.rip by Frost O.S.mp4Format : MPEG-4Format profile : Base MediaCodec ID : isomFile size : 1.35 GiBDuration : 1h 30mnOverall bit rate mode : VariableOverall bit rate : 2 138 KbpsMovie name : The Flintstones 1994 HDRip x264 960x rip by Frost O SGenre : ComedyContentType : Short FilmEncoded date : UTC 2016-03-28 12:46:26Tagged date : UTC 2016-03-28 12:48:16Writing application : MkvToMp4 version: 0.224 (x64)Cover : YesComment : rip by Frost O.SLongDescription : Двое закадычных друзей Фред Флинтстоун и Барни Раббл уже много лет работают на каменоломне в Бедроке. Однажды начальство каменоломни решает провести тест среди рабочих, дабы выявить способных работников, которых ждёт повышение, а остальных — просто-напросто уволить. Фред уверен, что не пройдёт этот тест и совсем потерял надежду, однако его добрый друг Барни, жаждущий отблагодарить приятеля за всю помощь, которую тот ему оказывал, незаметно поменял ответы на тест Фреда на свои. После чего Фреда повысили на работе, а Барни уволили. И чем шикарнее со временем становилась жизнь семьи Флинтстоунов, тем меньше крепла дружба Фреда и Барни.

VideoID : 1Format : AVCFormat/Info : Advanced Video CodecFormat profile : [email protected] settings, CABAC : YesFormat settings, ReFrames : 8 framesCodec ID : avc1Codec ID/Info : Advanced Video CodingDuration : 1h 30mnBit rate : 1 740 KbpsMaximum bit rate : 9 993 KbpsWidth : 960 pixelsHeight : 518 pixelsDisplay aspect ratio : 1.85:1Frame rate mode : ConstantFrame rate : 23.976 fpsColor space : YUVChroma subsampling : 4:2:0Bit depth : 8 bitsScan type : ProgressiveBits/(Pixel*Frame) : 0.146Stream size : 1.10 GiB (81%)Writing library : x264 core 130 r2273 b3065e6Encoding settings : cabac=1 / ref=8 / deblock=1:-2:-2 / analyse=0x3:0x113 / me=umh / subme=11 / psy=1 / psy_rd=1.20:0.00 / mixed_ref=1 / me_range=32 / chroma_me=1 / trellis=2 / 8x8dct=1 / cqm=0 / deadzone=21,11 / fast_pskip=0 / chroma_qp_offset=-2 / threads=3 / lookahead_threads=1 / sliced_threads=0 / nr=0 / decimate=0 / interlaced=0 / bluray_compat=0 / constrained_intra=0 / bframes=8 / b_pyramid=2 / b_adapt=2 / b_bias=0 / direct=3 / weightb=1 / open_gop=0 / weightp=2 / keyint=250 / keyint_min=23 / scenecut=40 / intra_refresh=0 / rc_lookahead=60 / rc=2pass / mbtree=1 / bitrate=1740 / ratetol=1.0 / qcomp=0.60 / qpmin=0 / qpmax=69 / qpstep=4 / cplxblur=20.0 / qblur=0.5 / ip_ratio=1.40 / aq=1:0.90Language : EnglishEncoded date : UTC 2016-03-28 12:46:26Tagged date : UTC 2016-03-28 12:47:05Color primaries : BT.709Transfer characteristics : BT.709Matrix coefficients : BT.709Color range : Limited

Audio #1ID : 2Format : AACFormat/Info : Advanced Audio CodecFormat profile : LCCodec ID : 40Duration : 1h 30mnBit rate mode : VariableBit rate : 128 KbpsMaximum bit rate : 134 KbpsChannel(s) : 2 channelsChannel positions : Front: L RSampling rate : 48.0 KHzCompression mode : LossyStream size : 83.0 MiB (6%)Title : [MVO] SDI Media / [MVO] SDI MediaLanguage : RussianEncoded date : UTC 2016-03-28 12:46:54Tagged date : UTC 2016-03-28 12:47:05

Audio #2ID : 3Format : AACFormat/Info : Advanced Audio CodecFormat profile : LCCodec ID : 40Duration : 1h 30mnBit rate mode : VariableBit rate : 128 KbpsMaximum bit rate : 133 KbpsChannel(s) : 2 channelsChannel positions : Front: L RSampling rate : 48.0 KHzCompression mode : LossyStream size : 83.0 MiB (6%)Title : [DVO] Premier video filmLanguage : RussianEncoded date : UTC 2016-03-28 12:46:57Tagged date : UTC 2016-03-28 12:47:05

Audio #3ID : 4Format : AACFormat/Info : Advanced Audio CodecFormat profile : LCCodec ID : 40Duration : 1h 30mnBit rate mode : VariableBit rate : 128 KbpsMaximum bit rate : 135 KbpsChannel(s) : 2 channelsChannel positions : Front: L RSampling rate : 48.0 KHzCompression mode : LossyStream size : 83.0 MiB (6%)Title : [DVO] NTV_ / [DVO] NTV_Language : RussianEncoded date : UTC 2016-03-28 12:47:01Tagged date : UTC 2016-03-28 12:47:05


Трекер:  [ 28-Мар-2016 15:00 ]

  

Скачать .torrent

Размер .torrent файла 14 KB


Размер: 1.35 GB
Хэш (hash) релиза: 96014d77db15d8c2ae903da1538dc862ac7ca969

Еще никто не оставлял запись к записи скачать торрент [VIDEO] Флинтстоуны The Flintstones . Будь первым!

!Обратная связь