Chapter 218 | 1x07 La verdad | Поиск и опознание (Старые Игры)

Скачать через торрент [MULT] Барток Великолепный Bartok the Magnificent бесплатно русская версия torrent активатор

Статистика раздачи
Размер:  568 MB   |    Зарегистрирован:  2 года 3 месяца   |    .torrent скачан:  19 раз   |   
Раздают:  1  
   
загрузка...
 
Автор Сообщение

Galfimbul

avatar Galfimbul


Барток Великолепный / Bartok the Magnificent
«The lovable hero from Anastasia is back!»

Год выпуска: 1999
Страна: США
Жанр: мультфильм, семейный
Продолжительность: 01:05:20
Перевод: Профессиональный (многоголосый, закадровый)
Cубтитры: нет
Режиссеры: Дон Блут / Don Bluth, Гари Голдман / Gary Goldman
Сценарист: Джей Лакопо / Jay Lacopo
Монтажеры: Боб Бендер / Bob Bender, Фиона Трэйлер / Fiona Trayler
Композитор: Стефен Флаэрти / Stephen Flaherty
В ролях: Хэнк Азария / Hank Azaria (Bartok), Келси Грэммер / Kelsey Grammer (Zozi), Андреа Мартин / Andrea Martin (Baba Yaga), Кэтрин О’Хара / Catherine O'Hara (Ludmilla), Тим Карри / Tim Curry (The Skull), Дженнифер Тилли / Jennifer Tilly (Piloff) и другие .
Роли дублировали: Дмитрий Филимонов, Виктор Петров, Людмила Гнилова, Ольга Голованова, Никита Прозоровский, Ольга Гаспарова и другие . Премьера (мир): 16 ноября 1999Релиз на DVD: 22 августа 2006, «Двадцатый Век Фокс СНГ»
Описание: Барток — любитель уличных представлений. Он может всем и всегда рассказывать, какой он герой, хотя на самом деле он просто трусливый хвастунишка, и когда приходится доказывать свою храбрость на деле — он трусит.

Но когда молодого царевича Ивана похищают, нужен настоящий герой, чтобы победить злую Бабу-ягу и не допустить злую регентшу Людмилу на российский трон. И вот Бартоку приходится самому браться за спасение наследника и найти в себе мужество довести его до конца.
Релиз группы
Качество:DVDRip / <a href="viewtopic.php?t=1027783" class="postLink">DVD5 лицензия</a>
Формат: MP4
Видео кодек: H.264
Аудио кодек: AAC
Видео: 476x360 AR:4/3 1080 kbps 25 fps
Аудио: [Русский] 2ch 48 kHz 128 kbps - [MVO]
avs [info]: 476x360p 1:1 @ 25/1 fps (cfr)
x264 [info]: using SAR=1/1
x264 [info]: using cpu capabilities: MMX2 SSE2Fast SSSE3 SSE4.2 LZCNT
x264 [info]: profile High, level 4.1

x264 [info]: frame I:1038 Avg QP:12.20 size: 50769
x264 [info]: frame P:25712 Avg QP:16.14 size: 12192
x264 [info]: frame B:71272 Avg QP:20.11 size: 2289
x264 [info]: consecutive B-frames: 2.1% 3.3% 16.9% 52.4% 17.9% 5.7% 1.7%
x264 [info]: mb I I16..4: 6.1% 42.7% 51.2%
x264 [info]: mb P I16..4: 0.7% 2.6% 2.2% P16..4: 30.5% 28.9% 18.7% 5.2% 1.5% skip: 9.6%
x264 [info]: mb B I16..4: 0.1% 0.2% 0.2% B16..8: 30.7% 11.7% 3.3% direct: 2.4% skip:51.4% L0:44.5% L1:47.7% BI: 7.8%
x264 [info]: 8x8 transform intra:44.1% inter:32.4%
x264 [info]: direct mvs spatial:93.8% temporal:6.2%
x264 [info]: coded y,uvDC,uvAC intra: 81.2% 92.2% 87.1% inter: 15.7% 23.6% 19.7%
x264 [info]: i16 v,h,dc,p: 61% 17% 10% 13%
x264 [info]: i8 v,h,dc,ddl,ddr,vr,hd,vl,hu: 13% 12% 12% 8% 10% 9% 11% 10% 14%
x264 [info]: i4 v,h,dc,ddl,ddr,vr,hd,vl,hu: 14% 11% 8% 9% 12% 11% 11% 10% 13%
x264 [info]: i8c dc,h,v,p: 50% 22% 17% 12%
x264 [info]: Weighted P-Frames: Y:1.1% UV:0.9%
x264 [info]: ref P L0: 47.7% 4.1% 16.9% 6.8% 5.6% 5.0% 4.7% 2.9% 2.7% 2.9% 0.7% 0.0%
x264 [info]: ref B L0: 70.4% 13.2% 6.2% 2.6% 2.2% 1.8% 2.0% 1.0% 0.6%
x264 [info]: ref B L1: 88.8% 11.2%
x264 [info]: kb/s:1079.97
encoded 98022 frames, 12.78 fps, 1079.98 kb/s
neralComplete name : D:\Torrents\Bartok the Magnificent.1999.DVDRip.x264.640x.rip by Frost O.S.mp4Format : MPEG-4Format profile : Base MediaCodec ID : isomFile size : 568 MiBDuration : 1h 5mnOverall bit rate mode : VariableOverall bit rate : 1 216 KbpsMovie name : Bartok the Magnificent 1999 DVDRip x264 640x rip by Frost O SGenre : AnimationContentType : Short FilmEncoded date : UTC 2016-03-27 16:02:20Tagged date : UTC 2016-03-27 16:02:44Writing application : MkvToMp4 version: 0.224 (x64)Cover : YesComment : rip by Frost O.SLongDescription : Барток — любитель уличных представлений. Он может всем и всегда рассказывать, какой он герой, хотя на самом деле он просто трусливый хвастунишка, и когда приходится доказывать свою храбрость на деле — он трусит. Но когда молодого царевича Ивана похищают, нужен настоящий герой, чтобы победить злую Бабу-ягу и не допустить злую регентшу Людмилу на российский трон. И вот Бартоку приходится самому браться за спасение наследника и найти в себе мужество довести его до конца.

VideoID : 1Format : AVCFormat/Info : Advanced Video CodecFormat profile : [email protected] settings, CABAC : YesFormat settings, ReFrames : 10 framesCodec ID : avc1Codec ID/Info : Advanced Video CodingDuration : 1h 5mnBit rate : 1 080 KbpsMaximum bit rate : 4 246 KbpsWidth : 476 pixelsHeight : 360 pixelsDisplay aspect ratio : 4:3Frame rate mode : ConstantFrame rate : 25.000 fpsColor space : YUVChroma subsampling : 4:2:0Bit depth : 8 bitsScan type : ProgressiveBits/(Pixel*Frame) : 0.252Stream size : 505 MiB (89%)Writing library : x264 core 130 r2273 b3065e6Encoding settings : cabac=1 / ref=10 / deblock=1:1:1 / analyse=0x3:0x133 / me=umh / subme=11 / psy=1 / psy_rd=1.10:0.05 / mixed_ref=1 / me_range=48 / chroma_me=1 / trellis=2 / 8x8dct=1 / cqm=0 / deadzone=21,11 / fast_pskip=0 / chroma_qp_offset=-3 / threads=3 / lookahead_threads=1 / sliced_threads=0 / nr=0 / decimate=0 / interlaced=0 / bluray_compat=0 / constrained_intra=0 / bframes=6 / b_pyramid=2 / b_adapt=2 / b_bias=0 / direct=3 / weightb=1 / open_gop=0 / weightp=2 / keyint=250 / keyint_min=25 / scenecut=40 / intra_refresh=0 / rc_lookahead=60 / rc=2pass / mbtree=1 / bitrate=1080 / ratetol=1.0 / qcomp=0.60 / qpmin=0 / qpmax=69 / qpstep=4 / cplxblur=20.0 / qblur=0.5 / ip_ratio=1.40 / aq=1:0.80Language : EnglishEncoded date : UTC 2016-03-27 16:02:20Tagged date : UTC 2016-03-27 16:02:26Color primaries : BT.601 PALTransfer characteristics : BT.470 System B, BT.470 System GMatrix coefficients : BT.601Color range : Limited

AudioID : 2Format : AACFormat/Info : Advanced Audio CodecFormat profile : LCCodec ID : 40Duration : 1h 5mnBit rate mode : VariableBit rate : 128 KbpsMaximum bit rate : 133 KbpsChannel(s) : 2 channelsChannel positions : Front: L RSampling rate : 48.0 KHzCompression mode : LossyStream size : 59.8 MiB (11%)Title : [MVO] / [MVO]Language : RussianEncoded date : UTC 2016-03-27 16:02:25Tagged date : UTC 2016-03-27 16:02:26


Трекер:  [ 27-Мар-2016 18:30 ]

  

Скачать .torrent

Размер .torrent файла 11 KB


Размер: 568 MB
Хэш (hash) релиза: 6859923af0853504b53133fca1eb75eaabc91c8f

Еще никто не оставлял запись к записи скачать торрент [MULT] Барток Великолепный Bartok the Magnificent . Будь первым!

!Обратная связь