Watch Movie | Regarder un film | Safe.1995.720p.BluRay.x264-x0r

Скачать через торрент [VIDEO] Джиперс Криперс: Дилогия Jeepers Creepers: Dilogy бесплатно русская версия torrent активатор

Статистика раздачи
Размер:  2.83 GB   |    Зарегистрирован:  2 года 4 месяца   |    .torrent скачан:  31 раз   |   
Раздают:  1  
   
загрузка...
 
Автор Сообщение

Galfimbul

avatar Galfimbul


Джиперс Криперс: Дилогия / Jeepers Creepers: Dilogy

Джиперс Криперс / Jeepers Creepers
«Кто тебя пожирает?»

Год выпуска: 2001
Страна: Германия, США
Жанр: ужасы, триллер
Продолжительность: 01:30:39
Перевод №1: Профессиональный (полное дублирование)
Перевод №2: Авторский (одноголосый, закадровый) Живов
Cубтитры: нет
Режиссер: Виктор Сальва / Victor Salva
В ролях: Джина Филипс / Gina Philips, Джастин Лонг / Justin Long, Джонатан Брек / Jonathan Breck, Патриция Белчер / Patricia Belcherи, Айлин Бреннан / Eileen Brennan, Брэндон Смит / Brandon Smith, Пегги Шеффилд / Peggy Sheffield, Джеффри Уильям Эванс / Jeffrey William Evans, Патрик Черри / Patrick Cherry и другие .
Описание: Если бы Дэрри и Триш знали, во что превратится их обычное путешествие домой на каникулы, то остались бы в колледже навсегда. Брат и сестра заметили его на безлюдной дороге рядом с жуткой, обветшалой церковью. Страшная фигура в длинном чёрном плаще и широкополой шляпе скидывала в подвал свертки, испачканные чем-то красным. После увиденного нужно было немедленно вдавить педаль газа взятой напрокат машины и умчаться от этого проклятого места как можно дальше. Но Дэрри и Триш допустили непоправимую, смертельную ошибку. Они решили вернуться и посмотреть: что же он прячет там, в подвале покосившейся церкви? Это безрассудное любопытство обернулось самым невообразимым кошмаром, который только можно себе представить…
Релиз группы

Рабочее название картины — «И тут приходит Бугимен».
Виктор Сальва изначально писал роль монстра Крипера для Ланса Хенриксена.
Название картине дали первые слова припева старенького шлягера 30-х годов «Jeepers Creepers» Гарри Уоррена и Джонни Мерсера.
В заключительной сцене роль Крипера сыграл Джастин Лонг, игравший в картине его жертву Дерри Дженнера. А Джонатан Брек, весь фильм игравший Крипера, в одном из эпизодов появляется без грима в роли лысого полицейского. Режиссер же картины Виктор Сальва также обозначился в маленьком эпизоде — одной из жертв Крипера, приколотой в подвале церкви.
По первоначальному замыслу режиссера, концовка фильма должна быть дополнена еще одной сценой. На солнечной полянке, спустя 23 года после жутких событий, парень по имени Гарри (в исполнении того же Джастина Лонга) рассказывает эту историю своей девушке Лизе (опять Джина Филипс). Она не верит Гарри, но по дороге к автобусной станции путь им пересекает зловещий бронированный фургон, а по радио звучит веселенькая мелодия «Jeepers Creepers».
Песню «Джиперс Криперс» в 1938 году написали Гарри Уоррен и Джонни Мерсер, а в 1939 году на экраны вышли коротокометражный мультфильм «Джиперс Криперс» и одноименный полнометражный вестерн.
Вместо Патрисии Белчер в фильме могли сыграть Дебби Морган или Тина Тернер.

Качество: HDRip / рип с BDRip 720p
Формат: MP4
Видео кодек: H.264
Аудио кодек: AAC
Видео: 960x516 AR:1.85 1740 kbps 23.976 fps
Аудио №1: [Russian] 2ch 48 kHz 128 kbps - [Dub]
Аудио №2: [Russian] 2ch 48 kHz 128 kbps - [VO] Живов
avs [info]: 960x516p 1:1 @ 2997/125 fps (cfr)
x264 [info]: using SAR=1/1
x264 [info]: using cpu capabilities: MMX2 SSE2Fast SSSE3 SSE4.2 LZCNT
x264 [info]: profile High, level 4.1

x264 [info]: frame I:847 Avg QP:19.40 size: 49491
x264 [info]: frame P:27038 Avg QP:22.04 size: 15016
x264 [info]: frame B:102525 Avg QP:22.89 size: 7166
x264 [info]: consecutive B-frames: 1.5% 1.8% 7.1% 16.9% 18.8% 46.0% 4.5% 0.9% 1.2% 0.4% 1.0%
x264 [info]: mb I I16..4: 7.5% 81.2% 11.3%
x264 [info]: mb P I16..4: 0.8% 7.0% 0.9% P16..4: 39.9% 39.2% 7.8% 0.0% 0.0% skip: 4.4%
x264 [info]: mb B I16..4: 0.1% 1.5% 0.1% B16..8: 43.7% 16.7% 1.6% direct: 5.1% skip:31.3% L0:45.0% L1:50.2% BI: 4.8%
x264 [info]: 8x8 transform intra:83.1% inter:67.4%
x264 [info]: direct mvs spatial:98.1% temporal:1.9%
x264 [info]: coded y,uvDC,uvAC intra: 85.1% 48.1% 12.2% inter: 26.0% 11.5% 0.8%
x264 [info]: i16 v,h,dc,p: 33% 19% 8% 40%
x264 [info]: i8 v,h,dc,ddl,ddr,vr,hd,vl,hu: 11% 5% 6% 11% 15% 14% 13% 12% 12%
x264 [info]: i4 v,h,dc,ddl,ddr,vr,hd,vl,hu: 31% 7% 5% 7% 11% 12% 10% 8% 9%
x264 [info]: i8c dc,h,v,p: 34% 34% 19% 14%
x264 [info]: Weighted P-Frames: Y:5.7% UV:2.2%
x264 [info]: ref P L0: 45.5% 8.8% 18.0% 7.2% 5.7% 4.6% 3.9% 2.1% 1.9% 1.9% 0.3% 0.0%
x264 [info]: ref B L0: 67.0% 12.9% 7.6% 3.8% 3.0% 2.5% 2.1% 0.8% 0.3%
x264 [info]: ref B L1: 90.2% 9.8%
x264 [info]: kb/s:1739.47

x264 [total]: encoded 130410 frames, 5.89 fps, 1739.47 kb/s
GeneralComplete name : D:\Torrents\Jeepers Creepers.Dilogy.HDRip.x264.960x\Jeepers Creepers.2001.HDRip.x264.960x.rip by Frost O.S.mp4Format : MPEG-4Format profile : Base MediaCodec ID : isomFile size : 1.27 GiBDuration : 1h 30mnOverall bit rate mode : VariableOverall bit rate : 2 006 KbpsMovie name : Jeepers Creepers 2001 HDRip x264 960x rip by Frost O SGenre : HorrorContentType : Short FilmEncoded date : UTC 2016-03-26 16:32:25Tagged date : UTC 2016-03-26 16:33:57Writing application : MkvToMp4 version: 0.224 (x64)Cover : YesComment : rip by Frost O.SLongDescription : Если бы Дэрри и Триш знали, во что превратится их обычное путешествие домой на каникулы, то остались бы в колледже навсегда. Брат и сестра заметили его на безлюдной дороге рядом с жуткой, обветшалой церковью. Страшная фигура в длинном чёрном плаще и широкополой шляпе скидывала в подвал свертки, испачканные чем-то красным. После увиденного нужно было немедленно вдавить педаль газа взятой напрокат машины и умчаться от этого проклятого места как можно дальше. Но Дэрри и Триш допустили непоправимую, смертельную ошибку. Они решили вернуться и посмотреть: что же он прячет там, в подвале покосившейся церкви? Это безрассудное любопытство обернулось самым невообразимым кошмаром, который только можно себе представить…

VideoID : 1Format : AVCFormat/Info : Advanced Video CodecFormat profile : [email protected] settings, CABAC : YesFormat settings, ReFrames : 10 framesCodec ID : avc1Codec ID/Info : Advanced Video CodingDuration : 1h 30mnBit rate : 1 740 KbpsMaximum bit rate : 6 557 KbpsWidth : 960 pixelsHeight : 516 pixelsDisplay aspect ratio : 1.85:1Frame rate mode : ConstantFrame rate : 23.976 fpsColor space : YUVChroma subsampling : 4:2:0Bit depth : 8 bitsScan type : ProgressiveBits/(Pixel*Frame) : 0.147Stream size : 1.10 GiB (87%)Writing library : x264 core 130 r2273 b3065e6Encoding settings : cabac=1 / ref=10 / deblock=1:-1:-1 / analyse=0x3:0x113 / me=umh / subme=11 / psy=1 / psy_rd=1.00:0.15 / mixed_ref=1 / me_range=32 / chroma_me=1 / trellis=2 / 8x8dct=1 / cqm=0 / deadzone=21,11 / fast_pskip=0 / chroma_qp_offset=-3 / threads=3 / lookahead_threads=1 / sliced_threads=0 / nr=0 / decimate=0 / interlaced=0 / bluray_compat=0 / constrained_intra=0 / bframes=10 / b_pyramid=2 / b_adapt=2 / b_bias=0 / direct=3 / weightb=1 / open_gop=0 / weightp=2 / keyint=250 / keyint_min=23 / scenecut=40 / intra_refresh=0 / rc_lookahead=60 / rc=2pass / mbtree=1 / bitrate=1740 / ratetol=1.0 / qcomp=0.75 / qpmin=0 / qpmax=69 / qpstep=4 / cplxblur=20.0 / qblur=0.5 / ip_ratio=1.40 / aq=1:1.00Language : EnglishEncoded date : UTC 2016-03-26 16:32:25Tagged date : UTC 2016-03-26 16:33:01Color primaries : BT.709Transfer characteristics : BT.709Matrix coefficients : BT.709Color range : Limited

Audio #1ID : 2Format : AACFormat/Info : Advanced Audio CodecFormat profile : LCCodec ID : 40Duration : 1h 30mnBit rate mode : VariableBit rate : 128 KbpsMaximum bit rate : 135 KbpsChannel(s) : 2 channelsChannel positions : Front: L RSampling rate : 48.0 KHzCompression mode : LossyStream size : 82.9 MiB (6%)Title : [Dub] / [Dub]Language : RussianEncoded date : UTC 2016-03-26 16:32:43Tagged date : UTC 2016-03-26 16:33:01

Audio #2ID : 3Format : AACFormat/Info : Advanced Audio CodecFormat profile : LCCodec ID : 40Duration : 1h 30mnBit rate mode : VariableBit rate : 128 KbpsMaximum bit rate : 133 KbpsChannel(s) : 2 channelsChannel positions : Front: L RSampling rate : 48.0 KHzCompression mode : LossyStream size : 83.0 MiB (6%)Title : [VO] Zhuvov / [VO] ZhuvovLanguage : RussianEncoded date : UTC 2016-03-26 16:32:55Tagged date : UTC 2016-03-26 16:33:01
Джиперс Криперс 2 / Jeepers Creepers II
«Он знает. Каков твой страх на вкус...»

Год выпуска: 2003
Страна: США
Жанр: ужасы, триллер
Продолжительность: 01:44:04
Перевод №1: Профессиональный (полное дублирование)
Перевод №2: Профессиональный (двухголосый, закадровый)
Перевод №3: Профессиональный (многоголосый, закадровый) СТС
Cубтитры: нет
Режиссер: Виктор Сальва / Victor Salva,
В ролях: Рэй Уайз / Ray Wise, Джонатан Брек / Jonathan Breck, Гарикайи Мутамбирва / Garikayi Mutambirwa, Эрик Неннингер / Eric Nenninger, Никки Эйкокс / Nicki Aycox, Трэвис Шиффнер / Travis Schiffner, Лена Кардвэлл / Lena Cardwell, Билли Аарон Браун / Billy Aaron Brown, Марайа Делфино / Marieh Delfino, Дайан Делано / Diane Delano, Том Госсом мл. / Thom Gossom Jr. и другие .
Описание: Раз в 23 года зловещий крылатый и когтистый монстр пробуждается от долгого сна, чтобы 23 дня насыщаться человеческой плотью и страхом своих жертв. На исходе последний день его кошмарного пира, и сегодня древнее неведомое зло ждет богатый улов — спортивная команда и очаровательные болельщицы, возвращающиеся с триумфальной игры.
Релиз группы

В начальной сцене старший сын фермера, Джеки, чинит машину. Он использует инструмент, который на сленге называют «крипером».
Актер Мит Лоаф должен был сыграть водителя автобуса, но в итоге отказался от роли по неизвестным причинам.
Съемочные дни — с 10 мая по 9 августа 2002 года.
Первоначально картина должна была называться «Как в аду: Джиперс Криперс 2», но затем название было упрощено до «Джиперс Криперс 2».
Место съемки — Лонг-Бич и ранчо Тиджон (штат Калифорния), а также Лос-Анджелес.
Изначально снятая сцена, где Крипер выбирает в автобусе своих жертв, была сочтена режиссером Виктором Сальва «слишком комичной». Режиссер хотел ее вырезать, но передумал, когда выяснилось, что эта сцена оказалась одной из самых любимых для зрителей на тест-просмотрах.
Чтобы стать настоящим Крипером, актеру Джонатану Бреку приходилось просиживать у гримеров примерно 3-5 часов.
По первой задумке, сюжет сиквела должен был вращаться вокруг Триш и Жизель (героини первого фильма), которые должны были бы выслеживать Крипера и попытаться убить его, в то время, как идея с школьным автобусом была одной из побочных линий сюжета. Но чем больше разрабатывался сценарий, тем больше Виктору Сальва нравилась именно побочная линия. В итоге, линия с Триш и Жизель была удалена из сценария, а школьники, терроризируемые Крипером в школьном автобусе, стали основными героями ленты.
Во время съемок сцены создания гарпуна, в один из карманов актера Рэя Уайза попали искры, из-за чего костюм начал загораться, однако актер не остановился и полностью доиграл сцену.
Главная песня предыдущего фильма «Джиперс Криперс» (2001) не была использована в сиквеле, однако она была взята за основу одной из музыкальных тем в картине.
В сцене, где Иззи, Ди и Ронда нашли пикап таксидермиста и пытаются уехать на нем, актер Трэвис Шиффнер случайно включил переднюю передачу вместо задней. По словам актера, это вышло случайно, но режиссеру очень понравился этот момент и он вошел в фильм.
Главный герой первого фильма Дерри Дженнер, которого играет Джастин Лонг, погибший в финале, появляется и здесь в эпизодической роли пророческого сна-видения Минкси Хайс. А его партнерша по первому фильму Джина Филипс не изъявила желания появляться во втором.

Качество: HDRip / <a href="viewtopic.php?t=4941159" class="postLink">BDRip 720p</a>
Формат: MP4
Видео кодек: H.264
Аудио кодек: AAC
Видео: 960x408 AR:2.35 1740 kbps 23.976 fps
Аудио №1: [Russian] 2ch 48 kHz 128 kbps - [Dub]
Аудио №2: [Russian] 2ch 48 kHz 128 kbps - [DVO]
Аудио №3: [Russian] 2ch 48 kHz 128 kbps - [MVO] СТС
avs [info]: 960x408p 1:1 @ 2997/125 fps (cfr)
x264 [info]: using SAR=1/1
x264 [info]: using cpu capabilities: MMX2 SSE2Fast SSSE3 SSE4.2 LZCNT
x264 [info]: profile High, level 4.1

x264 [info]: frame I:1132 Avg QP:15.00 size: 57300
x264 [info]: frame P:32520 Avg QP:18.86 size: 18650
x264 [info]: frame B:116060 Avg QP:21.57 size: 5912
x264 [info]: consecutive B-frames: 2.3% 3.4% 8.2% 18.2% 14.9% 35.0% 6.5% 8.5% 2.8%
x264 [info]: mb I I16..4: 14.4% 65.4% 20.3%
x264 [info]: mb P I16..4: 1.3% 8.4% 1.3% P16..4: 32.6% 36.1% 11.4% 0.0% 0.0% skip: 8.8%
x264 [info]: mb B I16..4: 0.1% 1.4% 0.1% B16..8: 37.8% 17.1% 2.5% direct: 3.8% skip:37.1% L0:43.8% L1:46.6% BI: 9.7%
x264 [info]: 8x8 transform intra:76.4% inter:59.3%
x264 [info]: direct mvs spatial:98.3% temporal:1.7%
x264 [info]: coded y,uvDC,uvAC intra: 83.8% 80.0% 54.7% inter: 20.9% 18.4% 6.0%
x264 [info]: i16 v,h,dc,p: 44% 13% 13% 30%
x264 [info]: i8 v,h,dc,ddl,ddr,vr,hd,vl,hu: 11% 6% 11% 10% 13% 13% 12% 11% 13%
x264 [info]: i4 v,h,dc,ddl,ddr,vr,hd,vl,hu: 14% 7% 9% 8% 14% 14% 12% 11% 12%
x264 [info]: i8c dc,h,v,p: 39% 26% 18% 17%
x264 [info]: Weighted P-Frames: Y:6.7% UV:2.1%
x264 [info]: ref P L0: 46.8% 8.9% 19.4% 7.5% 6.1% 4.4% 4.0% 2.4% 0.5% 0.0%
x264 [info]: ref B L0: 71.5% 13.4% 7.0% 3.6% 2.6% 1.4% 0.6%
x264 [info]: ref B L1: 91.5% 8.5%
x264 [info]: kb/s:1739.19

x264 [total]: encoded 149712 frames, 7.61 fps, 1739.19 kb/s
GeneralComplete name : D:\Torrents\Jeepers Creepers.Dilogy.HDRip.x264.960x\Jeepers Creepers II.2003.HDRip.x264.960x.rip by Frost O.S.mp4Format : MPEG-4Format profile : Base MediaCodec ID : isomFile size : 1.55 GiBDuration : 1h 44mnOverall bit rate mode : VariableOverall bit rate : 2 138 KbpsMovie name : Jeepers Creepers II 2003 HDRip x264 960x rip by Frost O SGenre : HorrorContentType : Short FilmEncoded date : UTC 2016-03-27 12:41:20Tagged date : UTC 2016-03-27 12:43:05Writing application : MkvToMp4 version: 0.224 (x64)Cover : YesComment : rip by Frost O.SLongDescription : Раз в 23 года зловещий крылатый и когтистый монстр пробуждается от долгого сна, чтобы 23 дня насыщаться человеческой плотью и страхом своих жертв. На исходе последний день его кошмарного пира, и сегодня древнее неведомое зло ждет богатый улов — спортивная команда и очаровательные болельщицы, возвращающиеся с триумфальной игры. Они одни в сломанном автобусе на пустынном шоссе, где не работают мобильные телефоны и неоткуда ждать помощи. На закате прожорливое исчадие ада начнет свою кровавую вакханалию. Сможет ли его добыча дожить до утра, или эта неуязвимая тварь убьет объятых ужасом тинейджеров одного за другим?

VideoID : 1Format : AVCFormat/Info : Advanced Video CodecFormat profile : [email protected] settings, CABAC : YesFormat settings, ReFrames : 8 framesCodec ID : avc1Codec ID/Info : Advanced Video CodingDuration : 1h 44mnBit rate : 1 740 KbpsMaximum bit rate : 15.2 MbpsWidth : 960 pixelsHeight : 408 pixelsDisplay aspect ratio : 2.35:1Frame rate mode : ConstantFrame rate : 23.976 fpsColor space : YUVChroma subsampling : 4:2:0Bit depth : 8 bitsScan type : ProgressiveBits/(Pixel*Frame) : 0.185Stream size : 1.26 GiB (81%)Writing library : x264 core 130 r2273 b3065e6Encoding settings : cabac=1 / ref=8 / deblock=1:-2:-2 / analyse=0x3:0x113 / me=umh / subme=11 / psy=1 / psy_rd=1.00:0.15 / mixed_ref=1 / me_range=32 / chroma_me=1 / trellis=2 / 8x8dct=1 / cqm=0 / deadzone=21,11 / fast_pskip=0 / chroma_qp_offset=-3 / threads=3 / lookahead_threads=1 / sliced_threads=0 / nr=0 / decimate=0 / interlaced=0 / bluray_compat=0 / constrained_intra=0 / bframes=8 / b_pyramid=2 / b_adapt=2 / b_bias=0 / direct=3 / weightb=1 / open_gop=0 / weightp=2 / keyint=250 / keyint_min=23 / scenecut=40 / intra_refresh=0 / rc_lookahead=60 / rc=2pass / mbtree=1 / bitrate=1740 / ratetol=1.0 / qcomp=0.60 / qpmin=0 / qpmax=69 / qpstep=4 / cplxblur=20.0 / qblur=0.5 / ip_ratio=1.40 / aq=1:1.00Language : EnglishEncoded date : UTC 2016-03-27 12:41:20Tagged date : UTC 2016-03-27 12:41:45Color primaries : BT.709Transfer characteristics : BT.709Matrix coefficients : BT.709Color range : Limited

Audio #1ID : 2Format : AACFormat/Info : Advanced Audio CodecFormat profile : LCCodec ID : 40Duration : 1h 44mnBit rate mode : VariableBit rate : 128 KbpsMaximum bit rate : 134 KbpsChannel(s) : 2 channelsChannel positions : Front: L RSampling rate : 48.0 KHzCompression mode : LossyStream size : 95.3 MiB (6%)Title : Dub / DubLanguage : RussianEncoded date : UTC 2016-03-27 12:41:39Tagged date : UTC 2016-03-27 12:41:45

Audio #2ID : 3Format : AACFormat/Info : Advanced Audio CodecFormat profile : LCCodec ID : 40Duration : 1h 44mnBit rate mode : VariableBit rate : 128 KbpsMaximum bit rate : 135 KbpsChannel(s) : 2 channelsChannel positions : Front: L RSampling rate : 48.0 KHzCompression mode : LossyStream size : 95.3 MiB (6%)Title : [DVO] / [DVO]Language : RussianEncoded date : UTC 2016-03-27 12:41:41Tagged date : UTC 2016-03-27 12:41:45

Audio #3ID : 4Format : AACFormat/Info : Advanced Audio CodecFormat profile : LCCodec ID : 40Duration : 1h 44mnBit rate mode : VariableBit rate : 128 KbpsMaximum bit rate : 131 KbpsChannel(s) : 2 channelsChannel positions : Front: L RSampling rate : 48.0 KHzCompression mode : LossyStream size : 95.3 MiB (6%)Title : [MVO] CTC / [MVO] CTCLanguage : RussianEncoded date : UTC 2016-03-27 12:41:43Tagged date : UTC 2016-03-27 12:41:45
[i]Хочу выразить отдельную благодарность пользователю и Snake1965 за помощь в оформлении раздачи

Трекер:  [ 27-Мар-2016 15:00 ]

  

Скачать .torrent

Размер .torrent файла 14 KB


Размер: 2.83 GB
Хэш (hash) релиза: 7a385366eb555d8e1afa5c3ffaae9e2b49a87275

Еще никто не оставлял запись к записи скачать торрент [VIDEO] Джиперс Криперс: Дилогия Jeepers Creepers: Dilogy . Будь первым!

!Обратная связь