Ben 10: Omniverse | Ben 10: Ultimate Alien | Benjamin Blümchen

Скачать через торрент Такси Taxi Фильм бесплатно в хорошем качестве torrent

Скачивайте на UnionPeer.org фильмы через торрент без регистрации. Новинки кино в хорошем качестве через торрент. На UnionPeer.org можно скачать через торрент фильмы 2014 и 2015 годов. Самые новые фильмы.

Скачать торрент Такси Taxi бесплатно через .torrent фильм мультфильм сериал

Статистика раздачи
Размер:  1.23 GB   |    Зарегистрирован:  2 года 2 месяца   |    .torrent скачан:  27 раз   |   
Раздают:  1  
   
загрузка...
 
Автор Сообщение

Galfimbul

avatar Galfimbul


Такси / Taxi

Год выпуска: 1979
Страна: США
Студия: Paramount Pictures
Жанр: комедия
Продолжительность: ~25 минут (серия)
Перевод: Профессиональный (двухголосый закадровый) CBS Drama
Режиссёр: Джеймс Берроуз / James Burrows
В ролях: Джадд Хёрш, Дэнни ДеВито, Мэрилу Хеннер, Тони Данза, Дж. Алан Томас, Кристофер Ллойд, Энди Кауфман, Джефф Конэвей и другие.
Описание: Сотрудники такси в Нью-Йорке ходят на свою работу, мечтая о более высоких достижениях.
РЕЛИЗ ОТ: V.SERIJ2013
Спасибо #Antisnl#, Beer kolesik Drinkers за запись звука и v.serij2013 (т.е., мне) за сведение.
Качество: DVDRip |PLAiD|
Формат: MKV
Видео кодек: H.264
Аудио кодек: AC3
Видео: H.264, 716x476 (4:3), 23.976 fps, ~2000 kbps, 0.245 bit/pixel
Аудио:

русская |CBS Drama|: AC3, 48 kHz, 2 ch, 192 kbps
английская |Оригинал|: AC3, 48 kHz, 2 ch, 192 kbps

Субтитры: английские
Сэмпл \ <a href="tracker.php?f%5B%5D=189&f%5B%5D=2367&f%5B%5D=2368&f%5B%5D=2372&f%5B%5D=2371&f%5B%5D=2370&nm=Taxi" class="postLink">Все раздачи сериала</a>
01. Louie And The Nice Girl
02. Honor Thy Father
05. Wherefore Art Thou Bobby
General
Unique ID                      : 183505780826502100212903520351688405637 (0x8A0DED86046FA5FB886CF06DE5093285)
Complete name                  : E:\Video\SD\Taxi Season 2 (DVDRip l AVC)\01. Louie And The Nice Girl.mkv
Format                         : Matroska
Format version                 : Version 4 / Version 2
File size                      : 420 MiB
Duration                       : 24mn 37s
Overall bit rate               : 2 387 Kbps
Encoded date                   : UTC 2016-03-26 07:02:11
Writing application            : mkvmerge v8.8.0 ('Wind at my back') 32bit
Writing library                : libebml v1.3.3 + libmatroska v1.4.4
DURATION                       : 00:24:37.184000000
NUMBER_OF_FRAMES               : 46162
NUMBER_OF_BYTES                : 35452416
_STATISTICS_WRITING_APP        : mkvmerge v8.8.0 ('Wind at my back') 32bit
_STATISTICS_WRITING_DATE_UTC   : 2016-03-26 07:02:11
_STATISTICS_TAGS               : BPS DURATION NUMBER_OF_FRAMES NUMBER_OF_BYTES

Video
ID                             : 1
Format                         : AVC
Format/Info                    : Advanced Video Codec
Format profile                 : [email protected]
Format settings, CABAC         : Yes
Format settings, ReFrames      : 13 frames
Codec ID                       : V_MPEG4/ISO/AVC
Duration                       : 24mn 37s
Bit rate                       : 2 000 Kbps
Width                          : 716 pixels
Height                         : 476 pixels
Display aspect ratio           : 4:3
Original display aspect ratio  : 4:3
Frame rate mode                : Constant
Frame rate                     : 23.976 fps
Color space                    : YUV
Chroma subsampling             : 4:2:0
Bit depth                      : 8 bits
Scan type                      : Progressive
Bits/(Pixel*Frame)             : 0.245
Stream size                    : 344 MiB (82%)
Writing library                : x264 core 140 r2377 1ca7bb9
Encoding settings              : cabac=1 / ref=13 / deblock=1:-3:-3 / analyse=0x3:0x133 / me=umh / subme=11 / psy=1 / psy_rd=1.00:0.15 / mixed_ref=1 / me_range=32 / chroma_me=1 / trellis=2 / 8x8dct=1 / cqm=0 / deadzone=21,11 / fast_pskip=0 / chroma_qp_offset=-3 / threads=12 / lookahead_threads=1 / sliced_threads=0 / nr=0 / decimate=0 / interlaced=0 / bluray_compat=0 / constrained_intra=0 / bframes=6 / b_pyramid=2 / b_adapt=2 / b_bias=0 / direct=3 / weightb=1 / open_gop=0 / weightp=2 / keyint=250 / keyint_min=23 / scenecut=40 / intra_refresh=0 / rc_lookahead=60 / rc=2pass / mbtree=1 / bitrate=2000 / ratetol=1.0 / qcomp=0.60 / qpmin=0 / qpmax=69 / qpstep=4 / cplxblur=20.0 / qblur=0.5 / ip_ratio=1.40 / aq=2:0.70
Language                       : English
Default                        : Yes
Forced                         : No

Audio #1
ID                             : 2
Format                         : AC-3
Format/Info                    : Audio Coding 3
Mode extension                 : CM (complete main)
Format settings, Endianness    : Big
Codec ID                       : A_AC3
Duration                       : 24mn 37s
Bit rate mode                  : Constant
Bit rate                       : 192 Kbps
Channel(s)                     : 2 channels
Channel positions              : Front: L R
Sampling rate                  : 48.0 KHz
Bit depth                      : 16 bits
Compression mode               : Lossy
Stream size                    : 33.8 MiB (8%)
Title                          : DVO (CBS Drama)
Language                       : Russian
Default                        : Yes
Forced                         : No

Audio #2
ID                             : 3
Format                         : AC-3
Format/Info                    : Audio Coding 3
Mode extension                 : CM (complete main)
Format settings, Endianness    : Big
Codec ID                       : A_AC3
Duration                       : 24mn 37s
Bit rate mode                  : Constant
Bit rate                       : 192 Kbps
Channel(s)                     : 2 channels
Channel positions              : Front: L R
Sampling rate                  : 48.0 KHz
Bit depth                      : 16 bits
Compression mode               : Lossy
Stream size                    : 33.8 MiB (8%)
Title                          : Original
Language                       : English
Default                        : No
Forced                         : No

Text
ID                             : 4
Format                         : UTF-8
Codec ID                       : S_TEXT/UTF8
Codec ID/Info                  : UTF-8 Plain Text
Title                          : SDH
Language                       : English
Default                        : No
Forced                         : No

Menu
00:00:00.000                   : en:Chapter 1
00:01:10.934                   : en:Chapter 2
00:12:30.934                   : en:Chapter 3
00:23:59.934                   : en:Chapter 4



Трекер:  [ 26-Мар-2016 15:00 ]

  

Скачать .torrent

Размер .torrent файла 13 KB


Размер: 1.23 GB
Хэш (hash) релиза: 2965da0e791ad8199ab9e6844aeab164206767c7
Подписка на обновления:

Еще никто не оставлял запись к записи скачать торрент Такси Taxi . Будь первым!

!Обратная связь